<?xml version="1.0" standalone="no"?>
<!DOCTYPE svg PUBLIC "-//W3C//DTD SVG 1.1//EN" "http://www.w3.org/Graphics/SVG/1.1/DTD/svg11.dtd" >
<svg xmlns="http://www.w3.org/2000/svg">
<metadata></metadata>
<defs>
<font id="web_serveroffregular" horiz-adv-x="390" >
<font-face units-per-em="1000" ascent="750" descent="-250" />
<missing-glyph horiz-adv-x="350" />
<glyph horiz-adv-x="1000" />
<glyph horiz-adv-x="1000" />
<glyph unicode="&#xd;" horiz-adv-x="1000" />
<glyph unicode=" "  horiz-adv-x="350" />
<glyph unicode="&#x09;" horiz-adv-x="350" />
<glyph unicode="&#xa0;" horiz-adv-x="350" />
<glyph unicode="!" horiz-adv-x="140" d="M52 0v112h35v-112h-35zM52 194v500h35v-500h-35z" />
<glyph unicode="&#x22;" horiz-adv-x="230" d="M52 562v180h35v-180h-35zM140 562v180h34v-180h-34z" />
<glyph unicode="#" horiz-adv-x="448" d="M52 2l66 250h-65v35h75l32 120h-68v35h77l69 259l35 -8l-67 -251h79l69 259l35 -8l-67 -251h66v-35h-76l-32 -120h70v-35h-79l-69 -259l-34 9l66 250h-79l-69 -259zM164 287h80l32 120h-80z" />
<glyph unicode="$" horiz-adv-x="420" d="M54 15v36q75 -23 135 -26v306q-26 3 -46 10t-42 22.5t-34.5 46t-12.5 73.5v67q0 70 37.5 108t97.5 44v89h35v-88q57 -3 117 -18v-37q-70 18 -117 21v-307q136 -14 136 -151v-68q0 -69 -37.5 -107.5t-98.5 -44.5v-88h-35v88q-69 3 -135 24zM89 483q0 -103 100 -117v302 q-45 -5 -72.5 -34.5t-27.5 -83.5v-67zM224 26q45 4 73 33.5t28 83.5v68q0 104 -101 116v-301z" />
<glyph unicode="%" horiz-adv-x="470" d="M44 420v203q0 39 22.5 59.5t58.5 20.5q35 0 57.5 -20.5t22.5 -59.5v-203q0 -41 -22.5 -61t-57.5 -20q-36 0 -58.5 20t-22.5 61zM52 5l327 700l30 -15l-328 -702zM79 420q0 -22 13 -34t33 -12t32.5 12t12.5 34v203q0 22 -12.5 34t-32.5 12t-33 -12t-13 -34v-203zM258 71 v203q0 39 22.5 60t57.5 21t58 -21t23 -60v-203q0 -40 -23 -60.5t-58 -20.5t-57.5 20.5t-22.5 60.5zM293 71q0 -22 12.5 -34t32.5 -12t33 12t13 34v203q0 22 -13 34t-33 12t-32.5 -12t-12.5 -34v-203z" />
<glyph unicode="&#x26;" horiz-adv-x="490" d="M55 143v68q0 109 90 136q-90 25 -90 136v67q0 75 42.5 114t110.5 39q67 0 133 -24v-38q-73 28 -133 28q-53 0 -86 -29.5t-33 -89.5v-67q0 -119 126 -119h243v-35h-97v-186q0 -76 -38.5 -114.5t-107.5 -38.5q-70 0 -115 39t-45 114zM89 143q0 -59 35 -88.5t91 -29.5 q111 0 111 118v186h-111q-126 0 -126 -118v-68z" />
<glyph unicode="'" horiz-adv-x="140" d="M52 562v180h35v-180h-35z" />
<glyph unicode="(" horiz-adv-x="220" d="M52 66v562q0 79 37.5 125.5t104.5 46.5v-34q-52 0 -79.5 -37t-27.5 -101v-562q0 -64 27.5 -101t79.5 -37v-35q-67 0 -104.5 46.5t-37.5 126.5z" />
<glyph unicode=")" horiz-adv-x="220" d="M23 -72q52 0 79.5 37t27.5 101v562q0 64 -27.5 101t-79.5 37v34q67 0 104 -46t37 -126v-562q0 -80 -37 -126.5t-104 -46.5v35z" />
<glyph unicode="*" horiz-adv-x="336" d="M49 625l21 29l78 -55v95h35v-95l78 55l20 -30l-84 -59l84 -59l-20 -30l-78 54v-94h-35v94l-78 -54l-20 30l84 59z" />
<glyph unicode="+" horiz-adv-x="370" d="M53 329v35h112v112h35v-112h111v-35h-111v-111h-35v111h-112z" />
<glyph unicode="," horiz-adv-x="160" d="M44 -126q24 65 27 126h-19v93h54v-85q0 -62 -24 -134h-38z" />
<glyph unicode="-" horiz-adv-x="370" d="M53 329v35h258v-35h-258z" />
<glyph unicode="." horiz-adv-x="160" d="M52 0v93h54v-93h-54z" />
<glyph unicode="/" horiz-adv-x="408" d="M23 5l326 700l30 -15l-327 -702z" />
<glyph unicode="0" horiz-adv-x="420" d="M54 143v407q0 75 43 114t110 39t110 -39t43 -114v-407q0 -75 -43 -114t-110 -39t-110 39t-43 114zM89 134l222 479q-27 56 -104 56q-53 0 -85.5 -29.5t-32.5 -89.5v-416zM101 81q29 -56 106 -56q53 0 85.5 29.5t32.5 88.5v407q0 2 -0.5 5.5t-0.5 5.5z" />
<glyph unicode="1" horiz-adv-x="180" d="M3 665v35h103v-700h-35v665h-68z" />
<glyph unicode="2" horiz-adv-x="420" d="M54 0v211q0 38 11 66.5t25.5 44t38 25t39.5 12.5t38 5q23 2 38 6t36.5 15t33 36t11.5 62v67q0 60 -32.5 89.5t-85.5 29.5q-59 0 -134 -28v38q67 24 134 24t110 -39t43 -114v-67q0 -47 -14.5 -79t-41 -47t-47.5 -20.5t-49 -7.5q-22 -2 -37.5 -5.5t-37 -14.5t-33 -36 t-11.5 -62v-176h271v-35h-306z" />
<glyph unicode="3" horiz-adv-x="420" d="M54 665v35h306v-28l-107 -237q49 -13 78 -50.5t29 -95.5v-146q0 -75 -43 -114t-110 -39q-64 0 -134 25v37q76 -27 134 -27q53 0 85.5 29.5t32.5 88.5v146q0 59 -35 88.5t-91 29.5v35q3 0 9 -0.5t10 -0.5l100 224h-264z" />
<glyph unicode="4" horiz-adv-x="441" d="M51 252l3 9v6h1l133 427h38l-133 -427h224v233h35v-233h58v-34h-58v-233h-35v233h-263v19h-3z" />
<glyph unicode="5" horiz-adv-x="420" d="M73 15v37q76 -27 134 -27q53 0 85.5 29.5t32.5 88.5v146q0 59 -32.5 88.5t-85.5 29.5q-40 0 -69.5 -33.5t-29.5 -92.5h-35l20 413h257v-35h-222l-15 -276q29 59 94 59q67 0 110 -39t43 -114v-146q0 -75 -43 -114t-110 -39q-64 0 -134 25z" />
<glyph unicode="6" horiz-adv-x="420" d="M54 143v407q0 75 43 114t110 39t134 -24v-38q-75 28 -134 28q-53 0 -85.5 -29.5t-32.5 -89.5v-141q75 33 118 33q67 0 110 -39t43 -114v-138q0 -79 -43 -120t-110 -41t-110 39t-43 114zM89 143q0 -59 32.5 -88.5t85.5 -29.5t85.5 31t32.5 95v138q0 59 -32.5 88.5 t-85.5 29.5q-52 0 -118 -22v-242z" />
<glyph unicode="7" horiz-adv-x="420" d="M34 665v35h318v-29l-205 -671h-38l203 665h-278z" />
<glyph unicode="8" horiz-adv-x="420" d="M54 143v68q0 102 78 135q-78 35 -78 137v67q0 72 42 112.5t110 40.5q69 0 111.5 -40.5t42.5 -112.5v-67q0 -102 -78 -137q78 -33 78 -135v-68q0 -72 -42.5 -112.5t-111.5 -40.5q-68 0 -110 40.5t-42 112.5zM89 143q0 -58 33 -88t85 -30t85 30t33 88v68q0 64 -34 90.5 t-83 26.5q-50 0 -84.5 -26t-34.5 -91v-68zM89 483q0 -53 32 -86t85 -33q51 0 85 32t34 87v67q0 58 -33 88.5t-85 30.5t-85 -30.5t-33 -88.5v-67z" />
<glyph unicode="9" horiz-adv-x="420" d="M54 405v138q0 79 43 119.5t110 40.5t110 -39t43 -114v-407q0 -75 -43 -114t-110 -39q-64 0 -134 25v37q76 -27 134 -27q53 0 85.5 29.5t32.5 88.5v141q-79 -32 -118 -32q-67 0 -110 39t-43 114zM89 405q0 -59 32.5 -88.5t85.5 -29.5q52 0 118 22v241q0 60 -32.5 89.5 t-85.5 29.5t-85.5 -31t-32.5 -95v-138z" />
<glyph unicode=":" horiz-adv-x="160" d="M52 0v93h54v-93h-54zM52 271v93h54v-93h-54z" />
<glyph unicode=";" horiz-adv-x="160" d="M44 -126q24 65 27 126h-19v93h54v-85q0 -62 -24 -134h-38zM52 271v93h54v-93h-54z" />
<glyph unicode="&#x3c;" horiz-adv-x="311" d="M49 347l183 183l25 -25l-158 -158l158 -158l-25 -25z" />
<glyph unicode="=" horiz-adv-x="370" d="M53 291v35h258v-35h-258zM53 368v35h258v-35h-258z" />
<glyph unicode="&#x3e;" horiz-adv-x="311" d="M49 189l158 158l-158 158l25 25l183 -183l-183 -183z" />
<glyph unicode="?" horiz-adv-x="400" d="M54 641v38q66 24 133 24q68 0 110.5 -39t42.5 -114v-67q0 -44 -11 -74.5t-31.5 -46t-33 -21t-30.5 -10.5l-9 -2q-10 -2 -20 -7.5t-25 -17.5t-24 -36t-9 -57v-56h-35v56q0 43 12.5 74.5t32.5 46.5t34 21.5t28 9.5l13 4q14 4 23.5 8.5t23 16t20.5 34.5t7 57v67 q0 60 -33 89.5t-86 29.5q-60 0 -133 -28zM112 0v93h35v-93h-35z" />
<glyph unicode="@" d="M39 143v214q0 75 43 114t110 39t110 -39t43 -114v-187q0 -26 -16.5 -40t-40.5 -14q-35 0 -51 25q-16 -25 -45 -25q-32 0 -53 19t-21 54v121q0 37 20.5 55.5t53.5 18.5q22 0 38 -16v6h35v-204q0 -19 23 -19q22 0 22 19v187q0 59 -32.5 88.5t-85.5 29.5t-85.5 -29.5 t-32.5 -88.5v-214q0 -59 32.5 -88.5t85.5 -29.5q58 0 134 27v-37q-70 -25 -134 -25q-67 0 -110 39t-43 114zM153 189q0 -38 39 -38q35 0 38 34v129q-3 35 -38 35q-17 0 -28 -10t-11 -29v-121z" />
<glyph unicode="A" horiz-adv-x="420" d="M22 0l168 700h35l167 -700h-38l-39 166h-216l-40 -166h-37zM107 201h199l-98 419z" />
<glyph unicode="B" horiz-adv-x="410" d="M53 0v700h137q71 0 116.5 -39.5t45.5 -114.5v-59q0 -104 -80 -137q80 -33 80 -137v-59q0 -75 -45.5 -114.5t-116.5 -39.5h-137zM88 35h102q57 0 92 29.5t35 89.5v59q0 31 -9.5 53.5t-21.5 34t-32.5 19t-32 9t-31.5 3.5h-102v-297zM88 368h102q20 2 31.5 3.5t32 9t32.5 19 t21.5 34t9.5 53.5v59q0 60 -35 89.5t-92 29.5h-102v-297z" />
<glyph unicode="C" horiz-adv-x="380" d="M53 145v410q0 76 43.5 115.5t111.5 39.5q65 0 135 -25v-38q-75 28 -135 28q-54 0 -87 -30t-33 -90v-410q0 -60 33 -90t87 -30q60 0 135 28v-38q-70 -25 -135 -25q-68 0 -111.5 39.5t-43.5 115.5z" />
<glyph unicode="D" horiz-adv-x="410" d="M53 0v700h145q68 0 111 -39.5t43 -114.5v-392q0 -75 -43 -114.5t-111 -39.5h-145zM88 35h110q53 0 86 29.5t33 89.5v392q0 60 -33 89.5t-86 29.5h-110v-630z" />
<glyph unicode="E" horiz-adv-x="350" d="M53 0v700h270v-35h-235v-297h206v-36h-206v-297h235v-35h-270z" />
<glyph unicode="F" horiz-adv-x="350" d="M53 0v700h270v-35h-235v-297h206v-36h-206v-332h-35z" />
<glyph unicode="G" horiz-adv-x="420" d="M53 145v410q0 76 43.5 115.5t111.5 39.5q62 0 135 -19v-37q-78 21 -135 21q-54 0 -87 -30t-33 -90v-410q0 -60 33 -90t87 -30q55 0 119 16v291h-127v36h162v-353q-80 -25 -154 -25q-68 0 -111.5 39.5t-43.5 115.5z" />
<glyph unicode="H" horiz-adv-x="410" d="M53 0v700h35v-332h229v332h35v-700h-35v332h-229v-332h-35z" />
<glyph unicode="I" horiz-adv-x="140" d="M52 0v700h35v-700h-35z" />
<glyph unicode="J" horiz-adv-x="370" d="M24 15v38q73 -28 134 -28q54 0 87 30t33 90v555h35v-555q0 -76 -43.5 -115.5t-111.5 -39.5q-65 0 -134 25z" />
<glyph unicode="K" horiz-adv-x="410" d="M53 0v700h36v-332h108l154 332h38l-163 -350l164 -350h-38l-155 332h-108v-332h-36z" />
<glyph unicode="L" horiz-adv-x="350" d="M53 0v700h35v-665h235v-35h-270z" />
<glyph unicode="M" horiz-adv-x="535" d="M51 700h38l177 -477l174 477h39l-2 -6v-694h-35v599l-159 -433h-33l-163 437v-603h-35v697z" />
<glyph unicode="N" horiz-adv-x="410" d="M53 0v700h33l231 -592v592h35v-700h-32l-232 592v-592h-35z" />
<glyph unicode="O" horiz-adv-x="420" d="M53 145v410q0 76 43.5 115.5t111.5 39.5t111 -39.5t43 -115.5v-410q0 -76 -43 -115.5t-111 -39.5t-111.5 39.5t-43.5 115.5zM88 145q0 -60 33 -90t87 -30q53 0 86 30t33 90v410q0 60 -33 90t-86 30q-54 0 -87 -30t-33 -90v-410z" />
<glyph unicode="P" d="M53 0v700h137q71 0 116.5 -39.5t45.5 -114.5v-137q0 -39 -11.5 -68t-28 -45t-39.5 -26t-42.5 -13t-40.5 -3h-102v-254h-35zM88 289h102q127 0 127 120v137q0 60 -35 89.5t-92 29.5h-102v-376z" />
<glyph unicode="Q" horiz-adv-x="420" d="M53 145v410q0 76 43.5 115.5t111.5 39.5t111 -39.5t43 -115.5v-410q0 -91 -63 -131l52 -112h-38l-46 98q-30 -10 -59 -10q-68 0 -111.5 39.5t-43.5 115.5zM88 145q0 -60 33 -90t87 -30q23 0 44 6l-56 122h38l49 -107q44 31 44 99v410q0 60 -33 90t-86 30q-54 0 -87 -30 t-33 -90v-410z" />
<glyph unicode="R" horiz-adv-x="410" d="M53 0v700h137q72 0 117.5 -39.5t45.5 -114.5v-137q0 -117 -99 -147l122 -262h-38l-119 255q-10 -1 -29 -1h-101v-254h-36zM89 289h101q127 0 127 120v137q0 60 -35 89.5t-92 29.5h-101v-376z" />
<glyph unicode="S" horiz-adv-x="420" d="M53 15v37q83 -27 155 -27q53 0 86 30t33 90v68q0 31 -9 53t-20.5 34t-30.5 19.5t-30.5 9t-29.5 3.5q-22 2 -38.5 5t-40 13t-38.5 25.5t-26 44t-11 67.5v68q0 76 43.5 115.5t111.5 39.5q62 0 135 -19v-37q-78 21 -135 21q-54 0 -87 -30t-33 -90v-68q0 -31 9 -53t20.5 -34 t31 -19.5t31 -9t29.5 -3.5q22 -2 38.5 -5t39.5 -13t38 -25.5t26 -44t11 -67.5v-68q0 -76 -43 -115.5t-111 -39.5q-75 0 -155 25z" />
<glyph unicode="T" horiz-adv-x="360" d="M24 665v35h309v-35h-137v-665h-35v665h-137z" />
<glyph unicode="U" horiz-adv-x="410" d="M53 145v555h35v-555q0 -60 31.5 -90t83.5 -30t83 30t31 90v555h35v-555q0 -77 -40.5 -116t-108.5 -39t-109 39.5t-41 115.5z" />
<glyph unicode="V" horiz-adv-x="420" d="M22 700h37l149 -619l146 619h38l-167 -700h-35z" />
<glyph unicode="W" horiz-adv-x="592" d="M23 700h37l129 -612q47 234 88 447h33l90 -447q9 43 56 268t71 344h38l-147 -700h-35l-89 444l-87 -444h-35z" />
<glyph unicode="X" horiz-adv-x="420" d="M25 700h38l145 -310l142 310h39l-163 -350l164 -350h-39l-143 309l-144 -309h-38l163 350z" />
<glyph unicode="Y" horiz-adv-x="420" d="M21 700h37l150 -395l147 395h38l-168 -449v-251h-35v253z" />
<glyph unicode="Z" horiz-adv-x="420" d="M53 0v28l260 637h-260v35h301v-28l-260 -637h260v-35h-301z" />
<glyph unicode="[" horiz-adv-x="240" d="M53 -97v888h151v-35h-117v-818h117v-35h-151z" />
<glyph unicode="\" horiz-adv-x="408" d="M23 690l30 15l326 -701l-29 -16z" />
<glyph unicode="]" horiz-adv-x="240" d="M33 -62h116v818h-116v35h151v-888h-151v35z" />
<glyph unicode="^" horiz-adv-x="474" d="M50 563l183 183l26 -25l-1 -1l159 -157l-26 -25l-158 157l-157 -157z" />
<glyph unicode="_" horiz-adv-x="370" d="M5 -207h356v-35h-356v35z" />
<glyph unicode="`" horiz-adv-x="296" d="M49 682l22 29l172 -120l-23 -29z" />
<glyph unicode="a" d="M53 129h1v39q0 69 38.5 103.5t99.5 34.5h104v65q0 51 -29 77.5t-73 26.5q-46 0 -121 -27v37q70 25 122 25q59 0 97.5 -35.5t38.5 -103.5v-371h-35v14q-70 -24 -104 -24q-61 0 -100 35t-39 104zM88 129q0 -52 29 -78t75 -26q47 0 104 17v229h-104q-46 0 -75 -26t-29 -77 v-39z" />
<glyph unicode="b" d="M54 0v750h34v-267q67 27 104 27q61 0 100 -35t39 -104v-242q0 -69 -39 -104t-100 -35q-40 0 -104 26v-16h-34zM88 42q57 -17 104 -17q46 0 75 26t29 78v242q0 52 -29 78t-75 26q-48 0 -104 -18v-415z" />
<glyph unicode="c" horiz-adv-x="370" d="M53 129v242q0 69 39 104t100 35q50 0 119 -25v-37q-75 27 -119 27q-46 0 -75 -26t-29 -78v-242q0 -52 29 -78t75 -26q44 0 119 27v-37q-69 -25 -119 -25q-61 0 -100 35t-39 104z" />
<glyph unicode="d" d="M54 129v242q0 69 38.5 104t99.5 35q39 0 104 -24v264h35v-750h-35v13q-67 -23 -104 -23q-61 0 -99.5 35t-38.5 104zM88 129q0 -52 29 -78t75 -26q47 0 104 17v415q-56 18 -104 18q-46 0 -75 -26t-29 -78v-242z" />
<glyph unicode="e" d="M54 129v242q0 69 38.5 104t99.5 35t100 -35t39 -104v-138h-243v-104q0 -52 29 -78t75 -26q44 0 119 27v-37q-69 -25 -119 -25q-61 0 -99.5 35t-38.5 104zM88 267h208v104q0 52 -29 78t-75 26t-75 -26t-29 -78v-104z" />
<glyph unicode="f" horiz-adv-x="290" d="M24 465v35h77v79q0 69 41 103.5t106 34.5v-34q-49 0 -80.5 -26t-31.5 -78v-79h126v-35h-126v-465h-35v465h-77z" />
<glyph unicode="g" d="M54 129v242q0 69 38.5 104t99.5 35q39 0 104 -24v14h35v-613q0 -69 -39 -104t-100 -35q-62 0 -134 24v38q76 -27 134 -27q46 0 75 26t29 78v126q-67 -23 -104 -23q-61 0 -99.5 35t-38.5 104zM88 129q0 -52 29 -78t75 -26q47 0 104 17v415q-56 18 -104 18q-46 0 -75 -26 t-29 -78v-242z" />
<glyph unicode="h" d="M54 0v750h34v-264q63 24 104 24q61 0 100 -35t39 -104v-371h-35v371q0 52 -29 78t-75 26q-48 0 -104 -18v-457h-34z" />
<glyph unicode="i" horiz-adv-x="140" d="M52 0v500h35v-500h-35zM52 581v119h35v-119h-35z" />
<glyph unicode="j" horiz-adv-x="140" d="M-61 -217q49 0 80.5 26t31.5 78v613h35v-613q0 -69 -41 -104t-106 -35v35zM51 581v119h35v-119h-35z" />
<glyph unicode="k" horiz-adv-x="368" d="M54 0v750h34v-483h99l107 233h38l-117 -250l118 -250h-38l-108 233h-99v-233h-34z" />
<glyph unicode="l" horiz-adv-x="140" d="M52 0v750h35v-750h-35z" />
<glyph unicode="m" horiz-adv-x="580" d="M55 0v500h35v-16q63 26 90 26q56 0 91 -35q82 35 122 35q53 -1 88 -33t35 -91v-386h-35v386q0 44 -25 66.5t-63 22.5q-48 0 -108 -19q18 -29 18 -70v-386h-35v386q0 44 -25 66.5t-63 22.5q-39 0 -90 -16v-459h-35z" />
<glyph unicode="n" d="M54 0v500h34v-17q67 27 104 27q61 0 100 -35t39 -104v-371h-35v371q0 52 -29 78t-75 26q-48 0 -104 -18v-457h-34z" />
<glyph unicode="o" d="M54 129v242q0 69 38.5 104t99.5 35t100 -35t39 -104v-242q0 -69 -39 -104t-100 -35t-99.5 35t-38.5 104zM88 129q0 -52 29 -78t75 -26t75 26t29 78v242q0 52 -29 78t-75 26t-75 -26t-29 -78v-242z" />
<glyph unicode="p" d="M54 -242v742h34v-14q63 24 104 24q61 0 100 -35t39 -104v-242q0 -69 -39 -104t-100 -35q-39 0 -104 23v-255h-34zM88 42q57 -17 104 -17q46 0 75 26t29 78v242q0 52 -29 78t-75 26q-48 0 -104 -18v-415z" />
<glyph unicode="q" d="M54 129v242q0 69 38.5 104t99.5 35q39 0 104 -24v14h35v-742h-35v255q-67 -23 -104 -23q-61 0 -99.5 35t-38.5 104zM88 129q0 -52 29 -78t75 -26q47 0 104 17v415q-56 18 -104 18q-46 0 -75 -26t-29 -78v-242z" />
<glyph unicode="r" horiz-adv-x="205" d="M53 0v500h34v-17q67 27 105 27v-35q-50 0 -105 -18v-457h-34z" />
<glyph unicode="s" d="M54 368q0 71 38.5 106.5t99.5 35.5q50 0 119 -25v-37q-75 27 -119 27q-46 0 -75 -26.5t-29 -80.5q0 -30 9.5 -50.5t27.5 -30.5t33 -14t35 -6q27 -2 47 -7.5t43 -18.5t35.5 -41t12.5 -68q0 -71 -38.5 -106.5t-100.5 -35.5q-64 0 -134 25v37q76 -27 134 -27q46 0 75 26.5 t29 80.5q0 30 -9.5 50.5t-27.5 30.5t-33 14t-35 6q-27 2 -47 7.5t-42.5 18.5t-35 41t-12.5 68z" />
<glyph unicode="t" horiz-adv-x="280" d="M24 465v35h67v97h35v-97h126v-35h-126v-336q0 -52 31.5 -78t80.5 -26v-35q-65 0 -106 35t-41 104v336h-67z" />
<glyph unicode="u" d="M54 129v371h34v-371q0 -52 29 -78t75 -26q47 0 104 17v458h35v-500h-35v16q-66 -26 -104 -26q-61 0 -99.5 35t-38.5 104z" />
<glyph unicode="v" horiz-adv-x="320" d="M2 500h36l120 -425l119 425h37l-140 -500h-33z" />
<glyph unicode="w" horiz-adv-x="496" d="M4 500h37l102 -428l86 292h31l88 -290l100 426h37l-119 -500h-34l-88 291q-11 -36 -41 -137t-45 -154h-34z" />
<glyph unicode="x" horiz-adv-x="356" d="M18 0l137 250l-137 250h40l117 -214l117 214h39l-137 -250l138 -250h-39l-118 214l-117 -214h-40z" />
<glyph unicode="y" d="M54 129v371h34v-371q0 -52 29 -78t75 -26q47 0 104 17v458h35v-613q0 -69 -39 -104t-100 -35q-62 0 -134 24v38q76 -27 134 -27q46 0 75 26t29 78v129q-66 -26 -104 -26q-61 0 -99.5 35t-38.5 104z" />
<glyph unicode="z" d="M54 0v29l235 436h-235v35h277v-29l-236 -436h236v-35h-277z" />
<glyph unicode="{" horiz-adv-x="343" d="M49 347l69 69q25 25 25 60v152q0 79 37.5 125.5t104.5 46.5v-34q-52 0 -79.5 -37t-27.5 -101v-160q0 -42 -29 -72l-49 -49l49 -50q29 -29 29 -71v-160q0 -64 27.5 -101t79.5 -37v-35q-67 0 -104.5 46.5t-37.5 126.5v152q0 35 -25 60z" />
<glyph unicode="|" horiz-adv-x="140" d="M52 -97v888h35v-888h-35z" />
<glyph unicode="}" horiz-adv-x="343" d="M53 -72q52 0 79.5 37t27.5 101v160q0 42 29 71l49 50l-49 49q-29 30 -29 72v160q0 64 -27.5 101t-79.5 37v34q67 0 104.5 -46.5t37.5 -125.5v-152q0 -36 25 -60l69 -69l-69 -69q-25 -24 -25 -60v-152q0 -80 -37.5 -126.5t-104.5 -46.5v35z" />
<glyph unicode="~" horiz-adv-x="408" d="M54 292q0 61 24.5 89t61.5 28q15 0 29.5 -9t21 -16t21.5 -25q30 -37 50 -37q51 0 51 82h35q0 -61 -24.5 -89t-61.5 -28q-39 0 -83 55q-28 32 -39 32q-51 0 -51 -82h-35z" />
<glyph unicode="&#xa1;" horiz-adv-x="140" d="M52 -194v500h35v-500h-35zM52 388v112h35v-112h-35z" />
<glyph unicode="&#xa2;" horiz-adv-x="370" d="M53 129v242q0 64 33.5 98.5t88.5 39.5v88h34v-88q42 -3 102 -24v-37q-57 21 -102 26v-448q45 5 102 26v-37q-54 -19 -102 -24v-88h-34v88q-55 5 -88.5 39.5t-33.5 98.5zM88 129q0 -47 23.5 -72.5t63.5 -30.5v448q-40 -5 -63.5 -30.5t-23.5 -72.5v-242z" />
<glyph unicode="&#xa3;" horiz-adv-x="440" d="M25 329v35h77v186q0 75 43 114t111 39q67 0 133 -24v-38q-73 28 -133 28q-53 0 -86 -29.5t-33 -89.5v-186h146v-35h-146v-294h272v-35h-307v329h-77z" />
<glyph unicode="&#xa4;" horiz-adv-x="310" d="M49 268l39 39q-11 16 -11 40q0 18 11 40l-39 38l25 26l39 -39q15 10 40 10t39 -10l39 39l25 -26l-38 -38q10 -22 10 -40q0 -22 -10 -39l38 -40l-25 -25l-39 39q-20 -11 -39 -11q-23 0 -40 11l-39 -39zM112 347q0 -17 11.5 -29t29.5 -12q17 0 28.5 12t11.5 29t-11.5 29 t-28.5 12q-18 0 -29.5 -12t-11.5 -29z" />
<glyph unicode="&#xa5;" horiz-adv-x="420" d="M22 694h37l148 -392l146 392h37l-166 -445v-1h112v-35h-112v-81h112v-35h-112v-97h-35v97h-111v35h111v81h-111v35h111v4z" />
<glyph unicode="&#xa6;" horiz-adv-x="140" d="M52 -97v403h35v-403h-35zM52 388v403h35v-403h-35z" />
<glyph unicode="&#xa7;" d="M54 348q0 89 64 123q-64 29 -64 119q0 71 38.5 106.5t99.5 35.5q50 0 119 -25v-37q-75 27 -119 27q-46 0 -75 -26.5t-29 -80.5q0 -30 9.5 -50.5t27.5 -30.5t33 -14t35 -6h7v-1q20 -2 36 -5.5t34.5 -13t31 -23t21 -37.5t8.5 -55q0 -89 -66 -124q66 -31 66 -119 q0 -71 -38.5 -106t-100.5 -35t-134 24v38q76 -27 134 -27q46 0 75 26.5t29 79.5q0 30 -9.5 51t-27.5 30.5t-32.5 13.5t-35.5 6h-7v1q-26 3 -45 8.5t-40.5 19.5t-33 41t-11.5 66zM88 348q0 -30 9.5 -50.5t27.5 -30.5t33 -14t35 -6q46 2 74.5 29t28.5 78q0 91 -102 100 q-47 -2 -76.5 -28.5t-29.5 -77.5z" />
<glyph unicode="&#xa8;" horiz-adv-x="280" d="M53 581v113h35v-113h-35zM188 581v113h35v-113h-35z" />
<glyph unicode="&#xa9;" horiz-adv-x="420" d="M54 143v407q0 75 43 114t110 39t110 -39t43 -114v-407q0 -75 -43 -114t-110 -39t-110 39t-43 114zM89 143q0 -59 32.5 -88.5t85.5 -29.5t85.5 29.5t32.5 88.5v407q0 60 -32.5 89.5t-85.5 29.5t-85.5 -29.5t-32.5 -89.5v-407zM118 225v244q0 47 26.5 71t68.5 24 q40 0 83 -16v-37q-56 18 -83 18t-43.5 -15t-16.5 -45v-244q0 -30 16.5 -45t43.5 -15q32 0 83 18v-38q-45 -15 -83 -15q-42 0 -68.5 24t-26.5 71z" />
<glyph unicode="&#xab;" horiz-adv-x="451" d="M49 347l183 183l25 -25l-158 -158l158 -158l-25 -25zM189 347l183 183l25 -25l-158 -158l158 -158l-25 -25z" />
<glyph unicode="&#xac;" horiz-adv-x="370" d="M53 329v35h258v-146h-35v111h-223z" />
<glyph unicode="&#xad;" horiz-adv-x="370" d="M53 329v35h258v-35h-258z" />
<glyph unicode="&#xae;" horiz-adv-x="420" d="M54 143v407q0 75 43 114t110 39t110 -39t43 -114v-407q0 -75 -43 -114t-110 -39t-110 39t-43 114zM89 143q0 -59 32.5 -88.5t85.5 -29.5t85.5 29.5t32.5 88.5v407q0 60 -32.5 89.5t-85.5 29.5t-85.5 -29.5t-32.5 -89.5v-407zM117 136v422h97v-1q39 -4 63 -28t24 -66v-81 q0 -72 -59 -89l74 -157h-36l-71 151h-57v-151h-35zM152 322h53q61 2 61 60v81q0 30 -19 45t-49 15h-46v-201z" />
<glyph unicode="&#xaf;" horiz-adv-x="380" d="M53 620v35h268v-35h-268z" />
<glyph unicode="&#xb1;" horiz-adv-x="370" d="M53 134v35h258v-35h-258zM53 329v35h112v112h35v-112h111v-35h-111v-111h-35v111h-112z" />
<glyph unicode="&#xb4;" horiz-adv-x="296" d="M49 591l171 120l23 -29l-172 -120z" />
<glyph unicode="&#xb8;" horiz-adv-x="253" d="M52 -131q47 -17 71 -17q39 0 39 39q0 37 -41 37h-36l33 88h36l-19 -53q62 -6 62 -72q0 -37 -20.5 -55.5t-53.5 -18.5q-31 0 -71 14v38z" />
<glyph unicode="&#xbb;" horiz-adv-x="451" d="M49 189l158 158l-158 158l25 25l183 -183l-183 -183zM189 189l158 158l-158 158l25 25l183 -183l-183 -183z" />
<glyph unicode="&#xbf;" horiz-adv-x="400" d="M54 17q0 44 11 74.5t31.5 46t33 21t30.5 10.5l9 2q10 2 20 7.5t25 17.5t24 36t9 57v56h35v-56q0 -42 -12.5 -73.5t-32 -47t-34 -22t-28.5 -9.5q-2 -1 -4 -1l-10 -3q-11 -3 -18 -5.5t-18.5 -10.5t-18.5 -19.5t-12 -32.5t-5 -48v-67q0 -60 32.5 -89.5t85.5 -29.5 q60 0 133 28v-38q-66 -24 -133 -24q-68 0 -110.5 39t-42.5 114v67zM247 407v93h35v-93h-35z" />
<glyph unicode="&#xc0;" horiz-adv-x="420" d="M22 0l168 700h35l167 -700h-38l-39 166h-216l-40 -166h-37zM71 882l22 29l172 -120l-23 -29zM107 201h199l-98 419z" />
<glyph unicode="&#xc1;" horiz-adv-x="420" d="M22 0l168 700h35l167 -700h-38l-39 166h-216l-40 -166h-37zM107 201h199l-98 419zM151 791l171 120l23 -29l-172 -120z" />
<glyph unicode="&#xc2;" horiz-adv-x="420" d="M22 0l168 700h35l167 -700h-38l-39 166h-216l-40 -166h-37zM84 787l123 123l124 -123l-27 -26l-97 97l-96 -97zM107 201h199l-98 419z" />
<glyph unicode="&#xc3;" horiz-adv-x="420" d="M22 0l168 700h35l167 -700h-38l-39 166h-216l-40 -166h-37zM99 781q0 65 16.5 91.5t50.5 26.5q22 0 32.5 -13.5t19.5 -38.5q14 -36 31 -36q20 0 26 17t6 66h35q0 -64 -16 -90.5t-51 -26.5q-19 0 -32 10t-18 19.5t-12 27.5q-10 30 -21 30q-19 0 -25.5 -17.5t-6.5 -65.5 h-35zM107 201h199l-98 419z" />
<glyph unicode="&#xc4;" horiz-adv-x="420" d="M22 0l168 700h35l167 -700h-38l-39 166h-216l-40 -166h-37zM107 201h199l-98 419zM123 781v113h35v-113h-35zM258 781v113h35v-113h-35z" />
<glyph unicode="&#xc5;" horiz-adv-x="420" d="M22 0l168 700h35l167 -700h-38l-39 166h-216l-40 -166h-37zM107 201h199l-98 419zM133 838q0 31 22 53t53 22t53.5 -22t22.5 -53q0 -32 -22 -54t-54 -22q-31 0 -53 22t-22 54zM167 838q0 -18 12 -29.5t29 -11.5t29 11.5t12 29.5q0 17 -12 28.5t-29 11.5t-29 -11.5 t-12 -28.5z" />
<glyph unicode="&#xc6;" horiz-adv-x="489" d="M22 0l168 700h260v-35h-176v-297h146v-36h-146v-297h176v-35h-212v166h-139l-40 -166h-37zM107 201h131v464h-19z" />
<glyph unicode="&#xc7;" horiz-adv-x="380" d="M53 145v410q0 76 43.5 115.5t111.5 39.5q65 0 135 -25v-38q-75 28 -135 28q-54 0 -87 -30t-33 -90v-410q0 -60 33 -90t87 -30q60 0 135 28v-38q-57 -21 -114 -24l-10 -28q63 -6 63 -72q0 -38 -20.5 -57t-53.5 -19t-72 15v38q50 -18 72 -18q17 0 28 10.5t11 30.5 q0 37 -41 37h-36l23 63q-62 4 -101 43t-39 111z" />
<glyph unicode="&#xc8;" horiz-adv-x="350" d="M53 0v700h270v-35h-235v-297h206v-36h-206v-297h235v-35h-270zM76 882l22 29l172 -120l-23 -29z" />
<glyph unicode="&#xc9;" horiz-adv-x="350" d="M53 0v700h270v-35h-235v-297h206v-36h-206v-297h235v-35h-270zM76 791l171 120l23 -29l-172 -120z" />
<glyph unicode="&#xca;" horiz-adv-x="350" d="M49 787l123 123l124 -123l-27 -26l-97 97l-96 -97zM53 0v700h270v-35h-235v-297h206v-36h-206v-297h235v-35h-270z" />
<glyph unicode="&#xcb;" horiz-adv-x="350" d="M53 0v700h270v-35h-235v-297h206v-36h-206v-297h235v-35h-270zM88 781v113h35v-113h-35zM223 781v113h35v-113h-35z" />
<glyph unicode="&#xcc;" horiz-adv-x="140" d="M-29 882l22 29l172 -120l-23 -29zM52 0v700h35v-700h-35z" />
<glyph unicode="&#xcd;" horiz-adv-x="140" d="M-29 791l171 120l23 -29l-172 -120zM52 0v700h35v-700h-35z" />
<glyph unicode="&#xce;" horiz-adv-x="140" d="M-56 787l123 123l124 -123l-27 -26l-97 97l-96 -97zM52 0v700h35v-700h-35z" />
<glyph unicode="&#xcf;" horiz-adv-x="140" d="M-17 781v113h35v-113h-35zM52 0v700h35v-700h-35zM118 781v113h35v-113h-35z" />
<glyph unicode="&#xd0;" horiz-adv-x="454" d="M24 332v36h72v332h145q68 0 111 -39.5t43 -114.5v-392q0 -75 -43 -114.5t-111 -39.5h-145v332h-72zM132 35h109q54 0 86.5 29.5t32.5 89.5v392q0 60 -32.5 89.5t-86.5 29.5h-109v-297h152v-36h-152v-297z" />
<glyph unicode="&#xd1;" horiz-adv-x="410" d="M53 0v700h33l231 -592v592h35v-700h-32l-232 592v-592h-35zM94 781q0 65 16.5 91.5t50.5 26.5q22 0 32.5 -13.5t19.5 -38.5q14 -36 31 -36q20 0 26 17t6 66h35q0 -64 -16 -90.5t-51 -26.5q-19 0 -32 10t-18 19.5t-12 27.5q-10 30 -21 30q-19 0 -25.5 -17.5t-6.5 -65.5 h-35z" />
<glyph unicode="&#xd2;" horiz-adv-x="420" d="M53 145v410q0 76 43.5 115.5t111.5 39.5t111 -39.5t43 -115.5v-410q0 -76 -43 -115.5t-111 -39.5t-111.5 39.5t-43.5 115.5zM71 882l22 29l172 -120l-23 -29zM88 145q0 -60 33 -90t87 -30q53 0 86 30t33 90v410q0 60 -33 90t-86 30q-54 0 -87 -30t-33 -90v-410z" />
<glyph unicode="&#xd3;" horiz-adv-x="420" d="M53 145v410q0 76 43.5 115.5t111.5 39.5t111 -39.5t43 -115.5v-410q0 -76 -43 -115.5t-111 -39.5t-111.5 39.5t-43.5 115.5zM88 145q0 -60 33 -90t87 -30q53 0 86 30t33 90v410q0 60 -33 90t-86 30q-54 0 -87 -30t-33 -90v-410zM151 791l171 120l23 -29l-172 -120z" />
<glyph unicode="&#xd4;" horiz-adv-x="420" d="M53 145v410q0 76 43.5 115.5t111.5 39.5t111 -39.5t43 -115.5v-410q0 -76 -43 -115.5t-111 -39.5t-111.5 39.5t-43.5 115.5zM84 787l123 123l124 -123l-27 -26l-97 97l-96 -97zM88 145q0 -60 33 -90t87 -30q53 0 86 30t33 90v410q0 60 -33 90t-86 30q-54 0 -87 -30 t-33 -90v-410z" />
<glyph unicode="&#xd5;" horiz-adv-x="420" d="M53 145v410q0 76 43.5 115.5t111.5 39.5t111 -39.5t43 -115.5v-410q0 -76 -43 -115.5t-111 -39.5t-111.5 39.5t-43.5 115.5zM88 145q0 -60 33 -90t87 -30q53 0 86 30t33 90v410q0 60 -33 90t-86 30q-54 0 -87 -30t-33 -90v-410zM99 781q0 65 16.5 91.5t50.5 26.5 q22 0 32.5 -13.5t19.5 -38.5q14 -36 31 -36q20 0 26 17t6 66h35q0 -64 -16 -90.5t-51 -26.5q-19 0 -32 10t-18 19.5t-12 27.5q-10 30 -21 30q-19 0 -25.5 -17.5t-6.5 -65.5h-35z" />
<glyph unicode="&#xd6;" horiz-adv-x="420" d="M53 145v410q0 76 43.5 115.5t111.5 39.5t111 -39.5t43 -115.5v-410q0 -76 -43 -115.5t-111 -39.5t-111.5 39.5t-43.5 115.5zM88 145q0 -60 33 -90t87 -30q53 0 86 30t33 90v410q0 60 -33 90t-86 30q-54 0 -87 -30t-33 -90v-410zM123 781v113h35v-113h-35zM258 781v113h35 v-113h-35z" />
<glyph unicode="&#xd7;" horiz-adv-x="310" d="M49 268l78 78l-78 79l25 26l78 -80l79 80l25 -26l-79 -79l79 -78l-25 -25l-79 78l-78 -78z" />
<glyph unicode="&#xd8;" horiz-adv-x="420" d="M28 5l35 76q-10 30 -10 64v410q0 76 43.5 115.5t111.5 39.5q82 0 123 -53l26 55l31 -16l-36 -78q10 -30 10 -63v-410q0 -76 -43 -115.5t-111 -39.5q-83 0 -125 54l-26 -56zM88 134l225 484q-29 57 -105 57q-54 0 -87 -30t-33 -90v-421zM101 82q29 -57 107 -57q53 0 86 30 t33 90v410q0 1 -0.5 4t-0.5 5z" />
<glyph unicode="&#xd9;" horiz-adv-x="410" d="M53 145v555h35v-555q0 -60 31.5 -90t83.5 -30t83 30t31 90v555h35v-555q0 -77 -40.5 -116t-108.5 -39t-109 39.5t-41 115.5zM76 882l22 29l172 -120l-23 -29z" />
<glyph unicode="&#xda;" horiz-adv-x="410" d="M53 145v555h35v-555q0 -60 31.5 -90t83.5 -30t83 30t31 90v555h35v-555q0 -77 -40.5 -116t-108.5 -39t-109 39.5t-41 115.5zM146 791l171 120l23 -29l-172 -120z" />
<glyph unicode="&#xdb;" horiz-adv-x="410" d="M53 145v555h35v-555q0 -60 31.5 -90t83.5 -30t83 30t31 90v555h35v-555q0 -77 -40.5 -116t-108.5 -39t-109 39.5t-41 115.5zM79 787l123 123l124 -123l-27 -26l-97 97l-96 -97z" />
<glyph unicode="&#xdc;" horiz-adv-x="410" d="M53 145v555h35v-555q0 -60 31.5 -90t83.5 -30t83 30t31 90v555h35v-555q0 -77 -40.5 -116t-108.5 -39t-109 39.5t-41 115.5zM118 781v113h35v-113h-35zM253 781v113h35v-113h-35z" />
<glyph unicode="&#xdd;" horiz-adv-x="420" d="M21 700h37l150 -395l147 395h38l-168 -449v-251h-35v253zM111 791l171 120l23 -29l-172 -120z" />
<glyph unicode="&#xde;" horiz-adv-x="370" d="M53 0v700h35v-127h90q68 0 111.5 -39.5t43.5 -115.5v-136q0 -39 -11 -67.5t-26 -44t-38.5 -25.5t-40 -13t-38.5 -5h-91v-127h-35zM88 162h89q18 2 29.5 4t31 9.5t31 19t20.5 34t9 53.5v136q0 61 -33 90.5t-87 29.5h-90v-376z" />
<glyph unicode="&#xdf;" horiz-adv-x="420" d="M54 0v599q0 75 43 114t110 39t110 -39t43 -114v-68q0 -103 -78 -136q78 -35 78 -135v-107q0 -75 -45 -114t-116 -39v35q56 0 91 29.5t35 88.5v107q0 35 -11 59t-30.5 35.5t-36 16.5t-38.5 7q-3 -1 -10 -1v37q3 -1 10 -1q22 2 38.5 6.5t36 16t30.5 36t11 59.5v68 q0 59 -32.5 88.5t-85.5 29.5t-85.5 -29.5t-32.5 -88.5v-599h-35z" />
<glyph unicode="&#xe0;" d="M53 129h1v39q0 69 38.5 103.5t99.5 34.5h104v65q0 51 -29 77.5t-73 26.5q-46 0 -121 -27v37q70 25 122 25q59 0 97.5 -35.5t38.5 -103.5v-371h-35v14q-70 -24 -104 -24q-61 0 -100 35t-39 104zM88 129q0 -52 29 -78t75 -26q47 0 104 17v229h-104q-46 0 -75 -26t-29 -77 v-39zM96 682l22 29l172 -120l-23 -29z" />
<glyph unicode="&#xe1;" d="M53 129h1v39q0 69 38.5 103.5t99.5 34.5h104v65q0 51 -29 77.5t-73 26.5q-46 0 -121 -27v37q70 25 122 25q59 0 97.5 -35.5t38.5 -103.5v-371h-35v14q-70 -24 -104 -24q-61 0 -100 35t-39 104zM88 129q0 -52 29 -78t75 -26q47 0 104 17v229h-104q-46 0 -75 -26t-29 -77 v-39zM96 591l171 120l23 -29l-172 -120z" />
<glyph unicode="&#xe2;" d="M53 129h1v39q0 69 38.5 103.5t99.5 34.5h104v65q0 51 -29 77.5t-73 26.5q-46 0 -121 -27v37q70 25 122 25q59 0 97.5 -35.5t38.5 -103.5v-371h-35v14q-70 -24 -104 -24q-61 0 -100 35t-39 104zM69 587l123 123l124 -123l-27 -26l-97 97l-96 -97zM88 129q0 -52 29 -78 t75 -26q47 0 104 17v229h-104q-46 0 -75 -26t-29 -77v-39z" />
<glyph unicode="&#xe3;" d="M53 129h1v39q0 69 38.5 103.5t99.5 34.5h104v65q0 51 -29 77.5t-73 26.5q-46 0 -121 -27v37q70 25 122 25q59 0 97.5 -35.5t38.5 -103.5v-371h-35v14q-70 -24 -104 -24q-61 0 -100 35t-39 104zM84 581q0 65 16.5 91.5t50.5 26.5q22 0 32.5 -13.5t19.5 -38.5 q14 -36 31 -36q20 0 26 17t6 66h35q0 -64 -16 -90.5t-51 -26.5q-19 0 -32 10t-18 19.5t-12 27.5q-10 30 -21 30q-19 0 -25.5 -17.5t-6.5 -65.5h-35zM88 129q0 -52 29 -78t75 -26q47 0 104 17v229h-104q-46 0 -75 -26t-29 -77v-39z" />
<glyph unicode="&#xe4;" d="M53 129h1v39q0 69 38.5 103.5t99.5 34.5h104v65q0 51 -29 77.5t-73 26.5q-46 0 -121 -27v37q70 25 122 25q59 0 97.5 -35.5t38.5 -103.5v-371h-35v14q-70 -24 -104 -24q-61 0 -100 35t-39 104zM88 129q0 -52 29 -78t75 -26q47 0 104 17v229h-104q-46 0 -75 -26t-29 -77 v-39zM108 581v113h35v-113h-35zM243 581v113h35v-113h-35z" />
<glyph unicode="&#xe5;" d="M53 129h1v39q0 69 38.5 103.5t99.5 34.5h104v65q0 51 -29 77.5t-73 26.5q-46 0 -121 -27v37q70 25 122 25q59 0 97.5 -35.5t38.5 -103.5v-371h-35v14q-70 -24 -104 -24q-61 0 -100 35t-39 104zM88 129q0 -52 29 -78t75 -26q47 0 104 17v229h-104q-46 0 -75 -26t-29 -77 v-39zM118 638q0 31 22 53t53 22t53.5 -22t22.5 -53q0 -32 -22.5 -54t-53.5 -22t-53 22t-22 54zM152 638q0 -18 12 -29.5t29 -11.5t29 11.5t12 29.5q0 17 -12 28.5t-29 11.5t-29 -11.5t-12 -28.5z" />
<glyph unicode="&#xe6;" horiz-adv-x="640" d="M56 129v39q0 69 38.5 103.5t99.5 34.5h104v65q0 52 -29 78t-75 26q-44 0 -119 -27v37q69 25 119 25q94 0 121 -77q28 77 121 77q61 0 100 -35t39 -104v-138h-242v-104q0 -52 28.5 -78t74.5 -26q44 0 120 27v-37q-70 -25 -120 -25q-97 0 -123 82q-26 -82 -119 -82 q-61 0 -99.5 35t-38.5 104zM90 129q0 -52 29 -78t75 -26q44 0 73 27t31 79v140h-104q-46 0 -75 -26t-29 -77v-39zM333 267h207v104q0 52 -29 78t-75 26t-74.5 -26t-28.5 -78v-104z" />
<glyph unicode="&#xe7;" horiz-adv-x="370" d="M53 129v242q0 69 39 104t100 35q50 0 119 -25v-37q-75 27 -119 27q-46 0 -75 -26t-29 -78v-242q0 -52 29 -78t75 -26q44 0 119 27v-37q-57 -21 -110 -25l-9 -27q62 -6 62 -72q0 -37 -20.5 -55.5t-53.5 -18.5q-31 0 -70 14v38q45 -17 70 -17q39 0 39 39q0 37 -41 37h-35 l24 64q-52 6 -83 40.5t-31 96.5z" />
<glyph unicode="&#xe8;" d="M54 129v242q0 69 38.5 104t99.5 35t100 -35t39 -104v-138h-243v-104q0 -52 29 -78t75 -26q44 0 119 27v-37q-69 -25 -119 -25q-61 0 -99.5 35t-38.5 104zM76 682l22 29l172 -120l-23 -29zM88 267h208v104q0 52 -29 78t-75 26t-75 -26t-29 -78v-104z" />
<glyph unicode="&#xe9;" d="M54 129v242q0 69 38.5 104t99.5 35t100 -35t39 -104v-138h-243v-104q0 -52 29 -78t75 -26q44 0 119 27v-37q-69 -25 -119 -25q-61 0 -99.5 35t-38.5 104zM88 267h208v104q0 52 -29 78t-75 26t-75 -26t-29 -78v-104zM116 591l171 120l23 -29l-172 -120z" />
<glyph unicode="&#xea;" d="M54 129v242q0 69 38.5 104t99.5 35t100 -35t39 -104v-138h-243v-104q0 -52 29 -78t75 -26q44 0 119 27v-37q-69 -25 -119 -25q-61 0 -99.5 35t-38.5 104zM69 587l123 123l124 -123l-27 -26l-97 97l-96 -97zM88 267h208v104q0 52 -29 78t-75 26t-75 -26t-29 -78v-104z" />
<glyph unicode="&#xeb;" d="M54 129v242q0 69 38.5 104t99.5 35t100 -35t39 -104v-138h-243v-104q0 -52 29 -78t75 -26q44 0 119 27v-37q-69 -25 -119 -25q-61 0 -99.5 35t-38.5 104zM88 267h208v104q0 52 -29 78t-75 26t-75 -26t-29 -78v-104zM108 581v113h35v-113h-35zM243 581v113h35v-113h-35z " />
<glyph unicode="&#xec;" horiz-adv-x="140" d="M-29 682l22 29l172 -120l-23 -29zM52 0v500h35v-500h-35z" />
<glyph unicode="&#xed;" horiz-adv-x="140" d="M-29 591l171 120l23 -29l-172 -120zM52 0v500h35v-500h-35z" />
<glyph unicode="&#xee;" horiz-adv-x="140" d="M-56 587l123 123l124 -123l-27 -26l-97 97l-96 -97zM52 0v500h35v-500h-35z" />
<glyph unicode="&#xef;" horiz-adv-x="140" d="M-17 581v113h35v-113h-35zM52 0v500h35v-500h-35zM118 581v113h35v-113h-35z" />
<glyph unicode="&#xf0;" d="M54 129v242q0 69 39 104t100 35q31 0 100 -26q-11 41 -33 94l-15 35l-106 -38l-12 34l105 38l-38 95h37l33 -84l106 39l12 -34l-105 -38l13 -31q41 -99 41 -208v-265h-1q-4 -65 -42 -98t-95 -33q-61 0 -100 35t-39 104zM89 129q0 -52 28.5 -78t75.5 -26q46 0 74.5 26 t28.5 78v272h8q-2 37 -5 56q-62 18 -106 18q-47 0 -75.5 -26t-28.5 -78v-242z" />
<glyph unicode="&#xf1;" d="M54 0v500h34v-17q67 27 104 27q61 0 100 -35t39 -104v-371h-35v371q0 52 -29 78t-75 26q-48 0 -104 -18v-457h-34zM87 581q0 65 16.5 91.5t50.5 26.5q22 0 32.5 -13.5t19.5 -38.5q14 -36 31 -36q20 0 26 17t6 66h35q0 -64 -16 -90.5t-51 -26.5q-19 0 -32 10t-18 19.5 t-12 27.5q-10 30 -21 30q-19 0 -25.5 -17.5t-6.5 -65.5h-35z" />
<glyph unicode="&#xf2;" d="M54 129v242q0 69 38.5 104t99.5 35t100 -35t39 -104v-242q0 -69 -39 -104t-100 -35t-99.5 35t-38.5 104zM66 682l22 29l172 -120l-23 -29zM88 129q0 -52 29 -78t75 -26t75 26t29 78v242q0 52 -29 78t-75 26t-75 -26t-29 -78v-242z" />
<glyph unicode="&#xf3;" d="M54 129v242q0 69 38.5 104t99.5 35t100 -35t39 -104v-242q0 -69 -39 -104t-100 -35t-99.5 35t-38.5 104zM88 129q0 -52 29 -78t75 -26t75 26t29 78v242q0 52 -29 78t-75 26t-75 -26t-29 -78v-242zM136 591l171 120l23 -29l-172 -120z" />
<glyph unicode="&#xf4;" d="M54 129v242q0 69 38.5 104t99.5 35t100 -35t39 -104v-242q0 -69 -39 -104t-100 -35t-99.5 35t-38.5 104zM69 587l123 123l124 -123l-27 -26l-97 97l-96 -97zM88 129q0 -52 29 -78t75 -26t75 26t29 78v242q0 52 -29 78t-75 26t-75 -26t-29 -78v-242z" />
<glyph unicode="&#xf5;" d="M54 129v242q0 69 38.5 104t99.5 35t100 -35t39 -104v-242q0 -69 -39 -104t-100 -35t-99.5 35t-38.5 104zM84 581q0 65 16.5 91.5t50.5 26.5q22 0 32.5 -13.5t19.5 -38.5q14 -36 31 -36q20 0 26 17t6 66h35q0 -64 -16 -90.5t-51 -26.5q-19 0 -32 10t-18 19.5t-12 27.5 q-10 30 -21 30q-19 0 -25.5 -17.5t-6.5 -65.5h-35zM88 129q0 -52 29 -78t75 -26t75 26t29 78v242q0 52 -29 78t-75 26t-75 -26t-29 -78v-242z" />
<glyph unicode="&#xf6;" d="M54 129v242q0 69 38.5 104t99.5 35t100 -35t39 -104v-242q0 -69 -39 -104t-100 -35t-99.5 35t-38.5 104zM88 129q0 -52 29 -78t75 -26t75 26t29 78v242q0 52 -29 78t-75 26t-75 -26t-29 -78v-242zM108 581v113h35v-113h-35zM243 581v113h35v-113h-35z" />
<glyph unicode="&#xf7;" horiz-adv-x="370" d="M53 329v35h258v-35h-258zM165 218v64h35v-64h-35zM165 412v64h35v-64h-35z" />
<glyph unicode="&#xf8;" d="M13 5l47 74q-6 21 -6 50v242q0 69 38.5 104t99.5 35q76 0 114 -51l34 52l32 -16l-48 -74q7 -21 7 -50v-242q0 -69 -39 -104t-100 -35q-78 0 -114 52l-35 -54zM88 122l196 303q-25 50 -92 50q-46 0 -75 -26t-29 -78v-249zM99 75q25 -50 93 -50q46 0 75 26t29 78v248z" />
<glyph unicode="&#xf9;" d="M54 129v371h34v-371q0 -52 29 -78t75 -26q47 0 104 17v458h35v-500h-35v16q-66 -26 -104 -26q-61 0 -99.5 35t-38.5 104zM76 682l22 29l172 -120l-23 -29z" />
<glyph unicode="&#xfa;" d="M54 129v371h34v-371q0 -52 29 -78t75 -26q47 0 104 17v458h35v-500h-35v16q-66 -26 -104 -26q-61 0 -99.5 35t-38.5 104zM126 591l171 120l23 -29l-172 -120z" />
<glyph unicode="&#xfb;" d="M54 129v371h34v-371q0 -52 29 -78t75 -26q47 0 104 17v458h35v-500h-35v16q-66 -26 -104 -26q-61 0 -99.5 35t-38.5 104zM69 587l123 123l124 -123l-27 -26l-97 97l-96 -97z" />
<glyph unicode="&#xfc;" d="M54 129v371h34v-371q0 -52 29 -78t75 -26q47 0 104 17v458h35v-500h-35v16q-66 -26 -104 -26q-61 0 -99.5 35t-38.5 104zM108 581v113h35v-113h-35zM243 581v113h35v-113h-35z" />
<glyph unicode="&#xfd;" d="M54 129v371h34v-371q0 -52 29 -78t75 -26q47 0 104 17v458h35v-613q0 -69 -39 -104t-100 -35q-62 0 -134 24v38q76 -27 134 -27q46 0 75 26t29 78v129q-66 -26 -104 -26q-61 0 -99.5 35t-38.5 104zM96 591l171 120l23 -29l-172 -120z" />
<glyph unicode="&#xfe;" d="M54 -242v984h34v-259q67 27 104 27q61 0 100 -35t39 -104v-242q0 -69 -39 -104t-100 -35q-40 0 -104 26v-258h-34zM88 42q57 -17 104 -17q46 0 75 26t29 78v242q0 52 -29 78t-75 26q-48 0 -104 -18v-415z" />
<glyph unicode="&#xff;" d="M54 129v371h34v-371q0 -52 29 -78t75 -26q47 0 104 17v458h35v-613q0 -69 -39 -104t-100 -35q-62 0 -134 24v38q76 -27 134 -27q46 0 75 26t29 78v129q-66 -26 -104 -26q-61 0 -99.5 35t-38.5 104zM108 581v113h35v-113h-35zM243 581v113h35v-113h-35z" />
<glyph unicode="&#x152;" horiz-adv-x="640" d="M55 145v410q0 76 43 115.5t111 39.5q82 0 119 -55v45h270v-35h-234v-297h205v-36h-205v-297h234v-35h-270v45q-37 -55 -119 -55q-68 0 -111 39.5t-43 115.5zM90 145q0 -60 33 -90t86 -30t86 30t33 90v416q-2 57 -34.5 85.5t-84.5 28.5q-53 0 -86 -30t-33 -90v-410z" />
<glyph unicode="&#x153;" horiz-adv-x="640" d="M56 129v242q0 69 38.5 104t99.5 35q94 0 121 -77q28 77 121 77q61 0 100 -35t39 -104v-138h-242v-104q0 -52 28.5 -78t74.5 -26q44 0 120 27v-37q-70 -25 -120 -25q-93 0 -121 76q-26 -76 -121 -76q-61 0 -99.5 35t-38.5 104zM90 129q0 -52 29 -78t75 -26t75 26t29 78 v242q0 52 -29 78t-75 26t-75 -26t-29 -78v-242zM333 267h207v104q0 52 -29 78t-75 26t-74.5 -26t-28.5 -78v-104z" />
<glyph unicode="&#x178;" horiz-adv-x="420" d="M21 700h37l150 -395l147 395h38l-168 -449v-251h-35v253zM123 781v113h35v-113h-35zM258 781v113h35v-113h-35z" />
<glyph unicode="&#x2c6;" horiz-adv-x="350" d="M49 587l123 123l124 -123l-27 -26l-97 97l-96 -97z" />
<glyph unicode="&#x2dc;" horiz-adv-x="350" d="M41 581q0 65 16.5 91.5t50.5 26.5q22 0 32.5 -13.5t19.5 -38.5q14 -36 31 -36q20 0 26 17t6 66h35q0 -64 -16 -90.5t-51 -26.5q-19 0 -32 10t-18 19.5t-12 27.5q-10 30 -21 30q-19 0 -25.5 -17.5t-6.5 -65.5h-35z" />
<glyph unicode="&#x2000;" horiz-adv-x="456" />
<glyph unicode="&#x2001;" horiz-adv-x="913" />
<glyph unicode="&#x2002;" horiz-adv-x="456" />
<glyph unicode="&#x2003;" horiz-adv-x="913" />
<glyph unicode="&#x2004;" horiz-adv-x="304" />
<glyph unicode="&#x2005;" horiz-adv-x="228" />
<glyph unicode="&#x2006;" horiz-adv-x="152" />
<glyph unicode="&#x2007;" horiz-adv-x="152" />
<glyph unicode="&#x2008;" horiz-adv-x="114" />
<glyph unicode="&#x2009;" horiz-adv-x="182" />
<glyph unicode="&#x200a;" horiz-adv-x="50" />
<glyph unicode="&#x2010;" horiz-adv-x="370" d="M53 329v35h258v-35h-258z" />
<glyph unicode="&#x2011;" horiz-adv-x="370" d="M53 329v35h258v-35h-258z" />
<glyph unicode="&#x2012;" horiz-adv-x="370" d="M53 329v35h258v-35h-258z" />
<glyph unicode="&#x2013;" horiz-adv-x="470" d="M54 329v35h355v-35h-355z" />
<glyph unicode="&#x2014;" horiz-adv-x="570" d="M55 329v35h452v-35h-452z" />
<glyph unicode="&#x2018;" horiz-adv-x="164" d="M52 475v85q0 62 24 134h38q-23 -61 -27 -126h19v-93h-54z" />
<glyph unicode="&#x2019;" horiz-adv-x="164" d="M48 475q24 63 27 126h-19v93h54v-85q0 -64 -24 -134h-38z" />
<glyph unicode="&#x201a;" horiz-adv-x="160" d="M44 -126q24 65 27 126h-19v93h54v-85q0 -62 -24 -134h-38z" />
<glyph unicode="&#x201c;" horiz-adv-x="264" d="M52 475v85q0 62 24 134h38q-23 -61 -27 -126h19v-93h-54zM152 475v85q0 62 24 134h38q-23 -61 -27 -126h19v-93h-54z" />
<glyph unicode="&#x201d;" horiz-adv-x="265" d="M48 475q24 63 27 126h-19v93h54v-85q0 -64 -24 -134h-38zM149 475q24 63 27 126h-19v93h54v-85q0 -64 -24 -134h-38z" />
<glyph unicode="&#x201e;" horiz-adv-x="264" d="M49 -126q24 65 27 126h-20v93h55v-85q0 -64 -25 -134h-37zM146 -126q24 65 27 126h-20v93h55v-85q0 -64 -25 -134h-37z" />
<glyph unicode="&#x2022;" horiz-adv-x="260" d="M53 347q0 31 21.5 53t53.5 22t54 -22t22 -53t-22 -53.5t-54 -22.5q-31 0 -53 22t-22 54z" />
<glyph unicode="&#x2026;" horiz-adv-x="440" d="M54 0v93h54v-93h-54zM190 0v93h54v-93h-54zM325 0v93h55v-93h-55z" />
<glyph unicode="&#x202f;" horiz-adv-x="182" />
<glyph unicode="&#x2039;" horiz-adv-x="311" d="M49 347l183 183l25 -25l-158 -158l158 -158l-25 -25z" />
<glyph unicode="&#x203a;" horiz-adv-x="311" d="M49 189l158 158l-158 158l25 25l183 -183l-183 -183z" />
<glyph unicode="&#x205f;" horiz-adv-x="228" />
<glyph unicode="&#x20ac;" horiz-adv-x="404" d="M25 262v35h52v100h-52v35h52v118q0 75 43 114t110 39q66 0 134 -24v-38q-75 28 -134 28q-53 0 -85.5 -29.5t-32.5 -89.5v-118h170v-35h-170v-100h170v-35h-170v-119q0 -59 32.5 -88.5t85.5 -29.5q58 0 134 27v-37q-70 -25 -134 -25q-67 0 -110 39t-43 114v119h-52z" />
<glyph unicode="&#x2122;" horiz-adv-x="462" d="M54 659v35h151v-35h-58v-175h-35v175h-58zM216 694h38l56 -153l56 153h38l-3 -8v-202h-35v109l-41 -109h-31l-40 107v-107h-35v202z" />
<glyph unicode="&#xe000;" horiz-adv-x="500" d="M0 0v500h500v-500h-500z" />
</font>
</defs>
</svg>
