<?xml version="1.0" standalone="no"?>
<!DOCTYPE svg PUBLIC "-//W3C//DTD SVG 1.1//EN" "http://www.w3.org/Graphics/SVG/1.1/DTD/svg11.dtd" >
<svg xmlns="http://www.w3.org/2000/svg">
<metadata></metadata>
<defs>
<font id="web_serveroffitalic" horiz-adv-x="390" >
<font-face units-per-em="1000" ascent="750" descent="-250" />
<missing-glyph horiz-adv-x="350" />
<glyph horiz-adv-x="1000" />
<glyph horiz-adv-x="1000" />
<glyph unicode="&#xd;" horiz-adv-x="1000" />
<glyph unicode=" "  horiz-adv-x="350" />
<glyph unicode="&#x09;" horiz-adv-x="350" />
<glyph unicode="&#xa0;" horiz-adv-x="350" />
<glyph unicode="!" horiz-adv-x="140" d="M52 0l15 112h35l-15 -112h-35zM79 194l70 500h35l-70 -500h-35z" />
<glyph unicode="&#x22;" horiz-adv-x="230" d="M130 562l26 180h35l-26 -180h-35zM218 562l26 180h34l-26 -180h-34z" />
<glyph unicode="#" horiz-adv-x="448" d="M52 2l101 250h-65l5 35h75l49 120h-68l5 35h77l105 259l34 -8l-102 -251h79l105 259l34 -8l-102 -251h66l-5 -35h-76l-49 -120h70l-5 -35h-79l-105 -259l-33 9l101 250h-79l-105 -259zM204 287h80l49 120h-80z" />
<glyph unicode="$" horiz-adv-x="420" d="M56 15l5 36q72 -23 131 -26l43 306q-25 3 -44.5 10t-39.5 22.5t-28 46t-2 73.5l10 67q9 69 52 107.5t104 44.5l13 89h35l-13 -88q56 -3 115 -18l-5 -37q-69 18 -114 21l-44 -307q134 -14 115 -151l-9 -68q-10 -69 -53.5 -107.5t-104.5 -44.5l-12 -88h-35l12 88 q-68 3 -131 24zM156 483q-15 -103 84 -117l42 302q-46 -5 -77.5 -34.5t-38.5 -83.5zM227 26q46 4 78 33.5t40 83.5l9 68q15 104 -85 116z" />
<glyph unicode="%" horiz-adv-x="470" d="M52 5l426 700l27 -15l-426 -702zM103 420l28 203q6 39 31.5 59.5t60.5 20.5t55 -20.5t14 -59.5l-28 -203q-6 -41 -31.5 -61t-60.5 -20q-36 0 -55.5 20t-13.5 61zM138 420q-4 -22 7.5 -34t31.5 -12t34 12t18 34l28 203q3 22 -7.5 34t-30.5 12t-35 -12t-18 -34zM267 71 l29 203q6 39 31 60t60 21t55.5 -21t14.5 -60l-29 -203q-5 -40 -31 -60.5t-61 -20.5t-54.5 20.5t-14.5 60.5zM302 71q-3 -22 8 -34t31 -12t34.5 12t17.5 34l29 203q3 22 -8.5 34t-31.5 12t-34 -12t-17 -34z" />
<glyph unicode="&#x26;" horiz-adv-x="490" d="M75 143l9 68q16 109 109 136q-86 25 -71 136l10 67q11 75 59 114t115 39t130 -24l-5 -38q-70 28 -129 28q-53 0 -90 -29.5t-46 -89.5l-10 -67q-5 -38 4 -63.5t29.5 -36.5t38 -15t38.5 -4h243l-5 -35h-97l-26 -186q-11 -76 -55 -114.5t-113 -38.5q-71 0 -110 39t-28 114z M109 143q-9 -59 22 -88.5t87 -29.5q111 0 128 118l26 186h-111q-126 0 -143 -118z" />
<glyph unicode="'" horiz-adv-x="140" d="M130 562l26 180h35l-26 -180h-35z" />
<glyph unicode="(" horiz-adv-x="220" d="M61 66l79 562q11 80 55 126t111 46l-5 -34q-52 0 -84.5 -37t-41.5 -101l-79 -562q-9 -64 13 -101t74 -37l-5 -35q-67 0 -97.5 46.5t-19.5 126.5z" />
<glyph unicode=")" horiz-adv-x="220" d="M7 -107l5 35q52 0 85 37t42 101l79 562q9 64 -13.5 101t-74.5 37l5 34q67 0 97.5 -46t19.5 -126l-79 -562q-11 -80 -55 -126.5t-111 -46.5z" />
<glyph unicode="*" horiz-adv-x="336" d="M121 506l92 59l-77 60l25 29l71 -55l13 95h35l-13 -95l85 55l16 -30l-92 -59l76 -59l-25 -30l-70 54l-13 -94h-35l13 94l-86 -54z" />
<glyph unicode="+" horiz-adv-x="370" d="M93 329v35h112v112h35v-112h111v-35h-111v-111h-35v111h-112z" />
<glyph unicode="," horiz-adv-x="160" d="M26 -126q31 63 45 126h-19l13 93h54l-12 -85q-10 -63 -43 -134h-38z" />
<glyph unicode="-" horiz-adv-x="370" d="M93 329v35h258v-35h-258z" />
<glyph unicode="." horiz-adv-x="160" d="M52 0l13 93h54l-13 -93h-54z" />
<glyph unicode="/" horiz-adv-x="408" d="M23 5l425 700l27 -15l-425 -702z" />
<glyph unicode="0" horiz-adv-x="420" d="M74 143l57 407q11 75 59 114t115 39t105 -39t27 -114l-57 -407q-11 -75 -59.5 -114t-115.5 -39t-104.5 39t-26.5 114zM107 134l290 479q-20 56 -96 56q-53 0 -89.5 -29.5t-45.5 -89.5l-57 -407zM112 81q20 -56 98 -56q53 0 89.5 29.5t45.5 88.5l57 407v11z" />
<glyph unicode="1" horiz-adv-x="180" d="M71 0l93 665h-68l5 35h103l-98 -700h-35z" />
<glyph unicode="2" horiz-adv-x="420" d="M54 0l29 211q7 47 26 79t48 46.5t50 19.5t50 8q23 2 38.5 6t38.5 15t38 36t20 62l10 67q9 60 -19.5 89.5t-81.5 29.5q-60 0 -138 -28l5 38q70 24 137 24t105 -39t27 -114l-10 -67q-5 -38 -20 -66.5t-32 -44t-41.5 -25.5t-41 -13t-38.5 -5q-17 -1 -30 -3t-32.5 -9.5 t-32.5 -19t-25 -34t-16 -52.5l-25 -176h271l-4 -35h-306z" />
<glyph unicode="3" horiz-adv-x="420" d="M75 15l5 37q71 -27 130 -27q53 0 89.5 29.5t45.5 88.5l20 146q9 59 -22 88.5t-87 29.5l5 35q3 0 8.5 -0.5t9.5 -0.5l132 224h-264l5 35h306l-4 -28l-140 -237q47 -13 71 -50.5t15 -95.5l-20 -146q-11 -75 -59.5 -114t-115.5 -39q-64 0 -130 25z" />
<glyph unicode="4" horiz-adv-x="441" d="M86 233l3 19h-3q5 11 5 15h1l193 427h38l-193 -427h224l33 233h35l-33 -233h58l-5 -34h-58l-32 -233h-35l32 233h-263z" />
<glyph unicode="5" horiz-adv-x="420" d="M75 15l5 37q71 -27 130 -27q53 0 89.5 29.5t45.5 88.5l20 146q9 59 -19.5 88.5t-81.5 29.5q-36 0 -68.5 -27.5t-44.5 -79.5q-2 -5 -4 -19h-35l78 413h257l-5 -35h-222l-54 -276q38 59 103 59q67 0 104.5 -39t26.5 -114l-20 -146q-11 -75 -59.5 -114t-115.5 -39 q-64 0 -130 25z" />
<glyph unicode="6" horiz-adv-x="420" d="M74 143l57 407q11 75 59 114t115 39t131 -24l-5 -38q-72 28 -130 28q-53 0 -89.5 -29.5t-45.5 -89.5l-20 -141q81 33 123 33q67 0 104.5 -39t26.5 -114l-19 -138q-11 -79 -60 -120t-116 -41t-104.5 39t-26.5 114zM109 143q-9 -59 19.5 -88.5t81.5 -29.5t90 31t46 95 l19 138q9 59 -19.5 88.5t-81.5 29.5q-52 0 -121 -22z" />
<glyph unicode="7" horiz-adv-x="420" d="M109 0l296 665h-278l5 35h318l-4 -29l-299 -671h-38z" />
<glyph unicode="8" horiz-adv-x="420" d="M74 143l9 68q14 101 97 135q-73 36 -59 137l10 67q10 72 57.5 112.5t115.5 40.5q69 0 106 -40.5t27 -112.5l-10 -67q-14 -102 -97 -137q73 -33 59 -135l-9 -68q-10 -72 -58.5 -112.5t-117.5 -40.5q-68 0 -104 40.5t-26 112.5zM109 143q-9 -58 20 -88t81 -30t89 30t46 88 l9 68q9 64 -21 90.5t-79 26.5q-50 0 -88 -26t-48 -91zM156 483q-7 -53 20.5 -86t80.5 -33q51 0 89.5 32t45.5 87l10 67q8 58 -20.5 88.5t-80.5 30.5t-89.5 -30.5t-45.5 -88.5z" />
<glyph unicode="9" horiz-adv-x="420" d="M75 15l5 37q71 -27 130 -27q53 0 89.5 29.5t45.5 88.5l19 141q-83 -32 -122 -32q-67 0 -104.5 39t-27.5 114l20 138q11 79 59.5 119.5t115.5 40.5t105 -39t27 -114l-57 -407q-11 -75 -59.5 -114t-115.5 -39q-64 0 -130 25zM145 405q-8 -59 20.5 -88.5t81.5 -29.5 q52 0 121 22l34 241q9 60 -19.5 89.5t-81.5 29.5t-90 -31.5t-46 -94.5z" />
<glyph unicode=":" horiz-adv-x="160" d="M52 0l13 93h54l-13 -93h-54zM90 271l13 93h54l-13 -93h-54z" />
<glyph unicode=";" horiz-adv-x="160" d="M26 -126q31 63 45 126h-19l13 93h54l-12 -85q-10 -63 -43 -134h-38zM90 271l13 93h54l-13 -93h-54z" />
<glyph unicode="&#x3c;" horiz-adv-x="311" d="M97 347l209 183l21 -25l-180 -158l136 -158l-28 -25z" />
<glyph unicode="=" horiz-adv-x="370" d="M93 291v35h258v-35h-258zM93 368v35h258v-35h-258z" />
<glyph unicode="&#x3e;" horiz-adv-x="311" d="M75 189l180 158l-136 158l29 25l157 -183l-208 -183z" />
<glyph unicode="?" horiz-adv-x="400" d="M112 0l13 93h35l-13 -93h-35zM133 155l8 56q6 41 22 72t37 46.5t36.5 22.5t30.5 10l16 5q15 4 25 8.5t25 16t25 34.5t15 57l10 67q9 60 -20 89.5t-82 29.5q-61 0 -137 -28l5 38q69 24 136 24q68 0 105.5 -39t26.5 -114l-10 -67q-6 -44 -21.5 -74.5t-38 -46t-35.5 -21 t-32 -10.5l-9 -2q-10 -2 -21 -7.5t-27.5 -17.5t-29 -36t-17.5 -57l-8 -56h-35z" />
<glyph unicode="@" d="M59 143l30 214q10 75 58.5 114t115.5 39t104.5 -39t27.5 -114l-27 -187q-4 -26 -22 -40t-42 -14q-35 0 -48 25q-19 -25 -48 -25q-32 0 -50.5 19t-13.5 54l17 121q5 37 28 55.5t56 18.5q23 0 36 -16l1 6h35l-29 -204q-1 -9 5 -14t16 -5q23 0 24 19l27 187q8 59 -20.5 88.5 t-81.5 29.5t-89.5 -29.5t-44.5 -88.5l-30 -214q-9 -59 19.5 -88.5t81.5 -29.5q57 0 138 27l-5 -37q-75 -25 -138 -25q-67 0 -104.5 39t-26.5 114zM179 189q-3 -19 7 -28.5t27 -9.5q35 0 43 34l18 129q1 17 -8.5 26t-24.5 9q-39 0 -45 -39z" />
<glyph unicode="A" horiz-adv-x="420" d="M22 0l266 700h35l69 -700h-38l-16 166h-216l-63 -166h-37zM135 201h199l-39 419z" />
<glyph unicode="B" horiz-adv-x="410" d="M53 0l98 700h137q71 0 111 -39.5t29 -114.5l-8 -59q-15 -103 -99 -137q75 -34 60 -137l-8 -59q-11 -75 -61.5 -114.5t-121.5 -39.5h-137zM92 35h102q57 0 96 29.5t48 89.5l8 59q5 31 -1.5 53.5t-16.5 34t-30 19t-31 9t-31 3.5h-102zM139 368h102q25 2 41 5.5t41 14.5 t41 36t21 63l8 59q9 60 -22 89.5t-88 29.5h-102z" />
<glyph unicode="C" horiz-adv-x="380" d="M73 145l58 410q10 76 59 115.5t117 39.5q65 0 132 -25l-6 -38q-70 28 -131 28q-54 0 -91 -30t-45 -90l-58 -410q-9 -60 20 -90t83 -30q60 0 139 28l-5 -38q-75 -25 -139 -25q-68 0 -106 39.5t-27 115.5z" />
<glyph unicode="D" horiz-adv-x="410" d="M53 0l98 700h145q68 0 105.5 -39.5t26.5 -114.5l-55 -392q-11 -75 -59.5 -114.5t-115.5 -39.5h-145zM92 35h110q53 0 90 29.5t46 89.5l55 392q9 60 -20 89.5t-82 29.5h-110z" />
<glyph unicode="E" horiz-adv-x="350" d="M53 0l98 700h270l-5 -35h-235l-42 -297h206l-5 -36h-206l-42 -297h235l-4 -35h-270z" />
<glyph unicode="F" horiz-adv-x="350" d="M53 0l98 700h270l-5 -35h-235l-42 -297h206l-5 -36h-206l-46 -332h-35z" />
<glyph unicode="G" horiz-adv-x="420" d="M73 145l58 410q10 76 59 115.5t117 39.5q62 0 133 -19l-6 -37q-74 21 -132 21q-54 0 -91 -30t-45 -90l-58 -410q-9 -60 20 -90t83 -30q55 0 121 16l41 291h-127l5 36h162l-49 -353q-84 -25 -158 -25q-68 0 -106 39.5t-27 115.5z" />
<glyph unicode="H" horiz-adv-x="410" d="M53 0l98 700h35l-47 -332h229l47 332h35l-98 -700h-35l46 332h-229l-46 -332h-35z" />
<glyph unicode="I" horiz-adv-x="140" d="M52 0l98 700h35l-98 -700h-35z" />
<glyph unicode="J" horiz-adv-x="370" d="M26 15l5 38q68 -28 130 -28q54 0 91 30t46 90l78 555h35l-78 -555q-11 -76 -60 -115.5t-117 -39.5q-66 0 -130 25z" />
<glyph unicode="K" horiz-adv-x="410" d="M53 0l98 700h36l-47 -332h108l201 332h38l-212 -350l115 -350h-38l-109 332h-108l-46 -332h-36z" />
<glyph unicode="L" horiz-adv-x="350" d="M53 0l98 700h35l-94 -665h235l-4 -35h-270z" />
<glyph unicode="M" horiz-adv-x="535" d="M52 0l97 697v3h38l110 -477l241 477h39l-3 -6l-97 -694h-35l84 599l-220 -433h-33l-102 437l-84 -603h-35z" />
<glyph unicode="N" horiz-adv-x="410" d="M53 0l98 700h33l148 -592l83 592h35l-98 -700h-32l-149 592l-83 -592h-35z" />
<glyph unicode="O" horiz-adv-x="420" d="M73 145l58 410q10 76 59 115.5t117 39.5t105.5 -39.5t27.5 -115.5l-58 -410q-11 -76 -59.5 -115.5t-116.5 -39.5t-106 39.5t-27 115.5zM108 145q-9 -60 20 -90t83 -30q53 0 90 30t46 90l58 410q8 60 -21 90t-82 30q-54 0 -91 -30t-45 -90z" />
<glyph unicode="P" d="M53 0l98 700h137q71 0 111 -39.5t29 -114.5l-19 -137q-7 -48 -27.5 -81t-49.5 -48t-54.5 -20.5t-52.5 -5.5h-102l-35 -254h-35zM128 289h102q127 0 144 120l19 137q9 60 -22 89.5t-88 29.5h-102z" />
<glyph unicode="Q" horiz-adv-x="420" d="M73 145l58 410q10 76 59 115.5t117 39.5t105.5 -39.5t27.5 -115.5l-58 -410q-13 -91 -82 -131l37 -112h-38l-32 98q-32 -10 -61 -10q-68 0 -106 39.5t-27 115.5zM108 145q-9 -60 20 -90t83 -30q23 0 45 6l-39 122h38l34 -107q48 30 58 99l58 410q8 60 -21 90t-82 30 q-54 0 -91 -30t-45 -90z" />
<glyph unicode="R" horiz-adv-x="410" d="M53 0l98 700h137q72 0 112 -39.5t29 -114.5l-19 -137q-16 -117 -120 -147l86 -262h-38l-84 255q-10 -1 -29 -1h-101l-35 -254h-36zM129 289h101q127 0 144 120l19 137q9 60 -22 89.5t-88 29.5h-101z" />
<glyph unicode="S" horiz-adv-x="420" d="M55 15l5 37q78 -27 151 -27q53 0 90 30t46 90l9 68q5 38 -3 63t-28 36t-34.5 14.5t-37.5 5.5q-28 2 -48.5 7.5t-45 20.5t-35 47t-3.5 80l10 68q10 76 59 115.5t117 39.5q62 0 133 -19l-6 -37q-74 21 -132 21q-54 0 -91 -30t-45 -90l-10 -68q-4 -31 2 -53t15.5 -34 t28 -19.5t29.5 -9t29 -3.5q22 -2 38 -5t37.5 -13t34.5 -25.5t19.5 -44t1.5 -67.5l-9 -68q-11 -76 -59.5 -115.5t-116.5 -39.5q-76 0 -151 25z" />
<glyph unicode="T" horiz-adv-x="360" d="M117 665l5 35h309l-5 -35h-137l-93 -665h-35l93 665h-137z" />
<glyph unicode="U" horiz-adv-x="410" d="M73 145l78 555h35l-78 -555q-9 -60 18.5 -90t79.5 -30t87 30t44 90l78 555h35l-78 -555q-11 -77 -57 -116t-114 -39t-103.5 39t-24.5 116z" />
<glyph unicode="V" horiz-adv-x="420" d="M120 700h37l62 -619l233 619h38l-265 -700h-35z" />
<glyph unicode="W" horiz-adv-x="592" d="M121 700h37l43 -612q61 178 151 447h33l27 -447q35 101 106.5 305.5t106.5 306.5h38l-245 -700h-35l-27 444l-149 -444h-35z" />
<glyph unicode="X" horiz-adv-x="420" d="M26 0l212 350l-115 350h38l101 -310l186 310h39l-212 -350l115 -350h-39l-100 309l-187 -309h-38z" />
<glyph unicode="Y" horiz-adv-x="420" d="M119 700h37l94 -395l203 395h38l-231 -449l-35 -251h-35l35 253z" />
<glyph unicode="Z" horiz-adv-x="420" d="M53 0l3 28l350 637h-260l5 35h301l-4 -28l-350 -637h260l-4 -35h-301z" />
<glyph unicode="[" horiz-adv-x="240" d="M39 -97l125 888h151l-5 -35h-117l-115 -818h117l-5 -35h-151z" />
<glyph unicode="\" horiz-adv-x="408" d="M119 690l33 15l227 -701l-31 -16z" />
<glyph unicode="]" horiz-adv-x="240" d="M19 -97l5 35h116l115 818h-116l5 35h151l-125 -888h-151z" />
<glyph unicode="^" horiz-adv-x="474" d="M129 563l208 183l23 -25l-1 -1l137 -157l-30 -25l-136 157l-179 -157z" />
<glyph unicode="_" horiz-adv-x="370" d="M5 -207h356v-35h-356v35z" />
<glyph unicode="`" horiz-adv-x="296" d="M144 682l26 29l156 -120l-28 -29z" />
<glyph unicode="a" d="M71 129h1l5 39q10 69 53.5 103.5t104.5 34.5h104l9 65q7 51 -18.5 77.5t-69.5 26.5q-46 0 -125 -27l6 37q73 25 125 25q59 0 92.5 -35.5t24.5 -103.5l-52 -371h-35l1 14q-72 -24 -107 -24q-61 0 -95 35t-24 104zM106 129q-7 -52 18 -78t71 -26q47 0 106 17l33 229h-104 q-46 0 -79 -26t-40 -77z" />
<glyph unicode="b" d="M54 0l105 750h34l-38 -267q70 27 108 27q61 0 95 -35t25 -104l-34 -242q-10 -69 -54 -104t-105 -35q-39 0 -100 26l-2 -16h-34zM93 42q56 -17 102 -17t79 26t40 78l34 242q7 52 -18.5 78t-71.5 26q-49 0 -106 -18z" />
<glyph unicode="c" horiz-adv-x="370" d="M71 129l34 242q9 69 53 104t105 35q50 0 116 -25l-6 -37q-70 27 -115 27q-46 0 -78.5 -26t-39.5 -78l-34 -242q-7 -52 18 -78t71 -26q44 0 123 27l-5 -37q-73 -25 -123 -25q-61 0 -95 35t-24 104z" />
<glyph unicode="d" d="M72 129l34 242q9 69 52.5 104t104.5 35q40 0 101 -24l37 264h35l-105 -750h-35l1 13q-69 -23 -107 -23q-61 0 -94.5 35t-23.5 104zM106 129q-7 -52 18 -78t71 -26q47 0 106 17l59 415q-54 18 -102 18q-46 0 -78.5 -26t-39.5 -78z" />
<glyph unicode="e" d="M72 129l34 242q9 69 52.5 104t104.5 35t95 -35t25 -104l-20 -138h-243l-14 -104q-7 -52 18 -78t71 -26q44 0 123 27l-5 -37q-73 -25 -123 -25q-61 0 -94.5 35t-23.5 104zM125 267h208l15 104q7 52 -18.5 78t-71.5 26t-78.5 -26t-39.5 -78z" />
<glyph unicode="f" horiz-adv-x="290" d="M89 465l5 35h77l11 79q9 69 55 103.5t111 34.5l-5 -34q-49 0 -84 -26t-42 -78l-11 -79h126l-5 -35h-126l-65 -465h-35l65 465h-77z" />
<glyph unicode="g" d="M25 -228l6 38q71 -27 130 -27q46 0 78.5 26t40.5 78l17 126q-69 -23 -107 -23q-61 0 -94.5 35t-23.5 104l34 242q9 69 52.5 104t104.5 35q40 0 101 -24l2 14h35l-86 -613q-10 -69 -54 -104t-105 -35q-62 0 -131 24zM106 129q-7 -52 18 -78t71 -26q47 0 106 17l59 415 q-54 18 -102 18q-46 0 -78.5 -26t-39.5 -78z" />
<glyph unicode="h" d="M54 0l105 750h34l-37 -264q66 24 107 24q61 0 95 -35t25 -104l-52 -371h-35l52 371q7 52 -18.5 78t-71.5 26q-49 0 -106 -18l-64 -457h-34z" />
<glyph unicode="i" horiz-adv-x="140" d="M52 0l70 500h35l-70 -500h-35zM133 581l17 119h35l-17 -119h-35z" />
<glyph unicode="j" horiz-adv-x="140" d="M-96 -252l5 35q49 0 83.5 26t42.5 78l86 613h35l-86 -613q-10 -69 -55.5 -104t-110.5 -35zM132 581l17 119h35l-17 -119h-35z" />
<glyph unicode="k" horiz-adv-x="368" d="M54 0l105 750h34l-68 -483h99l140 233h38l-152 -250l83 -250h-38l-76 233h-99l-32 -233h-34z" />
<glyph unicode="l" horiz-adv-x="140" d="M52 0l105 750h35l-105 -750h-35z" />
<glyph unicode="m" horiz-adv-x="580" d="M55 0l70 500h35l-2 -16q65 26 93 26q56 0 86 -35q87 35 127 35q53 -1 83.5 -33t22.5 -91l-54 -386h-35l54 386q6 44 -16 66.5t-60 22.5q-48 0 -110 -19q14 -31 8 -70l-54 -386h-35l54 386q6 44 -16 66.5t-60 22.5q-39 0 -92 -16l-64 -459h-35z" />
<glyph unicode="n" d="M54 0l70 500h34l-3 -17q70 27 108 27q61 0 95 -35t25 -104l-52 -371h-35l52 371q7 52 -18.5 78t-71.5 26q-49 0 -106 -18l-64 -457h-34z" />
<glyph unicode="o" d="M72 129l34 242q9 69 52.5 104t104.5 35t95 -35t25 -104l-34 -242q-10 -69 -54 -104t-105 -35t-94.5 35t-23.5 104zM106 129q-7 -52 18 -78t71 -26t79 26t40 78l34 242q7 52 -18.5 78t-71.5 26t-78.5 -26t-39.5 -78z" />
<glyph unicode="p" d="M19 -242l105 742h34l-2 -14q66 24 107 24q61 0 95 -35t25 -104l-34 -242q-10 -69 -54 -104t-105 -35q-38 0 -101 23l-36 -255h-34zM93 42q56 -17 102 -17t79 26t40 78l34 242q7 52 -18.5 78t-71.5 26q-49 0 -106 -18z" />
<glyph unicode="q" d="M72 129l34 242q9 69 52.5 104t104.5 35q40 0 101 -24l2 14h35l-105 -742h-35l36 255q-69 -23 -107 -23q-61 0 -94.5 35t-23.5 104zM106 129q-7 -52 18 -78t71 -26q47 0 106 17l59 415q-54 18 -102 18q-46 0 -78.5 -26t-39.5 -78z" />
<glyph unicode="r" horiz-adv-x="205" d="M53 0l70 500h34l-3 -17q70 27 109 27l-5 -35q-50 0 -107 -18l-64 -457h-34z" />
<glyph unicode="s" d="M60 15l5 37q71 -27 130 -27q46 0 79 26.5t40 80.5q4 30 -2.5 50.5t-23 30.5t-31 14t-34.5 6q-21 2 -36.5 5t-34 12t-29.5 22.5t-17 38t-1 57.5q10 71 53.5 106.5t104.5 35.5q50 0 116 -25l-6 -37q-70 27 -115 27q-46 0 -78.5 -26.5t-40.5 -80.5q-4 -30 2.5 -50.5 t23 -30.5t31 -14t34.5 -6q27 -2 46 -7.5t40 -18.5t30 -41t3 -68q-10 -71 -53.5 -106.5t-105.5 -35.5q-64 0 -130 25z" />
<glyph unicode="t" horiz-adv-x="280" d="M89 465l5 35h67l13 97h35l-13 -97h126l-5 -35h-126l-47 -336q-7 -52 20.5 -78t76.5 -26l-5 -35q-65 0 -101 35t-26 104l47 336h-67z" />
<glyph unicode="u" d="M72 129l52 371h34l-52 -371q-7 -52 18 -78t71 -26q47 0 106 17l65 458h35l-70 -500h-35l2 16q-69 -26 -108 -26q-61 0 -94.5 35t-23.5 104z" />
<glyph unicode="v" horiz-adv-x="320" d="M72 500h36l60 -425l179 425h37l-210 -500h-33z" />
<glyph unicode="w" horiz-adv-x="496" d="M74 500h37l42 -428l127 292h31l47 -290l160 426h37l-189 -500h-34l-48 291q-18 -41 -61 -140t-65 -151h-34z" />
<glyph unicode="x" horiz-adv-x="356" d="M18 0l172 250l-102 250h40l87 -214l147 214h39l-172 -250l103 -250h-39l-88 214l-147 -214h-40z" />
<glyph unicode="y" d="M25 -228l6 38q71 -27 130 -27q46 0 78.5 26t40.5 78l18 129q-69 -26 -108 -26q-61 0 -94.5 35t-23.5 104l52 371h34l-52 -371q-7 -52 18 -78t71 -26q47 0 106 17l65 458h35l-86 -613q-10 -69 -54 -104t-105 -35q-62 0 -131 24z" />
<glyph unicode="z" d="M54 0l4 29l296 436h-235l5 35h277l-4 -29l-298 -436h236l-4 -35h-277z" />
<glyph unicode="{" horiz-adv-x="343" d="M97 347l79 69q29 26 33 60l22 152q11 80 55 126t111 46l-5 -34q-52 0 -84.5 -37t-41.5 -101l-23 -160q-6 -41 -39 -72l-56 -49l42 -50q25 -29 19 -71l-22 -160q-9 -64 13 -101t74 -37l-5 -35q-67 0 -97.5 46.5t-19.5 126.5l21 152q6 34 -16 60z" />
<glyph unicode="|" horiz-adv-x="140" d="M38 -97l125 888h35l-125 -888h-35z" />
<glyph unicode="}" horiz-adv-x="343" d="M37 -107l5 35q52 0 85 37t42 101l22 160q6 42 39 71l56 50l-42 49q-25 30 -19 72l23 160q9 64 -13.5 101t-74.5 37l5 34q67 0 98 -46.5t20 -125.5l-22 -152q-5 -37 17 -60l59 -69l-78 -69q-28 -23 -34 -60l-21 -152q-11 -80 -55.5 -126.5t-111.5 -46.5z" />
<glyph unicode="~" horiz-adv-x="408" d="M95 292q8 61 36.5 89t65.5 28q15 0 28.5 -9t18.5 -15.5t18 -25.5q24 -37 45 -37q50 0 62 82h35q-8 -61 -36.5 -89t-65.5 -28q-41 0 -75 55q-24 32 -35 32q-52 0 -62 -82h-35z" />
<glyph unicode="&#xa1;" horiz-adv-x="140" d="M24 -194l71 500h35l-71 -500h-35zM106 388l16 112h35l-16 -112h-35z" />
<glyph unicode="&#xa2;" horiz-adv-x="370" d="M71 129l34 242q9 64 47 98.5t94 39.5l12 88h34l-12 -88q41 -3 99 -24l-6 -37q-54 21 -98 26l-63 -448q46 5 106 26l-5 -37q-57 -19 -106 -24l-12 -88h-34l12 88q-54 5 -82.5 39.5t-19.5 98.5zM106 129q-7 -47 13 -72.5t59 -30.5l63 448q-40 -5 -67.5 -30.5t-33.5 -72.5z " />
<glyph unicode="&#xa3;" horiz-adv-x="440" d="M71 329l5 35h77l26 186q11 75 59 114t116 39q67 0 130 -24l-5 -38q-70 28 -129 28q-53 0 -90 -29.5t-46 -89.5l-26 -186h146l-5 -35h-146l-42 -294h272l-4 -35h-307l46 329h-77z" />
<glyph unicode="&#xa4;" horiz-adv-x="310" d="M86 268l45 39q-10 23 -5.5 42.5t16.5 37.5l-34 38l29 26l33 -39q17 10 42 10q26 0 37 -10l45 39l21 -26l-43 -38q12 -44 -11 -79l32 -40l-28 -25l-34 39q-22 -11 -40 -11q-24 0 -39 11l-44 -39zM160 347q-2 -17 8 -29t28 -12q17 0 30 12t15 29q3 17 -7 29t-27 12 q-12 0 -22 -5.5t-16.5 -15t-8.5 -20.5z" />
<glyph unicode="&#xa5;" horiz-adv-x="420" d="M91 97l5 35h111l11 81h-111l5 35h111l1 4l-105 442h37l93 -392l201 392h37l-229 -445v-1h112l-5 -35h-112l-11 -81h112l-5 -35h-112l-13 -97h-35l13 97h-111z" />
<glyph unicode="&#xa6;" horiz-adv-x="140" d="M38 -97l57 403h35l-57 -403h-35zM106 388l57 403h35l-57 -403h-35z" />
<glyph unicode="&#xa7;" d="M57 -6l5 38q73 -27 130 -27q46 0 79 26.5t40 79.5q4 30 -2.5 51t-23 30.5t-31 13.5t-34.5 6h-7v1q-25 3 -43.5 8.5t-38 19.5t-27 41t-2.5 66q13 88 82 123q-60 29 -48 119q10 71 53.5 106.5t104.5 35.5q50 0 116 -25l-5 -37q-71 27 -116 27q-46 0 -78.5 -26.5 t-40.5 -80.5q-4 -30 2.5 -50.5t23 -30.5t31 -14t34.5 -6h7v-1q25 -3 44 -8.5t38.5 -19t27.5 -40.5t2 -66q-13 -90 -83 -124q62 -32 49 -119q-10 -71 -53.5 -106t-105.5 -35q-61 0 -130 24zM136 348q-4 -30 2.5 -50.5t23 -30.5t31 -14t34.5 -6q47 2 79 29t39 78q4 29 -2 49.5 t-21.5 30.5t-30 14t-34.5 6q-47 -2 -80.5 -28.5t-40.5 -77.5z" />
<glyph unicode="&#xa8;" horiz-adv-x="280" d="M134 581l16 113h35l-16 -113h-35zM269 581l16 113h35l-16 -113h-35z" />
<glyph unicode="&#xa9;" horiz-adv-x="420" d="M74 143l57 407q11 75 59 114t115 39t105 -39t27 -114l-57 -407q-11 -75 -59.5 -114t-115.5 -39t-104.5 39t-26.5 114zM109 143q-9 -59 19.5 -88.5t81.5 -29.5t89.5 29.5t45.5 88.5l57 407q9 60 -19.5 89.5t-81.5 29.5t-89.5 -29.5t-45.5 -89.5zM149 225l34 244 q7 47 37 71t72 24q39 0 81 -16l-6 -37q-52 18 -80 18q-60 0 -69 -60l-34 -244q-4 -30 10.5 -45t41.5 -15q33 0 85 18l-5 -38q-47 -15 -85 -15q-42 0 -65 24t-17 71z" />
<glyph unicode="&#xab;" horiz-adv-x="451" d="M97 347l209 183l21 -25l-180 -158l136 -158l-28 -25zM237 347l209 183l21 -25l-180 -158l136 -158l-28 -25z" />
<glyph unicode="&#xac;" horiz-adv-x="370" d="M93 329v35h258v-146h-35v111h-223z" />
<glyph unicode="&#xad;" horiz-adv-x="370" d="M93 329v35h258v-35h-258z" />
<glyph unicode="&#xae;" horiz-adv-x="420" d="M74 143l57 407q11 75 59 114t115 39t105 -39t27 -114l-57 -407q-11 -75 -59.5 -114t-115.5 -39t-104.5 39t-26.5 114zM109 143q-9 -59 19.5 -88.5t81.5 -29.5t89.5 29.5t45.5 88.5l57 407q9 60 -19.5 89.5t-81.5 29.5t-89.5 -29.5t-45.5 -89.5zM136 136l59 422h97v-1 q38 -4 59 -28t15 -66l-12 -81q-10 -72 -71 -89l52 -157h-36l-50 151h-57l-21 -151h-35zM197 322h53q61 2 69 60l12 81q4 30 -13 45t-47 15h-46z" />
<glyph unicode="&#xaf;" horiz-adv-x="380" d="M140 620l5 35h268l-5 -35h-268z" />
<glyph unicode="&#xb1;" horiz-adv-x="370" d="M93 134v35h258v-35h-258zM93 329v35h112v112h35v-112h111v-35h-111v-111h-35v111h-112z" />
<glyph unicode="&#xb4;" horiz-adv-x="296" d="M132 591l187 120l19 -29l-189 -120z" />
<glyph unicode="&#xb8;" horiz-adv-x="253" d="M28 -169l5 38q45 -17 69 -17q38 0 44 39q6 37 -36 37h-36l46 88h36l-27 -53q62 -6 52 -72q-5 -37 -28 -55.5t-56 -18.5q-32 0 -69 14z" />
<glyph unicode="&#xbb;" horiz-adv-x="451" d="M75 189l180 158l-136 158l29 25l157 -183l-208 -183zM215 189l180 158l-136 158l29 25l157 -183l-208 -183z" />
<glyph unicode="&#xbf;" horiz-adv-x="400" d="M46 -50l10 67q6 44 21.5 74.5t38 46t35.5 21t32 10.5l10 2q10 2 20.5 7.5t27 17.5t29 36t17.5 57l8 56h35l-8 -56q-6 -42 -23 -73.5t-38.5 -47t-37 -22t-29.5 -9.5q-2 -1 -4 -1l-11 -3q-15 -4 -24.5 -8.5t-24.5 -16t-24.5 -34.5t-14.5 -57l-10 -67q-8 -60 20.5 -89.5 t81.5 -29.5q59 0 137 28l-6 -38q-69 -24 -136 -24t-104.5 39t-27.5 114zM304 407l13 93h35l-13 -93h-35z" />
<glyph unicode="&#xc0;" horiz-adv-x="420" d="M22 0l266 700h35l69 -700h-38l-16 166h-216l-63 -166h-37zM135 201h199l-39 419zM194 882l26 29l156 -120l-28 -29z" />
<glyph unicode="&#xc1;" horiz-adv-x="420" d="M22 0l266 700h35l69 -700h-38l-16 166h-216l-63 -166h-37zM135 201h199l-39 419zM262 791l187 120l19 -29l-189 -120z" />
<glyph unicode="&#xc2;" horiz-adv-x="420" d="M22 0l266 700h35l69 -700h-38l-16 166h-216l-63 -166h-37zM135 201h199l-39 419zM194 787l140 123l107 -123l-31 -26l-83 97l-110 -97z" />
<glyph unicode="&#xc3;" horiz-adv-x="420" d="M22 0l266 700h35l69 -700h-38l-16 166h-216l-63 -166h-37zM135 201h199l-39 419zM208 781q9 65 29.5 91.5t54.5 26.5q15 0 25 -9t13 -18t6 -25q4 -13 5.5 -18t7 -11.5t13.5 -6.5q20 0 28.5 17t15.5 66h35q-9 -64 -28.5 -90.5t-54.5 -26.5q-27 0 -37.5 15t-16.5 42 q-6 30 -17 30q-19 0 -28 -17.5t-16 -65.5h-35z" />
<glyph unicode="&#xc4;" horiz-adv-x="420" d="M22 0l266 700h35l69 -700h-38l-16 166h-216l-63 -166h-37zM135 201h199l-39 419zM232 781l16 113h35l-16 -113h-35zM367 781l16 113h35l-16 -113h-35z" />
<glyph unicode="&#xc5;" horiz-adv-x="420" d="M22 0l266 700h35l69 -700h-38l-16 166h-216l-63 -166h-37zM135 201h199l-39 419zM250 838q5 31 30 53t56 22t50.5 -22t14.5 -53q-4 -31 -29.5 -53.5t-57.5 -22.5q-31 0 -50 22t-14 54zM284 838q-2 -18 8 -29.5t27 -11.5q18 0 31.5 11.5t15.5 29.5q2 17 -8 28.5t-27 11.5 t-31 -11.5t-16 -28.5z" />
<glyph unicode="&#xc6;" horiz-adv-x="489" d="M22 0l266 700h260l-5 -35h-176l-42 -297h146l-5 -36h-146l-42 -297h176l-4 -35h-212l23 166h-139l-63 -166h-37zM135 201h131l65 464h-19z" />
<glyph unicode="&#xc7;" horiz-adv-x="380" d="M73 145l58 410q10 76 59 115.5t117 39.5q65 0 132 -25l-6 -38q-70 28 -131 28q-54 0 -91 -30t-45 -90l-58 -410q-9 -60 20 -90t83 -30q60 0 139 28l-5 -38q-60 -21 -118 -24l-14 -28q63 -6 53 -72q-5 -38 -28.5 -57t-56.5 -19t-69 15l5 38q48 -18 69 -18q39 0 45 41 q6 37 -36 37h-36l32 63q-61 4 -94.5 43t-23.5 111z" />
<glyph unicode="&#xc8;" horiz-adv-x="350" d="M53 0l98 700h270l-5 -35h-235l-42 -297h206l-5 -36h-206l-42 -297h235l-4 -35h-270zM199 882l26 29l156 -120l-28 -29z" />
<glyph unicode="&#xc9;" horiz-adv-x="350" d="M53 0l98 700h270l-5 -35h-235l-42 -297h206l-5 -36h-206l-42 -297h235l-4 -35h-270zM187 791l187 120l19 -29l-189 -120z" />
<glyph unicode="&#xca;" horiz-adv-x="350" d="M53 0l98 700h270l-5 -35h-235l-42 -297h206l-5 -36h-206l-42 -297h235l-4 -35h-270zM159 787l140 123l107 -123l-31 -26l-83 97l-110 -97z" />
<glyph unicode="&#xcb;" horiz-adv-x="350" d="M53 0l98 700h270l-5 -35h-235l-42 -297h206l-5 -36h-206l-42 -297h235l-4 -35h-270zM197 781l16 113h35l-16 -113h-35zM332 781l16 113h35l-16 -113h-35z" />
<glyph unicode="&#xcc;" horiz-adv-x="140" d="M52 0l98 700h35l-98 -700h-35zM95 882l26 29l156 -120l-28 -29z" />
<glyph unicode="&#xcd;" horiz-adv-x="140" d="M52 0l98 700h35l-98 -700h-35zM83 791l187 120l19 -29l-189 -120z" />
<glyph unicode="&#xce;" horiz-adv-x="140" d="M52 0l98 700h35l-98 -700h-35zM55 787l140 123l107 -123l-31 -26l-83 97l-110 -97z" />
<glyph unicode="&#xcf;" horiz-adv-x="140" d="M52 0l98 700h35l-98 -700h-35zM93 781l16 113h35l-16 -113h-35zM228 781l16 113h35l-16 -113h-35z" />
<glyph unicode="&#xd0;" horiz-adv-x="454" d="M70 332l5 36h72l47 332h145q68 0 105.5 -39.5t26.5 -114.5l-55 -392q-11 -75 -59.5 -114.5t-115.5 -39.5h-145l46 332h-72zM136 35h109q54 0 90.5 29.5t45.5 89.5l55 392q9 60 -19.5 89.5t-82.5 29.5h-109l-42 -297h152l-5 -36h-152z" />
<glyph unicode="&#xd1;" horiz-adv-x="410" d="M53 0l98 700h33l148 -592l83 592h35l-98 -700h-32l-149 592l-83 -592h-35zM203 781q9 65 29.5 91.5t54.5 26.5q15 0 25 -9t13 -18t6 -25q4 -13 5.5 -18t7 -11.5t13.5 -6.5q20 0 28.5 17t15.5 66h35q-9 -64 -28.5 -90.5t-54.5 -26.5q-27 0 -37.5 15t-16.5 42q-6 30 -17 30 q-19 0 -28 -17.5t-16 -65.5h-35z" />
<glyph unicode="&#xd2;" horiz-adv-x="420" d="M73 145l58 410q10 76 59 115.5t117 39.5t105.5 -39.5t27.5 -115.5l-58 -410q-11 -76 -59.5 -115.5t-116.5 -39.5t-106 39.5t-27 115.5zM108 145q-9 -60 20 -90t83 -30q53 0 90 30t46 90l58 410q8 60 -21 90t-82 30q-54 0 -91 -30t-45 -90zM194 882l26 29l156 -120 l-28 -29z" />
<glyph unicode="&#xd3;" horiz-adv-x="420" d="M73 145l58 410q10 76 59 115.5t117 39.5t105.5 -39.5t27.5 -115.5l-58 -410q-11 -76 -59.5 -115.5t-116.5 -39.5t-106 39.5t-27 115.5zM108 145q-9 -60 20 -90t83 -30q53 0 90 30t46 90l58 410q8 60 -21 90t-82 30q-54 0 -91 -30t-45 -90zM262 791l187 120l19 -29 l-189 -120z" />
<glyph unicode="&#xd4;" horiz-adv-x="420" d="M73 145l58 410q10 76 59 115.5t117 39.5t105.5 -39.5t27.5 -115.5l-58 -410q-11 -76 -59.5 -115.5t-116.5 -39.5t-106 39.5t-27 115.5zM108 145q-9 -60 20 -90t83 -30q53 0 90 30t46 90l58 410q8 60 -21 90t-82 30q-54 0 -91 -30t-45 -90zM194 787l140 123l107 -123 l-31 -26l-83 97l-110 -97z" />
<glyph unicode="&#xd5;" horiz-adv-x="420" d="M73 145l58 410q10 76 59 115.5t117 39.5t105.5 -39.5t27.5 -115.5l-58 -410q-11 -76 -59.5 -115.5t-116.5 -39.5t-106 39.5t-27 115.5zM108 145q-9 -60 20 -90t83 -30q53 0 90 30t46 90l58 410q8 60 -21 90t-82 30q-54 0 -91 -30t-45 -90zM208 781q9 65 29.5 91.5 t54.5 26.5q15 0 25 -9t13 -18t6 -25q4 -13 5.5 -18t7 -11.5t13.5 -6.5q20 0 28.5 17t15.5 66h35q-9 -64 -28.5 -90.5t-54.5 -26.5q-27 0 -37.5 15t-16.5 42q-6 30 -17 30q-19 0 -28 -17.5t-16 -65.5h-35z" />
<glyph unicode="&#xd6;" horiz-adv-x="420" d="M73 145l58 410q10 76 59 115.5t117 39.5t105.5 -39.5t27.5 -115.5l-58 -410q-11 -76 -59.5 -115.5t-116.5 -39.5t-106 39.5t-27 115.5zM108 145q-9 -60 20 -90t83 -30q53 0 90 30t46 90l58 410q8 60 -21 90t-82 30q-54 0 -91 -30t-45 -90zM232 781l16 113h35l-16 -113 h-35zM367 781l16 113h35l-16 -113h-35z" />
<glyph unicode="&#xd7;" horiz-adv-x="310" d="M86 268l89 78l-67 79l29 26l67 -80l90 80l21 -26l-90 -79l68 -78l-28 -25l-68 78l-89 -78z" />
<glyph unicode="&#xd8;" horiz-adv-x="420" d="M28 5l46 76q-7 29 -1 64l58 410q10 76 59 115.5t117 39.5q82 0 116 -53l34 55l28 -16l-47 -78q6 -28 2 -63l-58 -410q-11 -76 -59.5 -115.5t-116.5 -39.5q-83 0 -117 54l-34 -56zM106 134l293 484q-20 57 -97 57q-54 0 -91 -30t-45 -90l-58 -410zM112 82q22 -57 99 -57 q53 0 90 30t46 90l58 410v9z" />
<glyph unicode="&#xd9;" horiz-adv-x="410" d="M73 145l78 555h35l-78 -555q-9 -60 18.5 -90t79.5 -30t87 30t44 90l78 555h35l-78 -555q-11 -77 -57 -116t-114 -39t-103.5 39t-24.5 116zM199 882l26 29l156 -120l-28 -29z" />
<glyph unicode="&#xda;" horiz-adv-x="410" d="M73 145l78 555h35l-78 -555q-9 -60 18.5 -90t79.5 -30t87 30t44 90l78 555h35l-78 -555q-11 -77 -57 -116t-114 -39t-103.5 39t-24.5 116zM257 791l187 120l19 -29l-189 -120z" />
<glyph unicode="&#xdb;" horiz-adv-x="410" d="M73 145l78 555h35l-78 -555q-9 -60 18.5 -90t79.5 -30t87 30t44 90l78 555h35l-78 -555q-11 -77 -57 -116t-114 -39t-103.5 39t-24.5 116zM189 787l140 123l107 -123l-31 -26l-83 97l-110 -97z" />
<glyph unicode="&#xdc;" horiz-adv-x="410" d="M73 145l78 555h35l-78 -555q-9 -60 18.5 -90t79.5 -30t87 30t44 90l78 555h35l-78 -555q-11 -77 -57 -116t-114 -39t-103.5 39t-24.5 116zM227 781l16 113h35l-16 -113h-35zM362 781l16 113h35l-16 -113h-35z" />
<glyph unicode="&#xdd;" horiz-adv-x="420" d="M119 700h37l94 -395l203 395h38l-231 -449l-35 -251h-35l35 253zM222 791l187 120l19 -29l-189 -120z" />
<glyph unicode="&#xde;" horiz-adv-x="370" d="M53 0l98 700h35l-18 -127h90q68 0 106 -39.5t27 -115.5l-19 -136q-5 -39 -20 -67.5t-32.5 -44t-42 -25.5t-41.5 -13t-40 -5h-91l-17 -127h-35zM110 162h89q18 2 30.5 4t32.5 9.5t33 19t25.5 34t16.5 53.5l19 136q9 61 -20 90.5t-83 29.5h-90z" />
<glyph unicode="&#xdf;" horiz-adv-x="420" d="M54 0l84 599q10 75 58.5 114t115.5 39t104.5 -39t27.5 -114l-10 -68q-14 -103 -97 -136q73 -35 59 -135l-15 -107q-11 -75 -61 -114t-121 -39l4 35q56 0 95 29.5t48 88.5l15 107q5 35 -2.5 59t-25.5 35.5t-34 16.5t-37 7q-4 -1 -11 -1l6 37q3 -1 10 -1q117 10 132 118 l10 68q8 59 -20.5 88.5t-81.5 29.5t-89.5 -29.5t-44.5 -88.5l-84 -599h-35z" />
<glyph unicode="&#xe0;" d="M71 129h1l5 39q10 69 53.5 103.5t104.5 34.5h104l9 65q7 51 -18.5 77.5t-69.5 26.5q-46 0 -125 -27l6 37q73 25 125 25q59 0 92.5 -35.5t24.5 -103.5l-52 -371h-35l1 14q-72 -24 -107 -24q-61 0 -95 35t-24 104zM106 129q-7 -52 18 -78t71 -26q47 0 106 17l33 229h-104 q-46 0 -79 -26t-40 -77zM191 682l26 29l156 -120l-28 -29z" />
<glyph unicode="&#xe1;" d="M71 129h1l5 39q10 69 53.5 103.5t104.5 34.5h104l9 65q7 51 -18.5 77.5t-69.5 26.5q-46 0 -125 -27l6 37q73 25 125 25q59 0 92.5 -35.5t24.5 -103.5l-52 -371h-35l1 14q-72 -24 -107 -24q-61 0 -95 35t-24 104zM106 129q-7 -52 18 -78t71 -26q47 0 106 17l33 229h-104 q-46 0 -79 -26t-40 -77zM179 591l187 120l19 -29l-189 -120z" />
<glyph unicode="&#xe2;" d="M71 129h1l5 39q10 69 53.5 103.5t104.5 34.5h104l9 65q7 51 -18.5 77.5t-69.5 26.5q-46 0 -125 -27l6 37q73 25 125 25q59 0 92.5 -35.5t24.5 -103.5l-52 -371h-35l1 14q-72 -24 -107 -24q-61 0 -95 35t-24 104zM106 129q-7 -52 18 -78t71 -26q47 0 106 17l33 229h-104 q-46 0 -79 -26t-40 -77zM151 587l140 123l107 -123l-31 -26l-83 97l-110 -97z" />
<glyph unicode="&#xe3;" d="M71 129h1l5 39q10 69 53.5 103.5t104.5 34.5h104l9 65q7 51 -18.5 77.5t-69.5 26.5q-46 0 -125 -27l6 37q73 25 125 25q59 0 92.5 -35.5t24.5 -103.5l-52 -371h-35l1 14q-72 -24 -107 -24q-61 0 -95 35t-24 104zM106 129q-7 -52 18 -78t71 -26q47 0 106 17l33 229h-104 q-46 0 -79 -26t-40 -77zM165 581q9 65 29.5 91.5t54.5 26.5q15 0 25 -9t13 -18t6 -25q4 -13 5.5 -18t7 -11.5t13.5 -6.5q20 0 28.5 17t15.5 66h35q-9 -64 -28.5 -90.5t-54.5 -26.5q-27 0 -37.5 15t-16.5 42q-6 30 -17 30q-19 0 -28 -17.5t-16 -65.5h-35z" />
<glyph unicode="&#xe4;" d="M71 129h1l5 39q10 69 53.5 103.5t104.5 34.5h104l9 65q7 51 -18.5 77.5t-69.5 26.5q-46 0 -125 -27l6 37q73 25 125 25q59 0 92.5 -35.5t24.5 -103.5l-52 -371h-35l1 14q-72 -24 -107 -24q-61 0 -95 35t-24 104zM106 129q-7 -52 18 -78t71 -26q47 0 106 17l33 229h-104 q-46 0 -79 -26t-40 -77zM189 581l16 113h35l-16 -113h-35zM324 581l16 113h35l-16 -113h-35z" />
<glyph unicode="&#xe5;" d="M71 129h1l5 39q10 69 53.5 103.5t104.5 34.5h104l9 65q7 51 -18.5 77.5t-69.5 26.5q-46 0 -125 -27l6 37q73 25 125 25q59 0 92.5 -35.5t24.5 -103.5l-52 -371h-35l1 14q-72 -24 -107 -24q-61 0 -95 35t-24 104zM106 129q-7 -52 18 -78t71 -26q47 0 106 17l33 229h-104 q-46 0 -79 -26t-40 -77zM207 638q5 31 30 53t56 22t50.5 -22t14.5 -53q-4 -31 -29.5 -53.5t-57.5 -22.5q-31 0 -50 22t-14 54zM241 638q-2 -18 8 -29.5t27 -11.5q18 0 31.5 11.5t15.5 29.5q2 17 -8 28.5t-27 11.5t-31 -11.5t-16 -28.5z" />
<glyph unicode="&#xe6;" horiz-adv-x="640" d="M74 129l5 39q10 69 53.5 103.5t104.5 34.5h104l9 65q7 52 -18.5 78t-71.5 26q-44 0 -123 -27l6 37q72 25 122 25q95 0 110 -77q40 77 132 77q61 0 95 -35t25 -104l-20 -138h-242l-14 -104q-7 -52 17.5 -78t70.5 -26q43 0 124 27l-5 -37q-75 -25 -124 -25q-97 0 -111 82 q-38 -82 -131 -82q-61 0 -94.5 35t-23.5 104zM108 129q-7 -52 18 -78t71 -26q44 0 77 27t42 79l20 140h-104q-46 0 -79 -26t-40 -77zM370 267h207l15 104q7 52 -18.5 78t-71.5 26t-78 -26t-39 -78z" />
<glyph unicode="&#xe7;" horiz-adv-x="370" d="M71 129l34 242q9 69 53 104t105 35q50 0 116 -25l-6 -37q-70 27 -115 27q-46 0 -78.5 -26t-39.5 -78l-34 -242q-7 -52 18 -78t71 -26q44 0 123 27l-5 -37q-60 -21 -114 -25l-13 -27q62 -6 52 -72q-5 -37 -28 -55.5t-56 -18.5q-32 0 -68 14l5 38q43 -17 68 -17q38 0 44 39 q6 37 -36 37h-35l33 64q-50 6 -76.5 40.5t-17.5 96.5z" />
<glyph unicode="&#xe8;" d="M72 129l34 242q9 69 52.5 104t104.5 35t95 -35t25 -104l-20 -138h-243l-14 -104q-7 -52 18 -78t71 -26q44 0 123 27l-5 -37q-73 -25 -123 -25q-61 0 -94.5 35t-23.5 104zM125 267h208l15 104q7 52 -18.5 78t-71.5 26t-78.5 -26t-39.5 -78zM171 682l26 29l156 -120 l-28 -29z" />
<glyph unicode="&#xe9;" d="M72 129l34 242q9 69 52.5 104t104.5 35t95 -35t25 -104l-20 -138h-243l-14 -104q-7 -52 18 -78t71 -26q44 0 123 27l-5 -37q-73 -25 -123 -25q-61 0 -94.5 35t-23.5 104zM125 267h208l15 104q7 52 -18.5 78t-71.5 26t-78.5 -26t-39.5 -78zM199 591l187 120l19 -29 l-189 -120z" />
<glyph unicode="&#xea;" d="M72 129l34 242q9 69 52.5 104t104.5 35t95 -35t25 -104l-20 -138h-243l-14 -104q-7 -52 18 -78t71 -26q44 0 123 27l-5 -37q-73 -25 -123 -25q-61 0 -94.5 35t-23.5 104zM125 267h208l15 104q7 52 -18.5 78t-71.5 26t-78.5 -26t-39.5 -78zM151 587l140 123l107 -123 l-31 -26l-83 97l-110 -97z" />
<glyph unicode="&#xeb;" d="M72 129l34 242q9 69 52.5 104t104.5 35t95 -35t25 -104l-20 -138h-243l-14 -104q-7 -52 18 -78t71 -26q44 0 123 27l-5 -37q-73 -25 -123 -25q-61 0 -94.5 35t-23.5 104zM125 267h208l15 104q7 52 -18.5 78t-71.5 26t-78.5 -26t-39.5 -78zM189 581l16 113h35l-16 -113 h-35zM324 581l16 113h35l-16 -113h-35z" />
<glyph unicode="&#xec;" horiz-adv-x="140" d="M52 0l70 500h35l-70 -500h-35zM66 682l26 29l156 -120l-28 -29z" />
<glyph unicode="&#xed;" horiz-adv-x="140" d="M52 0l70 500h35l-70 -500h-35zM54 591l187 120l19 -29l-189 -120z" />
<glyph unicode="&#xee;" horiz-adv-x="140" d="M26 587l140 123l107 -123l-31 -26l-83 97l-110 -97zM52 0l70 500h35l-70 -500h-35z" />
<glyph unicode="&#xef;" horiz-adv-x="140" d="M52 0l70 500h35l-70 -500h-35zM64 581l16 113h35l-16 -113h-35zM199 581l16 113h35l-16 -113h-35z" />
<glyph unicode="&#xf0;" d="M72 129l34 242q9 69 53 104t105 35q30 0 97 -26q-5 39 -20 94l-10 35l-112 -38l-7 34l110 38l-24 95h37l21 -84l111 39l8 -34l-111 -38l9 -31q27 -99 12 -208l-37 -265h-1q-14 -65 -56.5 -98t-99.5 -33q-61 0 -95 35t-24 104zM107 129q-7 -52 17.5 -78t71.5 -26 q46 0 78.5 26t39.5 78l38 272h8q3 30 3 56q-61 18 -104 18q-47 0 -79 -26t-39 -78z" />
<glyph unicode="&#xf1;" d="M54 0l70 500h34l-3 -17q70 27 108 27q61 0 95 -35t25 -104l-52 -371h-35l52 371q7 52 -18.5 78t-71.5 26q-49 0 -106 -18l-64 -457h-34zM168 581q9 65 29.5 91.5t54.5 26.5q15 0 25 -9t13 -18t6 -25q4 -13 5.5 -18t7 -11.5t13.5 -6.5q20 0 28.5 17t15.5 66h35 q-9 -64 -28.5 -90.5t-54.5 -26.5q-27 0 -37.5 15t-16.5 42q-6 30 -17 30q-19 0 -28 -17.5t-16 -65.5h-35z" />
<glyph unicode="&#xf2;" d="M72 129l34 242q9 69 52.5 104t104.5 35t95 -35t25 -104l-34 -242q-10 -69 -54 -104t-105 -35t-94.5 35t-23.5 104zM106 129q-7 -52 18 -78t71 -26t79 26t40 78l34 242q7 52 -18.5 78t-71.5 26t-78.5 -26t-39.5 -78zM161 682l26 29l156 -120l-28 -29z" />
<glyph unicode="&#xf3;" d="M72 129l34 242q9 69 52.5 104t104.5 35t95 -35t25 -104l-34 -242q-10 -69 -54 -104t-105 -35t-94.5 35t-23.5 104zM106 129q-7 -52 18 -78t71 -26t79 26t40 78l34 242q7 52 -18.5 78t-71.5 26t-78.5 -26t-39.5 -78zM219 591l187 120l19 -29l-189 -120z" />
<glyph unicode="&#xf4;" d="M72 129l34 242q9 69 52.5 104t104.5 35t95 -35t25 -104l-34 -242q-10 -69 -54 -104t-105 -35t-94.5 35t-23.5 104zM106 129q-7 -52 18 -78t71 -26t79 26t40 78l34 242q7 52 -18.5 78t-71.5 26t-78.5 -26t-39.5 -78zM151 587l140 123l107 -123l-31 -26l-83 97l-110 -97z " />
<glyph unicode="&#xf5;" d="M72 129l34 242q9 69 52.5 104t104.5 35t95 -35t25 -104l-34 -242q-10 -69 -54 -104t-105 -35t-94.5 35t-23.5 104zM106 129q-7 -52 18 -78t71 -26t79 26t40 78l34 242q7 52 -18.5 78t-71.5 26t-78.5 -26t-39.5 -78zM165 581q9 65 29.5 91.5t54.5 26.5q15 0 25 -9t13 -18 t6 -25q4 -13 5.5 -18t7 -11.5t13.5 -6.5q20 0 28.5 17t15.5 66h35q-9 -64 -28.5 -90.5t-54.5 -26.5q-27 0 -37.5 15t-16.5 42q-6 30 -17 30q-19 0 -28 -17.5t-16 -65.5h-35z" />
<glyph unicode="&#xf6;" d="M72 129l34 242q9 69 52.5 104t104.5 35t95 -35t25 -104l-34 -242q-10 -69 -54 -104t-105 -35t-94.5 35t-23.5 104zM106 129q-7 -52 18 -78t71 -26t79 26t40 78l34 242q7 52 -18.5 78t-71.5 26t-78.5 -26t-39.5 -78zM189 581l16 113h35l-16 -113h-35zM324 581l16 113h35 l-16 -113h-35z" />
<glyph unicode="&#xf7;" horiz-adv-x="370" d="M99 329l5 35h258l-5 -35h-258zM195 218l9 64h35l-9 -64h-35zM222 412l9 64h35l-9 -64h-35z" />
<glyph unicode="&#xf8;" d="M13 5l58 74q-3 23 1 50l34 242q9 69 52.5 104t104.5 35q77 0 107 -51l41 52l30 -16l-58 -74q3 -17 0 -50l-34 -242q-10 -69 -54 -104t-105 -35q-78 0 -107 52l-42 -54zM105 122l238 303q-18 50 -85 50q-46 0 -78.5 -26t-39.5 -78q-3 -24 -15.5 -112.5t-19.5 -136.5z M109 75q18 -50 86 -50q46 0 79 26t40 78l34 242v6z" />
<glyph unicode="&#xf9;" d="M72 129l52 371h34l-52 -371q-7 -52 18 -78t71 -26q47 0 106 17l65 458h35l-70 -500h-35l2 16q-69 -26 -108 -26q-61 0 -94.5 35t-23.5 104zM171 682l26 29l156 -120l-28 -29z" />
<glyph unicode="&#xfa;" d="M72 129l52 371h34l-52 -371q-7 -52 18 -78t71 -26q47 0 106 17l65 458h35l-70 -500h-35l2 16q-69 -26 -108 -26q-61 0 -94.5 35t-23.5 104zM209 591l187 120l19 -29l-189 -120z" />
<glyph unicode="&#xfb;" d="M72 129l52 371h34l-52 -371q-7 -52 18 -78t71 -26q47 0 106 17l65 458h35l-70 -500h-35l2 16q-69 -26 -108 -26q-61 0 -94.5 35t-23.5 104zM151 587l140 123l107 -123l-31 -26l-83 97l-110 -97z" />
<glyph unicode="&#xfc;" d="M72 129l52 371h34l-52 -371q-7 -52 18 -78t71 -26q47 0 106 17l65 458h35l-70 -500h-35l2 16q-69 -26 -108 -26q-61 0 -94.5 35t-23.5 104zM189 581l16 113h35l-16 -113h-35zM324 581l16 113h35l-16 -113h-35z" />
<glyph unicode="&#xfd;" d="M25 -228l6 38q71 -27 130 -27q46 0 78.5 26t40.5 78l18 129q-69 -26 -108 -26q-61 0 -94.5 35t-23.5 104l52 371h34l-52 -371q-7 -52 18 -78t71 -26q47 0 106 17l65 458h35l-86 -613q-10 -69 -54 -104t-105 -35q-62 0 -131 24zM179 591l187 120l19 -29l-189 -120z" />
<glyph unicode="&#xfe;" d="M19 -242l139 984h34l-37 -259q70 27 108 27q61 0 95 -35t25 -104l-34 -242q-10 -69 -54 -104t-105 -35q-39 0 -100 26l-37 -258h-34zM93 42q56 -17 102 -17t79 26t40 78l34 242q7 52 -18.5 78t-71.5 26q-49 0 -106 -18z" />
<glyph unicode="&#xff;" d="M25 -228l6 38q71 -27 130 -27q46 0 78.5 26t40.5 78l18 129q-69 -26 -108 -26q-61 0 -94.5 35t-23.5 104l52 371h34l-52 -371q-7 -52 18 -78t71 -26q47 0 106 17l65 458h35l-86 -613q-10 -69 -54 -104t-105 -35q-62 0 -131 24zM189 581l16 113h35l-16 -113h-35zM324 581 l16 113h35l-16 -113h-35z" />
<glyph unicode="&#x152;" horiz-adv-x="640" d="M75 145l58 410q10 76 58.5 115.5t116.5 39.5q82 0 112 -55l6 45h270l-5 -35h-234l-42 -297h205l-5 -36h-205l-42 -297h234l-4 -35h-270l6 45q-45 -55 -127 -55q-68 0 -105.5 39.5t-26.5 115.5zM110 145q-9 -60 20 -90t82 -30t90 30t46 90l58 416q6 57 -23 85.5t-80 28.5 q-53 0 -90 -30t-45 -90z" />
<glyph unicode="&#x153;" horiz-adv-x="640" d="M74 129l34 242q9 69 52.5 104t104.5 35q95 0 110 -77q40 77 132 77q61 0 95 -35t25 -104l-20 -138h-242l-14 -104q-7 -52 17.5 -78t70.5 -26q43 0 124 27l-5 -37q-75 -25 -124 -25q-94 0 -110 76q-38 -76 -132 -76q-61 0 -94.5 35t-23.5 104zM108 129q-7 -52 18 -78 t71 -26t79 26t40 78l34 242q7 52 -18.5 78t-71.5 26t-78.5 -26t-39.5 -78zM370 267h207l15 104q7 52 -18.5 78t-71.5 26t-78 -26t-39 -78z" />
<glyph unicode="&#x178;" horiz-adv-x="420" d="M119 700h37l94 -395l203 395h38l-231 -449l-35 -251h-35l35 253zM232 781l16 113h35l-16 -113h-35zM367 781l16 113h35l-16 -113h-35z" />
<glyph unicode="&#x2c6;" horiz-adv-x="350" d="M131 587l140 123l107 -123l-31 -26l-83 97l-110 -97z" />
<glyph unicode="&#x2dc;" horiz-adv-x="350" d="M122 581q9 65 29.5 91.5t54.5 26.5q15 0 25 -9t13 -18t6 -25q4 -13 5.5 -18t7 -11.5t13.5 -6.5q20 0 28.5 17t15.5 66h35q-9 -64 -28.5 -90.5t-54.5 -26.5q-27 0 -37.5 15t-16.5 42q-6 30 -17 30q-19 0 -28 -17.5t-16 -65.5h-35z" />
<glyph unicode="&#x2000;" horiz-adv-x="456" />
<glyph unicode="&#x2001;" horiz-adv-x="913" />
<glyph unicode="&#x2002;" horiz-adv-x="456" />
<glyph unicode="&#x2003;" horiz-adv-x="913" />
<glyph unicode="&#x2004;" horiz-adv-x="304" />
<glyph unicode="&#x2005;" horiz-adv-x="228" />
<glyph unicode="&#x2006;" horiz-adv-x="152" />
<glyph unicode="&#x2007;" horiz-adv-x="152" />
<glyph unicode="&#x2008;" horiz-adv-x="114" />
<glyph unicode="&#x2009;" horiz-adv-x="182" />
<glyph unicode="&#x200a;" horiz-adv-x="50" />
<glyph unicode="&#x2010;" horiz-adv-x="370" d="M93 329v35h258v-35h-258z" />
<glyph unicode="&#x2011;" horiz-adv-x="370" d="M93 329v35h258v-35h-258z" />
<glyph unicode="&#x2012;" horiz-adv-x="370" d="M93 329v35h258v-35h-258z" />
<glyph unicode="&#x2013;" horiz-adv-x="470" d="M94 329v35h355v-35h-355z" />
<glyph unicode="&#x2014;" horiz-adv-x="570" d="M95 329v35h452v-35h-452z" />
<glyph unicode="&#x2018;" horiz-adv-x="164" d="M118 475l12 85q10 63 43 134h38q-30 -58 -45 -126h19l-13 -93h-54z" />
<glyph unicode="&#x2019;" horiz-adv-x="164" d="M114 475q34 66 45 126h-19l13 93h54l-12 -85q-8 -61 -43 -134h-38z" />
<glyph unicode="&#x201a;" horiz-adv-x="160" d="M26 -126q31 63 45 126h-19l13 93h54l-12 -85q-10 -63 -43 -134h-38z" />
<glyph unicode="&#x201c;" horiz-adv-x="264" d="M118 475l12 85q10 63 43 134h38q-30 -58 -45 -126h19l-13 -93h-54zM218 475l12 85q10 63 43 134h38q-30 -58 -45 -126h19l-13 -93h-54z" />
<glyph unicode="&#x201d;" horiz-adv-x="265" d="M114 475q34 66 45 126h-19l13 93h54l-12 -85q-8 -61 -43 -134h-38zM215 475q34 66 45 126h-19l13 93h54l-12 -85q-8 -61 -43 -134h-38z" />
<glyph unicode="&#x201e;" horiz-adv-x="264" d="M31 -126q31 63 45 126h-20l13 93h55l-12 -85q-10 -65 -44 -134h-37zM128 -126q31 63 45 126h-20l13 93h55l-12 -85q-10 -65 -44 -134h-37z" />
<glyph unicode="&#x2022;" horiz-adv-x="260" d="M93 347q0 31 21.5 53t53.5 22t54 -22t22 -53t-22 -53.5t-54 -22.5q-31 0 -53 22t-22 54z" />
<glyph unicode="&#x2026;" horiz-adv-x="440" d="M54 0l13 93h54l-13 -93h-54zM190 0l13 93h54l-13 -93h-54zM325 0l13 93h55l-13 -93h-55z" />
<glyph unicode="&#x202f;" horiz-adv-x="182" />
<glyph unicode="&#x2039;" horiz-adv-x="311" d="M97 347l209 183l21 -25l-180 -158l136 -158l-28 -25z" />
<glyph unicode="&#x203a;" horiz-adv-x="311" d="M75 189l180 158l-136 158l29 25l157 -183l-208 -183z" />
<glyph unicode="&#x205f;" horiz-adv-x="228" />
<glyph unicode="&#x20ac;" horiz-adv-x="404" d="M61 262l5 35h52l14 100h-52l5 35h52l17 118q11 75 59 114t115 39q66 0 131 -24l-5 -38q-72 28 -130 28q-53 0 -89.5 -29.5t-45.5 -89.5l-17 -118h170l-5 -35h-170l-14 -100h170l-5 -35h-170l-16 -119q-9 -59 19.5 -88.5t81.5 -29.5q57 0 138 27l-5 -37q-75 -25 -138 -25 q-67 0 -104.5 39t-26.5 114l16 119h-52z" />
<glyph unicode="&#x2122;" horiz-adv-x="462" d="M146 659l5 35h151l-5 -35h-58l-24 -175h-35l24 175h-58zM287 484l28 202l-2 8h38l35 -153l77 153h38l-4 -8l-28 -202h-35l15 109l-56 -109h-31l-25 107l-15 -107h-35z" />
<glyph unicode="&#xe000;" horiz-adv-x="500" d="M0 0v500h500v-500h-500z" />
</font>
</defs>
</svg>
