<?xml version="1.0" standalone="no"?>
<!DOCTYPE svg PUBLIC "-//W3C//DTD SVG 1.1//EN" "http://www.w3.org/Graphics/SVG/1.1/DTD/svg11.dtd" >
<svg xmlns="http://www.w3.org/2000/svg">
<metadata></metadata>
<defs>
<font id="josefin_sansthin_italic" horiz-adv-x="300" >
<font-face units-per-em="1000" ascent="750" descent="-250" />
<missing-glyph horiz-adv-x="500" />
<glyph horiz-adv-x="1000" />
<glyph horiz-adv-x="1000" />
<glyph unicode="&#xd;" />
<glyph unicode=" " />
<glyph unicode="!" horiz-adv-x="201" d="M32 56q1 9 8 14.5t14 5.5q8 0 13 -5.5t4 -14.5q-1 -8 -8 -14t-15 -6q-7 0 -12 6t-4 14zM60 166l82 584h14l-82 -584h-14z" />
<glyph unicode="&#x22;" horiz-adv-x="293" d="M45 472l35 248h18q-10 -63 -19.5 -124t-19.5 -124h-14zM178 472l35 248h18q-10 -63 -19.5 -124t-19.5 -124h-14z" />
<glyph unicode="#" horiz-adv-x="571" d="M15 225q1 4 1.5 7t1.5 7h118l22 84l22 84h-116q0 4 1 7t1 7h117q15 56 29.5 111t29.5 111h14q-15 -56 -29.5 -111t-29.5 -111h170q15 56 29.5 111t29.5 111h14q-15 -56 -29.5 -111t-29.5 -111h136q0 -4 -1 -7t-1 -7h-137l-22 -84l-22 -84h135q-1 -4 -1.5 -7t-1.5 -7h-136 q-15 -57 -29 -112.5t-29 -112.5h-14q15 57 29 112.5t29 112.5h-170q-15 -57 -29 -112.5t-29 -112.5h-14q15 57 29 112.5t29 112.5h-117zM150 239h170l22 84l22 84h-170l-22 -84z" />
<glyph unicode="$" horiz-adv-x="567" d="M42 78l13 12q12 -14 27.5 -29t35 -27t43.5 -19.5t54 -8.5l51 363q-1 1 -2 1t-3 1q-18 5 -43 14t-47 25.5t-36.5 42t-11.5 64.5q2 33 15.5 65.5t37.5 59t58.5 43.5t79.5 19l8 60h14l-8 -60q35 -1 69 -14t65 -43q-4 -4 -10 -12q-8 8 -19.5 17t-27.5 17t-35.5 14t-43.5 7 l-44 -312q30 -10 64 -22.5t62 -33.5t44 -54t9 -82q-6 -44 -27.5 -79t-53 -60.5t-71 -39.5t-82.5 -15l-8 -60h-14l8 60q-38 1 -66.5 11.5t-49 24t-34.5 27.5t-21 23zM139 530q-5 -31 1.5 -53.5t21.5 -38.5t38.5 -28t53.5 -22q6 -3 14 -5l44 307q-38 -1 -68 -15t-52 -36 t-35.5 -50.5t-17.5 -58.5zM229 6q38 1 74.5 14t66.5 36t50.5 55t25.5 71q6 45 -7 75t-38 51t-57 34t-64 23z" />
<glyph unicode="%" horiz-adv-x="726" d="M127 389q3 22 14.5 42t28.5 34.5t38 23t44 8.5q22 0 41 -8.5t32 -23t19 -34.5t3 -42q-3 -23 -15 -43t-29 -34.5t-38 -23t-43 -8.5q-23 0 -41.5 8.5t-31.5 23t-19 34.5t-3 43zM141 388q-5 -39 19 -66.5t64 -27.5q20 0 38.5 7.5t33.5 20t24.5 29.5t12.5 37q5 39 -19 67 t-64 28q-20 0 -38.5 -7.5t-33.5 -20.5t-24.5 -30.5t-12.5 -36.5zM172 0q93 126 184.5 250t184.5 250h16q-93 -126 -184.5 -250t-184.5 -250h-16zM392 113q3 22 14.5 42t28.5 34.5t38 23t44 8.5q22 0 41 -8.5t32 -23t19 -34.5t3 -42q-3 -23 -14.5 -43t-29 -34.5t-38.5 -23 t-43 -8.5q-23 0 -41.5 8.5t-31.5 23t-19 34.5t-3 43zM406 112q-5 -39 19 -66.5t64 -27.5q20 0 38.5 7.5t33.5 20t24.5 29.5t12.5 37q5 39 -19 67t-64 28q-20 0 -38.5 -7.5t-33.5 -20.5t-24.5 -30.5t-12.5 -36.5z" />
<glyph unicode="&#x26;" horiz-adv-x="700" d="M79 187q5 36 22 68.5t42.5 58t57.5 42.5t68 23q-14 29 -28 58.5t-28 58.5q-14 30 -16.5 62t6.5 63t31 58t58 47q31 17 60.5 20.5t56.5 -1.5t50.5 -16t40.5 -23q-2 -3 -4 -6.5t-4 -6.5q-21 13 -43.5 24t-46.5 16t-50 1.5t-54 -19.5q-34 -20 -54.5 -45t-28.5 -52.5 t-5.5 -57t15.5 -56.5q48 -102 96 -203t96 -203q30 41 37 89l10 70q6 46 16.5 70t24 34.5t29 12t32.5 1.5h37l-2 -14h-57q-31 0 -45 -26t-22 -86l-9 -62q-4 -29 -15.5 -54.5t-28.5 -48.5q23 -47 46 -95l-6 -4l-6 -4q-23 46 -44 91q-32 -36 -75.5 -57.5t-92.5 -21.5 q-41 0 -74 15t-55.5 41.5t-33 61.5t-4.5 76zM93 187q-5 -38 4.5 -70.5t30.5 -57t51.5 -38.5t68.5 -14q47 0 89 21.5t71 56.5q-33 71 -66.5 140.5t-66.5 140.5q-34 -4 -65 -19.5t-55.5 -39.5t-40.5 -55t-21 -65z" />
<glyph unicode="'" horiz-adv-x="147" d="M49 472l35 248h18q-10 -63 -19.5 -124t-19.5 -124h-14z" />
<glyph unicode="(" horiz-adv-x="394" d="M140.5 149q-4.5 68 6.5 143q10 75 33.5 143t55 126t67.5 105.5t72 80.5v-23q-33 -33 -67 -78t-63.5 -100t-51.5 -119t-32 -135t-6 -135t18 -119t35.5 -100t45.5 -78q-2 -6 -3 -11.5t-3 -11.5q-27 33 -50 80.5t-38 105.5t-19.5 126z" />
<glyph unicode=")" horiz-adv-x="400" d="M50 -140q33 33 67 78t63.5 100t52 119t32.5 135t5.5 135t-18.5 119t-35.5 100t-45.5 78q2 6 3 11.5t3 11.5q27 -33 50 -80.5t38 -105.5t19.5 -126t-5.5 -143q-11 -75 -34.5 -143t-55 -126t-67.5 -105.5t-72 -80.5v23z" />
<glyph unicode="*" horiz-adv-x="335" d="M30 513q29 16 59 31.5t60 31.5q-26 17 -50.5 33t-50.5 33l4 6l4 6q26 -17 51.5 -32.5t51.5 -32.5l19 131h18q-6 -33 -11 -65.5t-10 -65.5q31 16 61.5 32t61.5 32q4 -8 5 -12q-31 -17 -61 -33t-61 -33q26 -16 51.5 -32t51.5 -32q-2 -4 -5 -7.5t-6 -7.5l-102 66l-10 -64 l-10 -64h-14l18 127q-30 -16 -59.5 -31.5t-59.5 -31.5z" />
<glyph unicode="+" horiz-adv-x="543" d="M85 225l2 14h173l24 172h14l-24 -172h173l-2 -14h-173l-25 -174h-14l25 174h-173z" />
<glyph unicode="," horiz-adv-x="200" d="M12 -120q27 52 53 103t53 103h23q-29 -52 -57.5 -103t-57.5 -103h-14z" />
<glyph unicode="-" d="M52 184l1 14h184l-1 -14h-184z" />
<glyph unicode="." horiz-adv-x="163" d="M66 20q1 8 7.5 14t14.5 6t13.5 -6t4.5 -14q-2 -8 -8.5 -14t-14.5 -6t-13.5 6t-3.5 14z" />
<glyph unicode="/" horiz-adv-x="322" d="M-36 -19q97 190 192 377.5t192 377.5h14q-97 -190 -192 -377.5t-192 -377.5h-14z" />
<glyph unicode="0" horiz-adv-x="616" d="M36 327q7 48 29.5 105.5t61.5 108t95.5 84t131.5 33.5q74 0 120 -34.5t70 -85t29.5 -108.5t-1.5 -106q-10 -69 -40.5 -129.5t-73.5 -105.5t-96 -70.5t-108 -25.5t-99.5 26.5t-74.5 71.5t-42 105.5t-2 130.5zM51 328q-11 -73 2 -132t42.5 -101t72 -65t90.5 -23t97 22 t90.5 63t71.5 100t41 131q11 73 0 132.5t-39 101t-71 64.5t-97 23t-103.5 -21.5t-89.5 -63t-68.5 -100t-38.5 -131.5z" />
<glyph unicode="1" horiz-adv-x="249" d="M77 636l2 14h127l-91 -650h-14l89 636h-113z" />
<glyph unicode="2" horiz-adv-x="495" d="M6 0q73 62 142 122.5t124 118t91 111t43 100.5q8 56 -2.5 93t-31.5 59t-48 31t-52 9q-50 0 -84 -17.5t-56 -44t-33.5 -57t-15.5 -56.5q-10 -70 24 -114q-2 -2 -5 -4t-5 -4q-17 24 -25 52.5t-3 69.5q6 40 22.5 74.5t42.5 60t61.5 40t78.5 14.5q39 0 69 -14.5t49.5 -40.5 t27 -61.5t1.5 -77.5q-8 -58 -45.5 -115.5t-91.5 -113.5t-117 -111.5t-123 -109.5h360l-2 -14h-396z" />
<glyph unicode="3" horiz-adv-x="515" d="M56 58q2 3 5.5 6.5t5.5 6.5q20 -29 52.5 -47t74.5 -18q39 0 76.5 15t67.5 41t50 60.5t26 72.5q6 39 -5 73.5t-33.5 60t-56 40.5t-72.5 15q-16 0 -32.5 -6t-31.5 -17q63 69 125.5 137.5t125.5 137.5h-287l2 14h319q-59 -63 -117.5 -126t-117.5 -126q46 2 84.5 -12.5 t65 -41.5t39 -65.5t6.5 -83.5q-6 -42 -27.5 -79t-53 -64.5t-71 -43.5t-81.5 -16q-45 0 -80.5 18t-58.5 48z" />
<glyph unicode="4" horiz-adv-x="505" d="M16 183q109 119 216.5 237.5t216.5 237.5l-65 -461h97l-2 -14h-97l-26 -183h-14l26 183h-352zM48 197h322l59 420z" />
<glyph unicode="5" horiz-adv-x="543" d="M76 48q4 2 6.5 5t6.5 5q20 -25 50.5 -38.5t68.5 -13.5q40 0 77 15t67 41t50 60.5t26 72.5q5 39 -5.5 72.5t-33 59t-55.5 40t-73 14.5q-35 0 -65.5 -11.5t-50.5 -28.5l44 309h287l-2 -14h-273l-37 -264q24 11 49.5 17t51.5 6q42 0 77 -15.5t59.5 -42.5t35.5 -63.5t5 -78.5 t-27.5 -79t-53.5 -64.5t-71.5 -43.5t-81.5 -16q-41 0 -74.5 15t-57.5 41z" />
<glyph unicode="6" horiz-adv-x="520" d="M33 193q10 73 49.5 135.5t95.5 116.5t121.5 100.5t127.5 87.5q3 -7 8 -13q-73 -44 -130 -87t-99.5 -82.5t-71 -74t-43.5 -62.5q33 37 78 59t96 22q42 0 77 -16t59 -43.5t35 -64t5 -78.5t-27.5 -78.5t-53 -63.5t-71 -43t-81.5 -16t-77 16t-59 43t-34.5 63.5t-4.5 78.5z M46 193q-6 -39 4 -73t32.5 -59.5t55 -40t71.5 -14.5t76 14.5t66.5 40t49.5 59.5t26 73q5 39 -5 73t-32.5 59.5t-55.5 40.5t-72 15t-76 -15t-66 -40.5t-49 -59.5t-25 -73z" />
<glyph unicode="7" horiz-adv-x="469" d="M57 636l2 14h401q-96 -164 -191.5 -325t-191.5 -325h-18q95 160 188 318t188 318h-378z" />
<glyph unicode="8" horiz-adv-x="510" d="M34 195q5 35 20.5 66.5t39.5 57t54 44t64 26.5q-40 14 -62 48.5t-15 80.5q4 29 18.5 54.5t37 44.5t50 30t57.5 11t54.5 -11.5t41.5 -31t24.5 -45.5t3.5 -56q-6 -44 -36.5 -77.5t-73.5 -47.5q33 -8 59 -26t43.5 -43.5t24.5 -57t2 -67.5q-6 -42 -27.5 -79t-53 -64.5 t-71 -43.5t-81.5 -16t-76.5 16t-58 43.5t-34.5 64.5t-5 79zM48 195q-5 -38 4.5 -72.5t31 -60.5t53.5 -41.5t71 -15.5q40 0 77 15.5t67 41.5t50 60.5t25 72.5q6 39 -4.5 72.5t-33.5 59t-56 40t-73 14.5q-39 0 -75 -14.5t-64.5 -40t-47.5 -59t-25 -72.5zM148 511q-4 -25 3 -46 t23 -36.5t38.5 -24t50.5 -8.5q27 0 52 8.5t44.5 24t32 36.5t16.5 46q4 27 -2.5 51t-21.5 42t-37 29t-49 11q-28 0 -53.5 -11t-45.5 -29t-33.5 -42t-17.5 -51z" />
<glyph unicode="9" horiz-adv-x="525" d="M71 432q6 42 27.5 78.5t53 63.5t71 43t81.5 16t77 -16t59 -43t34.5 -63.5t4.5 -78.5q-10 -73 -49.5 -135.5t-95.5 -116.5t-121.5 -100.5t-127.5 -87.5q-4 7 -8 13q73 44 130 87t99.5 82.5t71 74t43.5 62.5q-33 -37 -78 -59t-96 -22q-42 0 -77 16t-59 43.5t-35 64t-5 78.5 zM85 432q-5 -39 5 -73.5t32.5 -60t55.5 -40t72 -14.5t76 14.5t66 40t49 60t25 73.5q6 39 -4 73t-32.5 59.5t-55 40t-71.5 14.5t-76 -14.5t-66.5 -40t-49.5 -59.5t-26 -73z" />
<glyph unicode=":" horiz-adv-x="175" d="M47 20q1 8 8 14t15 6t13 -6t4 -14q-2 -8 -8.5 -14t-14.5 -6t-13.5 6t-3.5 14zM82 270q2 8 8.5 14t14.5 6t13.5 -6t3.5 -14q-1 -8 -8 -14t-15 -6t-13 6t-4 14z" />
<glyph unicode=";" horiz-adv-x="201" d="M-16 -120q26 52 52 103t53 103h23q-29 -52 -57.5 -103t-56.5 -103h-14zM114 270q1 8 7.5 14t14.5 6t13.5 -6t4.5 -14q-2 -8 -8.5 -14t-14.5 -6t-13.5 6t-3.5 14z" />
<glyph unicode="&#x3c;" horiz-adv-x="680" d="M115 238q118 63 236 126.5t237 126.5l-2 -16q-112 -60 -222.5 -118.5t-222.5 -118.5q94 -60 188.5 -118.5t189.5 -118.5l-2 -16q-101 63 -201 126.5t-201 126.5z" />
<glyph unicode="=" horiz-adv-x="708" d="M85 150l2 14h506l-2 -14h-506zM112 344l2 14h506l-2 -14h-506z" />
<glyph unicode="&#x3e;" horiz-adv-x="650" d="M79 -15l2 16q112 60 223 118.5t223 118.5q-95 60 -189.5 118.5t-189.5 118.5l2 16q101 -63 201 -126.5t202 -126.5q-119 -63 -237 -126.5t-237 -126.5z" />
<glyph unicode="?" horiz-adv-x="452" d="M61 599q14 29 35.5 53.5t48 42t57.5 27.5t63 10q41 0 75 -15.5t56.5 -42t33 -62t4.5 -75.5q-8 -54 -40 -94.5t-82 -72.5q-21 -14 -39 -23.5t-32.5 -21.5t-24 -31t-14.5 -52l-11 -78h-14l14 97q4 31 18.5 49.5t35 33t46 29t52.5 35.5q35 27 53.5 59.5t23.5 69.5 q5 39 -4.5 72t-30.5 57.5t-52.5 38t-69.5 13.5q-30 0 -58.5 -9t-53.5 -25t-45 -38.5t-32 -49.5q-3 1 -6.5 1.5t-6.5 1.5zM149 45q1 9 7.5 14.5t13.5 5.5q8 0 13.5 -5.5t4.5 -14.5q-2 -8 -8.5 -14t-14.5 -6q-7 0 -12.5 6t-3.5 14z" />
<glyph unicode="@" horiz-adv-x="990" d="M94 189q11 82 52 154t102.5 126t137.5 85t158 31t150 -31t114 -85t67 -126.5t9 -154.5q-10 -59 -27 -96t-39 -57.5t-46.5 -27.5t-49.5 -7h-78l8 54q2 16 4.5 31.5t4.5 31.5q-29 -54 -82.5 -88.5t-116.5 -34.5q-41 0 -74 15t-55.5 41.5t-33 61.5t-4.5 76q6 40 26 76t50 62 t67.5 41.5t78.5 15.5q62 0 105.5 -34.5t57.5 -88.5q5 29 10 57.5t11 57.5h10l-51 -362h71q54 0 89 42t50 133q11 79 -9 149t-64.5 122t-110 82t-144.5 30t-152.5 -30t-132.5 -82t-99 -122t-51 -149t9.5 -148.5t64.5 -121t109.5 -81.5t144.5 -30q62 0 120 19t109 51 q2 -3 3.5 -5.5t3.5 -5.5q-54 -34 -113 -53.5t-125 -19.5q-82 0 -149.5 31t-113.5 85t-67 126t-9 154zM309 188q-5 -38 4.5 -70.5t30.5 -57t51.5 -38.5t68.5 -14q37 0 72 14t63 38.5t47 57t24 70.5q5 37 -4.5 70t-30.5 58t-52 39t-68 14q-38 0 -72.5 -14t-62.5 -39t-47 -58 t-24 -70z" />
<glyph unicode="A" horiz-adv-x="740" d="M8 0q103 184 206.5 366t206.5 366l207 -732h-15q-23 79 -45 158t-45 158h-322q-45 -79 -89 -158t-89 -158h-15zM209 330h310q-24 87 -48 172.5t-49 172.5q-2 6 -3 12.5t-3 12.5q-3 -6 -6 -12.5t-6 -12.5q-46 -88 -95.5 -173t-99.5 -172z" />
<glyph unicode="B" horiz-adv-x="535" d="M34 0l99 700h145q45 0 81 -10t60 -31t34 -55q6 -20 5 -43q0 -17 -2 -36q-8 -62 -46 -109t-105 -64q29 -6 55 -20t44 -36t27 -51q6 -19 6 -40q0 -12 -2 -25q-6 -45 -29 -78.5t-55.5 -56t-72.5 -34t-81 -11.5h-163zM50 14h148q40 0 78 10t68 30.5t50 51t26 71.5q2 14 2 27 q0 24 -6 42q-10 28 -28.5 46.5t-42.5 29t-47.5 15.5t-43 6t-28.5 1h-129zM99 358h147q40 0 73.5 12.5t59 35t42 53.5t22.5 69q2 17 2 32q0 22 -5 40q-9 30 -30 49t-52 28t-70 9h-143z" />
<glyph unicode="C" horiz-adv-x="670" d="M61 349q10 74 47.5 139.5t93 114t124.5 77t143 28.5q51 0 94.5 -13t81.5 -37q-3 -3 -5 -6t-5 -6q-35 23 -77.5 35.5t-90.5 12.5q-71 0 -137.5 -27.5t-119.5 -74.5t-89 -110t-46 -134q-4 -25 -3 -50q0 -44 11 -83q18 -62 58 -108.5t98 -73.5t128 -27q48 0 94.5 12.5 t88.5 35.5l7 -12q-43 -23 -90.5 -36.5t-98.5 -13.5q-74 0 -135 28t-102.5 76.5t-60.5 113.5q-12 43 -12 89q0 24 3 50z" />
<glyph unicode="D" horiz-adv-x="652" d="M36 0l99 700h137q72 0 132.5 -24.5t102 -70t60.5 -110.5q12 -41 12 -88q0 -27 -4 -57q-9 -63 -37 -125.5t-80.5 -112.5t-131 -81t-187.5 -31h-103zM52 15h98q102 0 176 30.5t123.5 78.5t77 107.5t35.5 118.5q4 28 4 53q0 47 -12 87q-18 62 -57 105.5t-96.5 67 t-124.5 23.5h-129q-24 -169 -47.5 -335.5t-47.5 -335.5z" />
<glyph unicode="E" horiz-adv-x="601" d="M45 0l99 700h405l-2 -14h-391l-46 -326h352l-2 -14h-352l-47 -332h405l-2 -14h-419z" />
<glyph unicode="F" horiz-adv-x="587" d="M45 0l99 700h405l-2 -14h-391l-46 -326h352l-2 -14h-352l-49 -346h-14z" />
<glyph unicode="G" horiz-adv-x="675" d="M61 349q10 74 47.5 139.5t93 114t124.5 77t143 28.5q51 0 94.5 -13t81.5 -37q-3 -3 -5 -6t-5 -6q-35 23 -77.5 35.5t-90.5 12.5q-71 0 -137.5 -27.5t-119.5 -74.5t-89 -110t-46 -134q-4 -25 -4 -50q0 -43 12 -83q18 -62 58 -108.5t98 -73.5t128 -27q47 0 91 11.5t86 33.5 l20 141l10 71q2 9 -3.5 16t-22.5 7h-142l1 14h128q31 0 43 -8q10 -6 10 -24q0 -6 -1 -13l-30 -213q-43 -23 -90.5 -36.5t-98.5 -13.5q-74 0 -135 28t-102.5 76.5t-60.5 113.5q-12 43 -12 89q0 24 3 50z" />
<glyph unicode="H" horiz-adv-x="700" d="M54 0l99 700h14l-48 -340h464l48 340h18q-26 -176 -51.5 -350t-51.5 -350h-14l49 346h-464l-49 -346h-14z" />
<glyph unicode="I" horiz-adv-x="228" d="M57 0l99 700h14l-99 -700h-14z" />
<glyph unicode="J" horiz-adv-x="292" d="M-41 -142l2 14q37 2 70 17.5t60 44t45.5 68.5t25.5 91l86 607h14l-86 -610q-8 -56 -28.5 -98.5t-50 -71.5t-65 -45t-73.5 -17z" />
<glyph unicode="K" horiz-adv-x="600" d="M27 0l99 700h14l-48 -340q-1 -8 -2.5 -14.5t-2.5 -14.5l20 20q104 88 207 174.5t208 174.5h22q-83 -69 -164.5 -138t-164.5 -138q69 -106 137.5 -212t137.5 -212h-20q-67 104 -133.5 207t-134.5 207q-29 -25 -58.5 -49t-58.5 -49l-22 -158l-22 -158h-14z" />
<glyph unicode="L" horiz-adv-x="593" d="M45 0l99 700h14l-97 -686h405l-2 -14h-419z" />
<glyph unicode="M" horiz-adv-x="937" d="M48 0l103 732q75 -119 149.5 -237.5t149.5 -237.5q109 119 216.5 237.5t216.5 237.5l-103 -732h-14l60 430l31 215q2 11 3.5 22.5t3.5 22.5q-105 -118 -208.5 -232t-209.5 -230q-57 91 -112 179.5t-112 179.5l-57 90q-2 3 -3.5 6.5t-3.5 6.5q-2 -11 -2.5 -22.5 t-2.5 -22.5l-91 -645h-14z" />
<glyph unicode="N" horiz-adv-x="813" d="M50 0l103 732q121 -178 241 -352.5t241 -351.5q4 -7 8 -13t8 -13q0 8 0.5 16t0.5 16l94 666h14l-103 -732q-121 177 -241.5 351t-241.5 351q-3 7 -7 13t-8 13q0 -8 -0.5 -16t-0.5 -16l-94 -664h-14z" />
<glyph unicode="O" horiz-adv-x="840" d="M61 349q10 74 47.5 139.5t93 114t124.5 77t143 28.5t135.5 -28.5t103.5 -77t60 -114.5q12 -43 13 -88q0 -25 -4 -51q-10 -74 -47.5 -139t-93 -113.5t-125 -76.5t-143.5 -28t-135 28t-102.5 76.5t-60.5 113.5q-12 43 -12 89q0 24 3 50zM75 348q-4 -25 -3 -50q0 -44 11 -83 q18 -62 58 -108.5t98 -73.5t128 -27q71 0 138 27t121 73.5t90.5 109t46.5 133.5q4 25 4 49q-1 44 -13 84q-18 62 -58 109.5t-99 75t-130 27.5t-137.5 -27.5t-119.5 -74.5t-89 -110t-46 -134z" />
<glyph unicode="P" horiz-adv-x="447" d="M34 0l99 700h140q29 0 62.5 -10t60.5 -31t43 -55q11 -24 11 -54q0 -13 -2 -28q-12 -83 -74.5 -132t-165.5 -49h-112l-48 -341h-14zM98 355h115q58 0 98.5 16t66.5 40.5t39 54t17 56.5q1 9 1 18q1 22 -7 44q-10 30 -34 52.5t-57.5 36t-75.5 13.5h-116z" />
<glyph unicode="Q" horiz-adv-x="842" d="M61 349q10 74 47.5 139.5t93 114t124.5 77t143 28.5t135.5 -28.5t103.5 -77t60 -114.5q13 -42 13 -88q0 -25 -4 -51q-8 -58 -32.5 -110.5t-62 -96t-85.5 -76.5t-102 -52h257l-2 -14h-307q-38 -8 -75 -8q-74 0 -135 28t-102.5 76.5t-60.5 113.5q-12 43 -12 89q0 24 3 50z M75 348q-4 -25 -4 -50q0 -43 12 -83q18 -62 58 -108.5t98 -73.5t128 -27q71 0 138 27t121 73.5t90.5 109t46.5 133.5q4 25 4 49q0 44 -13 84q-18 63 -58 110t-99 74.5t-130 27.5t-137.5 -27.5t-119.5 -74.5t-89 -110t-46 -134z" />
<glyph unicode="R" horiz-adv-x="496" d="M34 0l99 700h140q29 0 62.5 -10t60.5 -31t43 -55q11 -24 11 -54q0 -13 -2 -28q-10 -69 -55.5 -115.5t-121.5 -60.5q29 -87 57 -173t57 -173h-15q-29 87 -57.5 172t-56.5 172q-24 -3 -48 -3h-112l-48 -341h-14zM98 355h115q58 0 98.5 16t66.5 40.5t39 54t17 56.5q1 9 1 18 q1 22 -7 44q-10 30 -34 52.5t-57.5 36t-75.5 13.5h-116z" />
<glyph unicode="S" horiz-adv-x="544" d="M42 78l12 11q13 -16 29 -31t36 -26.5t45 -18.5t57 -7q39 0 76.5 13t69 36t52.5 55.5t27 71.5q2 15 2 28q0 30 -10 52q-16 32 -44 52.5t-64 33t-69 23.5q-24 8 -49.5 18.5t-45.5 26.5q-22 16 -34 40q-10 20 -10 47q0 7 1 14q3 33 17 66.5t39 60.5t60.5 43.5t82.5 16.5 q38 0 73 -12.5t67 -44.5q-3 -3 -5 -5.5t-4 -5.5q-8 8 -19.5 17.5t-28 17.5t-38 13.5t-49.5 5.5q-39 0 -70 -14t-54 -36.5t-37 -51t-18 -58.5q-2 -14 -3 -26q0 -16 4 -28q6 -22 21.5 -38t39 -27.5t53.5 -22.5q29 -11 68 -23t72.5 -33.5t53.5 -55.5q15 -26 15 -63 q0 -13 -2 -27q-6 -44 -28 -80t-54.5 -61.5t-73 -39t-84.5 -13.5q-40 0 -70 10t-51.5 24t-35.5 28.5t-22 23.5z" />
<glyph unicode="T" horiz-adv-x="553" d="M47 686l2 14h553l-2 -14h-270l-97 -686h-14l97 686h-269z" />
<glyph unicode="U" horiz-adv-x="652" d="M85 226l66 474h14l-66 -471q-4 -24 -3 -46q0 -27 5 -49q10 -42 34 -70.5t61 -43t83 -14.5q45 0 86 14.5t73 43t53.5 70t29.5 95.5l66 471h14l-66 -474q-8 -57 -31.5 -101t-58 -73.5t-77.5 -44.5t-91 -15t-87.5 15t-65.5 44.5t-36 73.5q-6 25 -6 54q0 22 3 47z" />
<glyph unicode="V" horiz-adv-x="722" d="M105 700h15q48 -170 95.5 -337.5t95.5 -337.5q2 -6 3 -12.5t3 -12.5q3 6 6 12.5t6 12.5l381 675h15q-103 -184 -206.5 -366t-206.5 -366z" />
<glyph unicode="W" horiz-adv-x="1108" d="M105 700h15q47 -170 94 -338t97 -337q2 -6 3 -12.5t3 -12.5q55 108 116 213.5t121 211.5q-20 69 -38.5 137.5t-38.5 137.5h15q47 -170 94 -338t97 -337q2 -6 3 -12.5t3 -12.5q3 6 6 12.5t6 12.5l381 675h15q-103 -184 -206.5 -366t-206.5 -366l-118 417q-2 5 -3 11t-3 11 q-63 -110 -124 -219.5t-124 -219.5z" />
<glyph unicode="X" horiz-adv-x="700" d="M43 0q71 91 140.5 180t140.5 180l-86 170l-86 170h16q41 -80 81.5 -159.5t81.5 -159.5q2 -3 3 -6.5t3 -6.5q3 3 5 6.5t5 6.5q63 80 124.5 159.5t124.5 159.5h16q-67 -87 -134 -172t-135 -172q46 -90 91.5 -178t90.5 -178h-17l-143 279q-9 17 -17 35t-18 34 q-2 -3 -4.5 -6.5t-5.5 -6.5q-65 -85 -130 -167.5t-131 -167.5h-16z" />
<glyph unicode="Y" horiz-adv-x="638" d="M97 700h17q46 -101 92.5 -200.5t91.5 -201.5q2 -7 4.5 -13t4.5 -13h1q4 7 7 13t7 13l297 402h17l-324 -438l-37 -262h-14l37 262z" />
<glyph unicode="Z" horiz-adv-x="700" d="M81 0l1 14q152 169 302.5 336t302.5 336h-433q-30 0 -44 8q-10 6 -11 25q0 6 1 12l1 4h16l-2 -12q-2 -9 4 -16t23 -7h467l-2 -14q-152 -169 -302.5 -336t-302.5 -336h539l-1 -14h-559z" />
<glyph unicode="[" horiz-adv-x="338" d="M20 -149l125 895h163l-2 -14h-147l-121 -867h147l-2 -14h-163z" />
<glyph unicode="\" horiz-adv-x="320" d="M70 736h14q43 -190 85.5 -377.5t85.5 -377.5h-14q-43 190 -85.5 377.5t-85.5 377.5z" />
<glyph unicode="]" horiz-adv-x="342" d="M25 -149l2 14h147l121 867h-147l2 14h163l-125 -895h-163z" />
<glyph unicode="^" horiz-adv-x="470" d="M99 479q36 45 72.5 90.5t72.5 90.5q24 -45 47.5 -90.5t47.5 -90.5h-16q-21 38 -41.5 77t-41.5 77q-32 -38 -62.5 -77t-62.5 -77h-16z" />
<glyph unicode="_" horiz-adv-x="600" d="M99 0l1 14h400l-1 -14h-400z" />
<glyph unicode="`" horiz-adv-x="200" d="M-4 612h15q18 -33 35.5 -66.5t35.5 -66.5h-16q-18 33 -35.5 66.5t-34.5 66.5z" />
<glyph unicode="a" horiz-adv-x="498" d="M75 188q6 44 26.5 80t50.5 61.5t67.5 39.5t76.5 14q31 0 57.5 -9t48 -25.5t36.5 -39t22 -49.5q4 29 9.5 57.5t10.5 57.5h10l-52 -375h-14l7 54q2 16 5 31.5t5 31.5q-29 -54 -82.5 -88.5t-116.5 -34.5q-41 0 -74 15t-55.5 41.5t-32.5 61.5q-7 22 -7 47q0 14 2 29zM89 188 q-2 -13 -2 -26q1 -24 7 -44q10 -32 30.5 -57t51 -39t68.5 -14q37 0 72 14t63 38.5t47 57t24 70.5q2 13 2 25q0 23 -6 45q-10 33 -31 58t-52.5 39t-68.5 14q-38 0 -72.5 -14t-62.5 -39t-46.5 -58t-23.5 -70z" />
<glyph unicode="b" horiz-adv-x="527" d="M82 0l105 750h14l-61 -436q-2 -14 -4 -27t-4 -27q29 54 82 88.5t116 34.5q40 0 73.5 -15.5t56 -41.5t32.5 -62q7 -23 7 -47q0 -14 -2 -29q-6 -41 -26 -76t-50 -61.5t-67.5 -41.5t-77.5 -15q-63 0 -107 34.5t-58 88.5q-2 -16 -4 -31.5t-4 -31.5l-7 -54h-14zM122 188 q-2 -13 -2 -26q0 -24 6 -44q10 -32 31 -57t52 -39t69 -14q37 0 72 14t62.5 38.5t46.5 57t24 70.5q2 13 2 25q-1 23 -7 45q-10 33 -30.5 58t-51.5 39t-68 14q-38 0 -72.5 -14t-62.5 -39t-47 -58t-24 -70z" />
<glyph unicode="c" horiz-adv-x="383" d="M62 188q6 44 26 80t50 61.5t67 39.5t78 14q35 0 65 -11.5t52 -31.5q-2 -3 -5.5 -5.5t-5.5 -5.5q-21 19 -48.5 29.5t-59.5 10.5q-38 0 -72.5 -14t-62.5 -39t-46.5 -58t-23.5 -70q-2 -13 -2 -26q0 -24 6 -44q10 -32 31 -57t51.5 -39t68.5 -14q32 0 62 10.5t56 28.5 q2 -2 4.5 -5t4.5 -5q-29 -20 -61.5 -31.5t-67.5 -11.5q-41 0 -74 15t-55 41q-24 27 -34 62q-7 22 -6 47q0 14 2 29z" />
<glyph unicode="d" horiz-adv-x="522" d="M81 188q6 43 26 78.5t50 61.5t67 40.5t78 14.5q63 0 106.5 -34.5t57.5 -88.5q2 14 4 27t4 27l61 436h14l-105 -750h-14l7 54q2 16 5 31.5t5 31.5q-29 -54 -82.5 -88.5t-116.5 -34.5q-41 0 -74 15t-55.5 41.5t-32.5 61.5q-7 22 -7 47q0 14 2 29zM95 188q-2 -13 -2 -26 q1 -24 7 -44q10 -32 30.5 -57t51 -39t68.5 -14q37 0 72 14t63 38.5t47 57t24 70.5q2 13 2 25q0 23 -6 45q-10 33 -31 58t-52.5 39t-68.5 14q-38 0 -72.5 -14t-62.5 -39t-46.5 -58t-23.5 -70z" />
<glyph unicode="e" horiz-adv-x="451" d="M62 188q6 44 25 80t48.5 61.5t67 39.5t80.5 14q58 0 99 -34.5t53 -89.5q-90 -35 -178.5 -68.5t-177.5 -68.5q12 -51 53 -82.5t99 -31.5q36 0 69.5 13t61.5 36q2 -3 3.5 -5.5t3.5 -5.5q-30 -24 -65.5 -38t-74.5 -14q-41 0 -74 15t-55 41q-24 27 -34 62q-7 22 -6 47 q0 14 2 29zM75 135q87 33 172 65.5t171 65.5q-14 46 -50.5 74.5t-86.5 28.5q-40 0 -75 -13t-62 -36.5t-45 -57t-23 -74.5q-2 -15 -2 -30q0 -11 1 -23z" />
<glyph unicode="f" horiz-adv-x="272" d="M72 358l2 14h65l20 146q8 55 28.5 98t50 72t65.5 44.5t74 17.5l-2 -14q-34 0 -67 -15t-60.5 -43t-47 -67.5t-26.5 -88.5l-21 -150h130l-2 -14h-130l-50 -358h-14l50 358h-65z" />
<glyph unicode="g" horiz-adv-x="518" d="M75 188q6 44 26 80t50 61.5t67 39.5t78 14q31 0 57.5 -9t48 -25.5t36.5 -39t22 -49.5q4 29 9.5 57.5t10.5 57.5h10l-55 -393q-8 -56 -28.5 -98.5t-50 -71.5t-65.5 -45t-74 -17q-20 1 -40.5 4t-39.5 10t-35.5 18t-26.5 28q3 2 6.5 3.5t7.5 3.5q20 -30 57 -41.5t73 -11.5 q34 0 67.5 15t61 43t46.5 67.5t26 88.5l11 76q2 16 5 31.5t5 31.5q-29 -54 -82.5 -88.5t-116.5 -34.5q-41 0 -74 15t-55.5 41.5t-32.5 61.5q-7 22 -7 47q0 14 2 29zM89 188q-2 -13 -2 -26q0 -23 7 -44q9 -33 30 -57.5t51.5 -38.5t68.5 -14q37 0 72 14t63 38.5t47 57t24 70.5 q2 13 2 25q0 23 -6 45q-10 33 -31 58t-52.5 39t-68.5 14q-38 0 -72.5 -14t-62.5 -39t-46.5 -58t-23.5 -70z" />
<glyph unicode="h" horiz-adv-x="483" d="M117 0l105 750h14l-60 -428l-10 -45q27 47 75 76t105 29q54 0 80 -31q22 -25 21 -63q0 -9 -1 -18l-37 -270h-14l38 277q1 6 1 11q0 30 -18 52q-21 26 -65 28q-34 0 -66 -11t-58 -30.5t-43.5 -47t-22.5 -59.5l-30 -220h-14z" />
<glyph unicode="i" horiz-adv-x="179" d="M86 0l52 375h14l-52 -375h-14zM143 500q1 8 8 14t15 6t13 -6q4 -5 4 -11q-1 -9 -9 -17q-6 -6 -14 -6t-14 6q-4 4 -4 10q0 2 1 4z" />
<glyph unicode="j" horiz-adv-x="225" d="M31 -171q29 28 49.5 68.5t28.5 91.5l54 386h14l-53 -382q-8 -57 -29.5 -100.5t-52.5 -72.5q-3 3 -11 9zM168 500q1 8 8 14t15 6t13 -6q4 -5 4 -11q0 -9 -8 -17q-7 -6 -15 -6t-13 6q-5 4 -5 10q0 2 1 4z" />
<glyph unicode="k" horiz-adv-x="449" d="M90 0l105 750h14l-81 -574q65 54 126 104t126 104q2 -2 4 -5t4 -5q-44 -36 -83 -69.5t-82 -69.5q35 -59 69.5 -117.5t69.5 -117.5h-18l-135 225q-21 -17 -41.5 -35t-42.5 -35l-21 -155h-14z" />
<glyph unicode="l" horiz-adv-x="183" d="M86 0l105 750h14l-105 -750h-14z" />
<glyph unicode="m" horiz-adv-x="796" d="M117 0l52 375h14l-7 -53q-2 -11 -4.5 -22.5t-5.5 -22.5q27 47 75 76t105 29q49 0 75.5 -27.5t25.5 -72.5q27 45 74.5 72.5t102.5 27.5q54 0 80 -31q22 -25 21 -63q0 -9 -1 -18l-37 -270h-14l38 277q1 6 1 11q0 30 -18 52q-21 26 -65 28q-33 0 -64.5 -10.5t-57 -29.5 t-43.5 -45t-24 -57l-31 -226h-14l38 277q1 6 1 11q0 30 -18 52q-21 26 -65 28q-34 0 -66 -11t-58 -30.5t-43.5 -47t-22.5 -59.5l-30 -220h-14z" />
<glyph unicode="n" horiz-adv-x="495" d="M117 0l52 375h14l-7 -53q-2 -11 -4.5 -22.5t-5.5 -22.5q27 47 75 76t105 29q54 0 80 -31q22 -25 21 -63q0 -9 -1 -18l-37 -270h-14l38 277q1 6 1 11q0 30 -18 52q-21 26 -65 28q-34 0 -66 -11t-58 -30.5t-43.5 -47t-22.5 -59.5l-30 -220h-14z" />
<glyph unicode="o" horiz-adv-x="468" d="M62 188q6 44 25 80t48.5 62t67 40t80.5 14q40 0 74 -15.5t57 -42.5q24 -26 34 -62q7 -23 6 -47q0 -14 -2 -29q-6 -46 -26 -82t-50 -61t-67.5 -38t-79.5 -13q-41 0 -74 15t-55 41q-24 27 -34 62q-7 22 -6 47q0 14 2 29zM76 188q-2 -13 -2 -26q0 -24 6 -44q10 -32 31 -57 t51.5 -39t68.5 -14q37 0 72 13t63 36.5t47 56.5t24 74q2 13 2 25q-1 23 -7 45q-10 33 -30.5 58t-52 39t-68.5 14q-40 0 -75 -13t-62 -36.5t-45 -57t-23 -74.5z" />
<glyph unicode="p" horiz-adv-x="525" d="M31 -250l88 625h14q-4 -29 -8.5 -59t-8.5 -59q29 55 82.5 89.5t116.5 34.5q40 0 73.5 -15t56 -41.5t33.5 -62.5q6 -22 6 -47q0 -13 -2 -28q-6 -44 -26 -80t-50 -61.5t-68 -39.5t-78 -14q-63 0 -106 34.5t-57 88.5q-2 -14 -3.5 -27t-3.5 -27l-44 -311h-15zM107 187 q-2 -13 -2 -26q0 -23 7 -45q9 -32 30 -57t51.5 -39t68.5 -14q37 0 72 14t63 39t47 57.5t24 70.5q2 13 2 25q0 23 -6 45q-10 33 -31 57.5t-52 38.5t-68 14q-38 0 -72.5 -14t-62.5 -38.5t-47 -57.5t-24 -70z" />
<glyph unicode="q" horiz-adv-x="512" d="M79 187q6 44 26 79.5t50 61t67 39.5t78 14q63 0 107 -34.5t58 -89.5q4 29 7.5 59t7.5 59h14l-88 -625h-15l44 311l9 54q-29 -57 -82.5 -90t-116.5 -33q-41 0 -74 15.5t-55.5 41.5t-32.5 61q-6 23 -6 47q0 15 2 30zM93 187q-2 -14 -2 -26q0 -24 6 -45q9 -32 30 -57 t51.5 -39t68.5 -14q37 0 72.5 14t63.5 39t47 57.5t24 70.5q2 13 2 25q0 23 -6 45q-10 33 -31 57.5t-52.5 38.5t-68.5 14q-38 0 -72.5 -14t-62.5 -38.5t-46.5 -57.5t-23.5 -70z" />
<glyph unicode="r" horiz-adv-x="331" d="M117 0l52 375h14l-7 -53q-2 -11 -4.5 -22.5t-5.5 -22.5q28 48 76 75.5t105 29.5l-2 -14q-33 -1 -64 -12.5t-56 -31t-42.5 -46.5t-21.5 -58l-30 -220h-14z" />
<glyph unicode="s" horiz-adv-x="399" d="M90 39l12 9q5 -9 16.5 -17t26 -13.5t29.5 -8.5t28 -3q15 0 33 6t34.5 17.5t28.5 28.5t15 40q1 8 1 15q0 21 -9 33q-12 17 -33 26.5t-46 16.5t-46 17q-22 9 -34 26q-9 13 -9 34q0 7 1 14q3 24 14.5 42t27.5 31t35 19.5t38 6.5q21 0 48 -9.5t45 -33.5q-3 -2 -6 -5t-6 -5 q-14 20 -39 29.5t-46 9.5q-13 0 -28 -4t-29 -13.5t-25 -25t-14 -37.5q-1 -8 -1 -15q0 -18 8 -30q12 -16 33.5 -25t46.5 -15.5t46 -17.5q22 -12 34 -30q9 -14 9 -36q0 -7 -1 -15q-3 -19 -12.5 -38.5t-26.5 -35t-40 -25.5t-53 -10q-26 0 -57.5 10.5t-48.5 36.5z" />
<glyph unicode="t" horiz-adv-x="278" d="M95 353l2 14h89l35 252h14l-35 -252h127l-2 -14h-127l-49 -353h-14l49 353h-89z" />
<glyph unicode="u" horiz-adv-x="529" d="M131 105l38 270h14l-39 -277q0 -4 -1 -9q0 -29 19 -53q21 -26 64 -29q34 0 66 11t58 30.5t43.5 47t22.5 59.5l31 220h14l-52 -375h-14l7 53l9 45q-27 -48 -75 -76.5t-104 -28.5q-54 0 -80 31q-22 26 -22 66q0 7 1 15z" />
<glyph unicode="v" horiz-adv-x="500" d="M106 375h15q33 -91 66 -183l66 -184q59 92 117 183.5t117 183.5h15q-63 -100 -126.5 -199t-127.5 -199q-35 100 -70.5 199t-71.5 199z" />
<glyph unicode="w" horiz-adv-x="772" d="M109 375h15q32 -92 65.5 -184t66.5 -183q42 65 82 129t82 129q-10 27 -19.5 54.5t-19.5 54.5h15q32 -92 65.5 -184t66.5 -183q59 92 117 183.5t117 183.5h15q-63 -100 -126.5 -199t-127.5 -199q-24 69 -48.5 137t-48.5 137q-44 -69 -87.5 -137t-87.5 -137 q-35 100 -70.5 199t-71.5 199z" />
<glyph unicode="x" horiz-adv-x="385" d="M46 0q40 47 79.5 93.5t80.5 93.5q-28 48 -56 94t-56 94h18q26 -45 52 -88.5t52 -88.5q38 45 75.5 88t75.5 88h17q-41 -48 -81 -94t-80 -94q28 -47 55 -93t56 -93h-16q-26 44 -52.5 87.5t-52.5 87.5q-38 -44 -74.5 -87.5t-74.5 -87.5h-18z" />
<glyph unicode="y" horiz-adv-x="486" d="M76 -250q40 62 79 123t79 123q-34 95 -68 189.5t-68 189.5h18q32 -91 64.5 -180.5t64.5 -180.5q58 91 115.5 180.5t115.5 180.5h18q-100 -157 -199 -312.5t-200 -312.5h-19z" />
<glyph unicode="z" horiz-adv-x="451" d="M42 0l1 14q97 88 187 173.5t186 173.5h-241q-31 0 -45 8q-10 6 -9 23q0 6 1 14v4h16l-2 -12q-1 -9 4.5 -16t22.5 -7h273l-2 -14q-96 -88 -186 -173.5t-187 -173.5h341l-1 -14h-359z" />
<glyph unicode="{" horiz-adv-x="272" d="M28 287l3 24q25 1 42.5 14.5t29 33.5t17.5 43.5t9 43.5l26 182q6 45 17 69.5t24.5 35t29 12t31.5 1.5h37l-2 -14h-57q-31 0 -45 -26t-22 -86l-21 -150q-7 -47 -16.5 -77t-21.5 -48.5t-25 -28.5t-27 -17q12 -8 22.5 -18t17 -29t7.5 -48.5t-5 -75.5l-22 -150q-8 -60 -1 -86 t38 -26h57l-2 -14h-37q-20 0 -35.5 2t-25 16t-11 45.5t6.5 90.5l21 146q3 20 3 43.5t-6 43.5t-19.5 33.5t-37.5 14.5z" />
<glyph unicode="|" horiz-adv-x="219" d="M33 -232l131 932h14l-131 -932h-14z" />
<glyph unicode="}" horiz-adv-x="320" d="M25 -148l2 14h57q31 0 45 26t22 86l27 187q4 34 14.5 57t22.5 38.5t25 24.5t23 14q-12 7 -23 17t-17.5 28.5t-7.5 48.5t6 77l21 150q8 60 1 86t-38 26h-57l2 14h37q16 0 31.5 -1.5t26 -12t14.5 -34.5t-2 -70l-21 -146q-2 -17 -5.5 -45.5t-0.5 -56t16.5 -48t44.5 -21.5 l-3 -24q-32 -2 -51 -22.5t-30 -48t-15.5 -55.5t-6.5 -45l-21 -146q-6 -46 -17 -70.5t-24.5 -35t-29 -11.5t-31.5 -1h-37z" />
<glyph unicode="~" horiz-adv-x="489" d="M128 474q8 37 35.5 52t55.5 15q20 0 34 -10.5t28 -27.5q14 -18 26 -24t26 -6q8 0 19 2.5t21.5 8.5t19.5 16.5t13 27.5q3 -1 6.5 -1t6.5 -1q-8 -37 -35.5 -52t-55.5 -15q-20 0 -34 10.5t-28 27.5q-14 18 -26 24t-26 6q-8 0 -19 -2.5t-21.5 -8.5t-19.5 -16.5t-13 -27.5 q-3 1 -6.5 1t-6.5 1z" />
<glyph unicode="&#xa0;" />
<glyph unicode="&#xa1;" horiz-adv-x="200" d="M41 -210l82 584h14l-82 -584h-14zM127 484q1 8 8 14t14 6q8 0 13 -6t4 -14q-1 -9 -8 -14.5t-15 -5.5q-7 0 -12 5.5t-4 14.5z" />
<glyph unicode="&#xa2;" horiz-adv-x="385" d="M36 188q5 39 23.5 73t46.5 60t63 42t73 19l8 56h14l-8 -55q35 0 65.5 -11.5t52.5 -31.5q-2 -3 -5.5 -5.5t-5.5 -5.5q-21 19 -49 29.5t-60 10.5l-50 -361q32 0 62.5 10.5t56.5 28.5q2 -2 4.5 -5t4.5 -5q-29 -20 -62 -31.5t-68 -11.5l-9 -62h-14l9 63q-38 3 -68.5 19 t-51 41.5t-29.5 59.5t-3 73zM50 188q-5 -36 3.5 -67.5t27 -55.5t46.5 -39t63 -18l50 360q-35 -3 -67.5 -18t-58 -39t-42.5 -55.5t-22 -67.5z" />
<glyph unicode="&#xa3;" horiz-adv-x="574" d="M-18 0l2 14h43q18 0 29.5 7.5t19 24.5t13 46t11.5 72l21 147h-65l2 14h65l24 175q10 70 58 102t120 32q33 0 57 -6.5t41 -18t28 -28t18 -36.5q-8 -4 -11 -6q-9 24 -20.5 39.5t-27 24.5t-36.5 13t-51 4q-42 0 -71.5 -9.5t-48.5 -25.5t-28.5 -37t-12.5 -44l-25 -179h129 l-2 -14h-129l-23 -162l-6 -40q-4 -29 -12 -55t-24 -40h206h41q60 0 87 10.5t32 41.5l8 57h14l-5 -37q-2 -16 -5.5 -31.5t-16 -27.5t-37.5 -19.5t-71 -7.5h-341z" />
<glyph unicode="&#xa4;" horiz-adv-x="500" d="M90 229l47 41q-14 18 -20 41.5t-2 49.5q4 25 15.5 47t28.5 40q-8 10 -16 19t-16 19l11 10l33 -38q20 17 44.5 26.5t50.5 9.5t48 -10t36 -27l44 38l8 -10l-43 -38q13 -17 18.5 -39t1.5 -47q-4 -26 -16.5 -49t-31.5 -41l36 -41l-12 -10q-9 11 -17.5 20.5t-17.5 20.5 q-41 -33 -92 -33q-50 0 -82 32l-47 -41zM129 361q-3 -25 3 -46.5t19.5 -37.5t34 -25.5t44.5 -9.5t47 9.5t41.5 25.5t31 37.5t15.5 46.5t-3 46.5t-19.5 37.5t-34 25.5t-44.5 9.5t-47 -9.5t-41.5 -25.5t-31 -37.5t-15.5 -46.5z" />
<glyph unicode="&#xa5;" horiz-adv-x="638" d="M97 700h17q46 -101 92 -201t92 -201q2 -7 4.5 -13t4.5 -13h1q4 7 7 13t7 13l297 402h17q-79 -106 -157 -211.5t-157 -211.5h150l-2 -14h-158l-21 -149h158l-2 -14h-158l-14 -100h-14l14 100h-161l2 14h161l21 149h-161l2 14h152q-49 106 -97 211.5t-97 211.5z" />
<glyph unicode="&#xa6;" horiz-adv-x="215" d="M36 -233l49 350h14l-49 -350h-14zM118 350l49 350h14l-49 -350h-14z" />
<glyph unicode="&#xa7;" horiz-adv-x="500" d="M144 346.5q0 22.5 8 43.5t24 39t37 30q29 15 59.5 13.5t53.5 -16.5q-13 27 -24.5 54.5t-23.5 55.5q-20 49 -19.5 74t12.5 41t36.5 28t42.5 21q1 -4 5 -12q-14 -8 -27 -14.5t-27 -14.5q-29 -15 -29.5 -43t22.5 -80q17 -38 33 -75.5t33 -75.5q9 -20 9 -42t-8.5 -43 t-24.5 -38.5t-37 -29.5q-29 -16 -59.5 -15t-53.5 17q12 -28 24.5 -55t24.5 -55q20 -49 19 -74t-12 -41q-12 -17 -36.5 -29t-42.5 -20q-1 4 -5 12q14 8 27 14.5t27 14.5q29 15 29.5 43t-22.5 80l-66 150q-9 20 -9 42.5zM159 357q-2 -25 7 -46q11 -27 36 -39t54 -10 q21 2 39 12.5t31.5 25.5t21 34t7.5 37q0 22 -8.5 39t-22 28.5t-31 16.5t-36.5 4q-29 -3 -50.5 -18.5t-33.5 -37t-14 -46.5z" />
<glyph unicode="&#xa8;" horiz-adv-x="370" d="M82 500q1 8 7.5 14t14.5 6t13.5 -6t4.5 -14q-2 -8 -8.5 -14t-14.5 -6t-13.5 6t-3.5 14zM247 500q1 8 7.5 14t14.5 6t13.5 -6t4.5 -14q-2 -8 -8.5 -14t-14.5 -6t-13.5 6t-3.5 14z" />
<glyph unicode="&#xa9;" horiz-adv-x="793" d="M144 372q8 55 34 102t65 81t88.5 53t103.5 19t98 -19t73.5 -53t42.5 -81t5 -102t-34 -101.5t-65 -80.5t-88 -53t-103 -19t-98 19t-73.5 53t-43 80.5t-5.5 101.5zM158 371q-7 -51 6 -94.5t41.5 -76t69.5 -50.5t90 -18q50 0 96.5 18t84 50.5t62.5 76t32 94.5 q7 52 -5.5 96.5t-41 77t-70 50.5t-91.5 18q-49 0 -95 -18t-83.5 -50.5t-63 -77t-32.5 -96.5zM244 375q4 34 21 63.5t42 51.5t56.5 34.5t64.5 12.5q44 0 79 -22q-2 -4 -4 -6q-33 22 -76 22q-32 0 -62 -12.5t-54 -34t-40.5 -50t-20.5 -60.5q-5 -32 3.5 -60t26.5 -49t44 -33 t58 -12q22 0 42.5 5.5t40.5 15.5l3 -5q-20 -11 -41.5 -17t-44.5 -6q-33 0 -61 13t-46.5 35t-27 51.5t-3.5 62.5z" />
<glyph unicode="&#xaa;" horiz-adv-x="585" d="M96 357q4 31 19 57t36.5 44.5t48.5 28.5t56 10q22 0 41 -6.5t34.5 -18.5t26.5 -28t16 -35q3 20 7 41t7 41h7l-37 -270h-10l5 39q1 11 3.5 22.5t3.5 22.5q-21 -39 -59.5 -63.5t-83.5 -24.5q-30 0 -54 10.5t-40 30t-23.5 44.5t-3.5 55zM106 357q-3 -28 3.5 -51.5t22 -41 t37.5 -27.5t49 -10t52 10t45.5 27.5t34 41t17.5 51.5q3 26 -3.5 50t-22 42t-38 28t-49.5 10t-52 -10t-45.5 -28t-33.5 -42t-17 -50z" />
<glyph unicode="&#xab;" horiz-adv-x="601" d="M117 239q48 41 96.5 80.5t96.5 80.5l-2 -17q-41 -36 -81.5 -72t-80.5 -72q30 -37 60.5 -73t60.5 -73l-2 -16zM288 239q48 41 96.5 80.5t96.5 80.5l-2 -17q-41 -36 -81.5 -72t-80.5 -72q30 -37 60.5 -73t60.5 -73l-2 -16z" />
<glyph unicode="&#xac;" horiz-adv-x="559" d="M104 227l2 14h360l-13 -93h-14l11 79h-346z" />
<glyph unicode="&#xad;" d="M52 184l1 14h184l-1 -14h-184z" />
<glyph unicode="&#xae;" horiz-adv-x="801" d="M144 372q8 55 34 102t65 81t88.5 53t103.5 19t98 -19t73.5 -53t42.5 -81t5 -102t-34 -101.5t-65 -80.5t-88 -53t-103 -19t-98 19t-73.5 53t-43 80.5t-5.5 101.5zM158 371q-7 -51 6 -94.5t41.5 -76t69.5 -50.5t90 -18q50 0 96.5 18t84 50.5t62.5 76t32 94.5 q7 52 -5.5 96.5t-41 77t-70 50.5t-91.5 18q-49 0 -95 -18t-83.5 -50.5t-63 -77t-32.5 -96.5zM310 210l47 331h66q13 0 29 -4.5t29 -15t20 -26.5t4 -38q-5 -33 -26 -54.5t-57 -28.5q14 -42 27 -82.5t27 -81.5h-7q-14 41 -27.5 81t-26.5 82q-6 -1 -11.5 -1.5t-11.5 -0.5h-53 l-22 -161h-7zM340 378h55q27 0 46 7.5t31.5 19t18.5 25.5t8 27q4 31 -19 54t-63 23h-55z" />
<glyph unicode="&#xaf;" horiz-adv-x="399" d="M84 492l1 14h230l-1 -14h-230z" />
<glyph unicode="&#xb0;" horiz-adv-x="282" d="M60 559q5 33 30 55t58 22q32 0 51 -22t14 -55q-5 -32 -29.5 -53.5t-56.5 -21.5q-33 0 -52.5 21.5t-14.5 53.5zM75 560q-4 -26 12 -44t42 -18t46.5 18t24.5 44q3 26 -12.5 44t-41.5 18t-47 -18t-24 -44z" />
<glyph unicode="&#xb1;" horiz-adv-x="524" d="M55 136l2 14h360l-2 -14h-360zM90 385l2 14h173l24 172h14l-24 -172h173l-2 -14h-173l-25 -174h-14l25 174h-173z" />
<glyph unicode="&#xb2;" horiz-adv-x="398" d="M41 185q36 31 70.5 60.5t61.5 58t45 55t21 49.5q4 28 -1 46t-15.5 29t-24 15.5t-25.5 4.5q-25 0 -42 -8.5t-28 -21.5t-16.5 -28.5t-7.5 -27.5q-5 -35 12 -57q-1 -1 -2.5 -2t-2.5 -2q-8 12 -12 26t-2 35q3 19 11.5 36t21 30t30 20t39.5 7q19 0 34 -7t24.5 -20t13.5 -30.5 t1 -38.5q-4 -28 -23 -56.5t-45.5 -56.5t-57.5 -55t-61 -54h178l-1 -7h-196z" />
<glyph unicode="&#xb3;" horiz-adv-x="419" d="M51 216q1 1 3 2.5t3 3.5q10 -14 26 -23t36 -9q19 0 37.5 7.5t33 20t24.5 29.5t13 36t-2.5 36t-16.5 29.5t-27.5 20t-35.5 7.5q-8 0 -16 -3t-15 -8q31 34 61.5 67.5t61.5 67.5h-141l1 7h156q-28 -31 -57 -62l-58 -62q23 1 42 -6t32 -20.5t19 -32.5t3 -41q-3 -21 -13.5 -39 t-26 -31.5t-35 -21.5t-39.5 -8q-22 0 -39.5 9t-29.5 24z" />
<glyph unicode="&#xb4;" horiz-adv-x="218" d="M90 479q27 33 54.5 66.5t54.5 66.5h16q-27 -33 -54.5 -66.5t-54.5 -66.5h-16z" />
<glyph unicode="&#xb5;" horiz-adv-x="545" d="M76 -201l81 576h14l-39 -277q-4 -36 17.5 -62.5t64.5 -28.5q34 0 66 11t58 30.5t43.5 47t22.5 59.5l31 220h14l-53 -375h-14l8 53l9 45q-27 -48 -75.5 -76.5t-104.5 -28.5q-36 0 -60 15t-34 41l-35 -250h-14z" />
<glyph unicode="&#xb6;" horiz-adv-x="489" d="M67 586q5 34 22 64t42 52t56.5 35t65.5 13h177l-105 -750h-14l103 736h-149l-103 -736h-14l59 423q-34 0 -62 12.5t-47 34.5t-27.5 52t-3.5 64z" />
<glyph unicode="&#xb7;" horiz-adv-x="163" d="M66 280q1 8 7.5 14t14.5 6t13.5 -6t4.5 -14q-2 -8 -8.5 -14t-14.5 -6t-13.5 6t-3.5 14z" />
<glyph unicode="&#xb8;" horiz-adv-x="452" d="M117 -165q4 1 7.5 2t8.5 2q3 -21 18.5 -34.5t40.5 -13.5q31 0 53 20.5t27 51.5q4 28 -7 43t-25 25.5t-25.5 21.5t-8.5 31l2 16h14l-1 -6q-2 -13 1 -22t8 -15t12 -10t13 -8q20 -15 27 -33.5t5 -32.5q-7 -51 -35.5 -73.5t-61.5 -22.5q-26 0 -47 14.5t-26 43.5z" />
<glyph unicode="&#xb9;" horiz-adv-x="249" d="M60 477l1 6h58l-41 -299h-7l41 293h-52z" />
<glyph unicode="&#xba;" horiz-adv-x="469" d="M92 357q4 31 17.5 57t35 45t48.5 29t58 10q29 0 53.5 -11t41 -30.5t24 -45.5t3.5 -54q-4 -34 -18.5 -60t-36 -44t-49 -27t-57.5 -9q-29 0 -53 10.5t-40 30t-24 44.5t-3 55zM102 357q-4 -28 3 -51.5t22 -41t37 -27.5t50 -10q26 0 51.5 9.5t45.5 26t34 40.5t17 54 q4 26 -3 50t-22 42t-38 28t-49 10q-29 0 -54.5 -9.5t-45 -26.5t-32.5 -41t-16 -53z" />
<glyph unicode="&#xbb;" horiz-adv-x="601" d="M94 77l2 16q41 37 81.5 73t81.5 73q-31 36 -61.5 72t-60.5 72l2 17q38 -41 74.5 -80.5t74.5 -80.5zM265 77l2 16q41 37 81.5 73t81.5 73q-31 36 -61.5 72t-60.5 72l2 17q38 -41 74.5 -80.5t74.5 -80.5z" />
<glyph unicode="&#xbc;" horiz-adv-x="968" d="M136 617l1 10h90l-65 -461h-9l63 451h-80zM242 -19q97 190 192 377t192 377h14q-97 -190 -192 -377t-192 -377h-14zM364 136q81 89 161 177t161 177l-49 -343h72l-1 -11h-72l-19 -136h-11l19 136h-261zM388 147h239l44 312z" />
<glyph unicode="&#xbd;" horiz-adv-x="1069" d="M124 617l1 10h90l-64 -461h-10l63 451h-80zM242 -19q97 190 192 377t192 377h14q-97 -190 -192 -377t-192 -377h-14zM395 0q52 44 100.5 86.5t87.5 83.5t64.5 78.5t30.5 70.5q6 40 -1.5 66t-22.5 41.5t-34 22t-37 6.5q-35 0 -59 -12.5t-39.5 -31t-24 -40t-10.5 -40.5 q-7 -49 17 -80q-2 -2 -4 -3t-3 -3q-12 17 -18 37t-2 49t15.5 53t30 42t43.5 28.5t56 10.5q27 0 48.5 -10.5t35 -28.5t19 -43t1.5 -55q-6 -41 -32.5 -81.5t-64.5 -80.5t-82.5 -79t-87.5 -77h255l-2 -10h-280z" />
<glyph unicode="&#xbe;" horiz-adv-x="1276" d="M106 204l4.5 4.5t4.5 5.5q15 -23 40 -36.5t57 -13.5q31 0 59.5 11.5t52 31.5t38.5 46.5t20 56.5t-3.5 56.5t-26 46t-43.5 31t-56 11.5q-12 0 -24.5 -4.5t-24.5 -12.5q49 53 97 106l96 106h-221l2 11h246q-46 -49 -91 -97.5t-90 -97.5q35 2 64.5 -9.5t50 -32t30 -50.5 t5.5 -64q-5 -33 -21.5 -61.5t-41 -49.5t-54.5 -33.5t-63 -12.5q-34 0 -61.5 14t-45.5 37zM407 -19q97 190 192 377.5t192 377.5h14q-97 -190 -192 -377.5t-192 -377.5h-14zM513 136q81 89 161 177t162 177l-49 -343h72l-1 -11h-72l-20 -136h-10l19 136h-262zM537 147h240 l44 312z" />
<glyph unicode="&#xbf;" horiz-adv-x="410" d="M15 2q8 54 40 94.5t82 72.5q21 14 39 23.5t32.5 21.5t24 31t14.5 52l11 78h14l-14 -97q-4 -31 -18.5 -49.5t-35 -33t-46 -29t-52.5 -35.5q-35 -27 -53.5 -59.5t-23.5 -69.5q-5 -39 4.5 -72t30.5 -57.5t52.5 -38t69.5 -13.5q30 0 58.5 9t53.5 25t45 38.5t32 49.5 q3 -1 6.5 -1.5t6.5 -1.5q-14 -29 -35.5 -53.5t-48 -42t-57.5 -27.5t-63 -10q-41 0 -75 15.5t-56.5 42t-33 62t-4.5 75.5zM261 494q2 8 8.5 14t14.5 6q7 0 12.5 -6t3.5 -14q-1 -9 -7.5 -14.5t-13.5 -5.5q-8 0 -13.5 5.5t-4.5 14.5z" />
<glyph unicode="&#xc0;" horiz-adv-x="740" d="M8 0q103 184 206.5 366t206.5 366l207 -732h-15q-23 79 -45 158t-45 158h-322q-45 -79 -89 -158t-89 -158h-15zM209 330h310q-24 87 -48 172.5t-49 172.5q-2 6 -3 12.5t-3 12.5q-3 -6 -6 -12.5t-6 -12.5q-46 -88 -95.5 -173t-99.5 -172zM345 883h15q18 -33 35.5 -66.5 t35.5 -66.5h-16q-18 33 -35.5 66.5t-34.5 66.5z" />
<glyph unicode="&#xc1;" horiz-adv-x="740" d="M8 0q103 184 206.5 366t206.5 366l207 -732h-15q-23 79 -45 158t-45 158h-322q-45 -79 -89 -158t-89 -158h-15zM209 330h310q-24 87 -48 172.5t-49 172.5q-2 6 -3 12.5t-3 12.5q-3 -6 -6 -12.5t-6 -12.5q-46 -88 -95.5 -173t-99.5 -172zM414 750q27 33 54.5 66.5 t54.5 66.5h16q-27 -33 -54.5 -66.5t-54.5 -66.5h-16z" />
<glyph unicode="&#xc2;" horiz-adv-x="740" d="M8 0q103 184 206.5 366t206.5 366l207 -732h-15q-23 79 -45 158t-45 158h-322q-45 -79 -89 -158t-89 -158h-15zM209 330h310q-24 87 -48 172.5t-49 172.5q-2 6 -3 12.5t-3 12.5q-3 -6 -6 -12.5t-6 -12.5q-46 -88 -95.5 -173t-99.5 -172zM303 750q36 45 72.5 90.5 t72.5 90.5q24 -45 47.5 -90.5t47.5 -90.5h-16q-21 38 -41.5 77t-41.5 77q-32 -38 -62.5 -77t-62.5 -77h-16z" />
<glyph unicode="&#xc3;" horiz-adv-x="740" d="M8 0q103 184 206.5 366t206.5 366l207 -732h-15q-23 79 -45 158t-45 158h-322q-45 -79 -89 -158t-89 -158h-15zM209 330h310q-24 87 -48 172.5t-49 172.5q-2 6 -3 12.5t-3 12.5q-3 -6 -6 -12.5t-6 -12.5q-46 -88 -95.5 -173t-99.5 -172zM284 762q8 37 35.5 52t55.5 15 q20 0 34 -10.5t28 -27.5q14 -18 26 -24t26 -6q8 0 19 2.5t21.5 8.5t19.5 16.5t13 27.5q3 -1 6.5 -1t6.5 -1q-8 -37 -35.5 -52t-55.5 -15q-20 0 -34 10.5t-28 27.5q-14 18 -26 24t-26 6q-8 0 -19 -2.5t-21.5 -8.5t-19.5 -16.5t-13 -27.5q-3 1 -6.5 1t-6.5 1z" />
<glyph unicode="&#xc4;" horiz-adv-x="740" d="M8 0q103 184 206.5 366t206.5 366l207 -732h-15q-23 79 -45 158t-45 158h-322q-45 -79 -89 -158t-89 -158h-15zM209 330h310q-24 87 -48 172.5t-49 172.5q-2 6 -3 12.5t-3 12.5q-3 -6 -6 -12.5t-6 -12.5q-46 -88 -95.5 -173t-99.5 -172zM327 790q1 8 7.5 14t14.5 6 t13.5 -6t4.5 -14q-2 -8 -8.5 -14t-14.5 -6t-13.5 6t-3.5 14zM492 790q1 8 7.5 14t14.5 6t13.5 -6t4.5 -14q-2 -8 -8.5 -14t-14.5 -6t-13.5 6t-3.5 14z" />
<glyph unicode="&#xc5;" horiz-adv-x="740" d="M8 0q103 184 206.5 366t206.5 366l207 -732h-15q-23 79 -45 158t-45 158h-322q-45 -79 -89 -158t-89 -158h-15zM209 330h310q-24 87 -48 172.5t-49 172.5q-2 6 -3 12.5t-3 12.5q-3 -6 -6 -12.5t-6 -12.5q-46 -88 -95.5 -173t-99.5 -172zM377 834q4 27 24 45t47 18t43 -18 t12 -45q-5 -27 -25 -45t-47 -18t-43 18t-11 45zM391 834q-3 -20 9.5 -34.5t32.5 -14.5t36.5 14.5t19.5 34.5q2 20 -10.5 34.5t-32.5 14.5t-36.5 -14.5t-18.5 -34.5z" />
<glyph unicode="&#xc6;" horiz-adv-x="787" d="M10 0q100 176 197.5 350t197.5 350h324l-2 -14h-310l-46 -326h271l-2 -14h-271l-47 -332h324l-2 -14h-338l45 316h-147q-45 -79 -89.5 -158t-89.5 -158h-15zM212 330h141l47 336q-45 -86 -93 -168.5t-95 -167.5z" />
<glyph unicode="&#xc7;" horiz-adv-x="670" d="M76 349q10 74 47.5 139.5t93 114t124.5 77t143 28.5q51 0 94.5 -13t81.5 -37q-3 -3 -5 -6t-5 -6q-71 48 -168 48q-71 0 -137.5 -27.5t-119.5 -74.5t-89 -110t-46 -134t8 -133t58 -108.5t98 -73.5t128 -27q48 0 94.5 12.5t88.5 35.5l7 -12q-43 -23 -90.5 -36.5 t-98.5 -13.5q-2 -25 10 -35t24 -18q20 -15 27.5 -33.5t5.5 -32.5q-8 -51 -36.5 -73.5t-61.5 -22.5q-26 0 -46.5 14.5t-26.5 43.5l8 2l8 2q3 -21 18.5 -34.5t40.5 -13.5q31 0 53 20.5t27 51.5q4 28 -6.5 43t-25 25.5t-26 21.5t-8.5 31l1 9q-71 3 -129.5 31.5t-98.5 76.5 t-57.5 112t-7.5 136z" />
<glyph unicode="&#xc8;" horiz-adv-x="601" d="M45 0l99 700h405l-2 -14h-391l-46 -326h352l-2 -14h-352l-47 -332h405l-2 -14h-419zM262 883h15q18 -33 35.5 -66.5t35.5 -66.5h-16q-18 33 -35.5 66.5t-34.5 66.5z" />
<glyph unicode="&#xc9;" horiz-adv-x="601" d="M45 0l99 700h405l-2 -14h-391l-46 -326h352l-2 -14h-352l-47 -332h405l-2 -14h-419zM321 750q27 33 54.5 66.5t54.5 66.5h16q-27 -33 -54.5 -66.5t-54.5 -66.5h-16z" />
<glyph unicode="&#xca;" horiz-adv-x="601" d="M45 0l99 700h405l-2 -14h-391l-46 -326h352l-2 -14h-352l-47 -332h405l-2 -14h-419zM243 750q36 45 72.5 90.5t72.5 90.5q24 -45 47.5 -90.5t47.5 -90.5h-16q-21 38 -41.5 77t-41.5 77q-32 -38 -62.5 -77t-62.5 -77h-16z" />
<glyph unicode="&#xcb;" horiz-adv-x="601" d="M45 0l99 700h405l-2 -14h-391l-46 -326h352l-2 -14h-352l-47 -332h405l-2 -14h-419zM255 790q1 8 7.5 14t14.5 6t13.5 -6t4.5 -14q-2 -8 -8.5 -14t-14.5 -6t-13.5 6t-3.5 14zM420 790q1 8 7.5 14t14.5 6t13.5 -6t4.5 -14q-2 -8 -8.5 -14t-14.5 -6t-13.5 6t-3.5 14z" />
<glyph unicode="&#xcc;" horiz-adv-x="236" d="M57 0l99 700h14l-99 -700h-14zM86 883h15q18 -33 35.5 -66.5t35.5 -66.5h-16q-18 33 -35.5 66.5t-34.5 66.5z" />
<glyph unicode="&#xcd;" horiz-adv-x="236" d="M57 0l99 700h14l-99 -700h-14zM156 750q27 33 54.5 66.5t54.5 66.5h16q-27 -33 -54.5 -66.5t-54.5 -66.5h-16z" />
<glyph unicode="&#xce;" horiz-adv-x="236" d="M51 750q36 45 72.5 90.5t72.5 90.5q24 -45 47.5 -90.5t47.5 -90.5h-16q-21 38 -41.5 77t-41.5 77q-32 -38 -62.5 -77t-62.5 -77h-16zM57 0l99 700h14l-99 -700h-14z" />
<glyph unicode="&#xcf;" horiz-adv-x="236" d="M57 0l99 700h14l-99 -700h-14zM64 790q1 8 7.5 14t14.5 6t13.5 -6t4.5 -14q-2 -8 -8.5 -14t-14.5 -6t-13.5 6t-3.5 14zM229 790q1 8 7.5 14t14.5 6t13.5 -6t4.5 -14q-2 -8 -8.5 -14t-14.5 -6t-13.5 6t-3.5 14z" />
<glyph unicode="&#xd0;" horiz-adv-x="646" d="M21 346l2 14h64l48 340h137q72 0 132.5 -24.5t102 -70t60.5 -110.5t8 -145q-9 -63 -37 -125.5t-80.5 -112.5t-131 -81t-187.5 -31h-103l49 346h-64zM52 14h100q79 0 149 23t124.5 66t90 105.5t46.5 141.5q10 77 -7 139.5t-58 106t-104.5 67t-145.5 23.5h-100l-46 -326 h224l-2 -14h-224z" />
<glyph unicode="&#xd1;" horiz-adv-x="813" d="M50 0l103 732q121 -178 241 -352.5t241 -351.5q4 -7 8 -13t8 -13q0 8 0.5 16t0.5 16l94 666h14l-103 -732q-121 177 -241.5 351t-241.5 351q-3 7 -7 13t-8 13q0 -8 -0.5 -16t-0.5 -16l-94 -664h-14zM333 767q8 37 35.5 52t55.5 15q20 0 34 -10.5t28 -27.5q14 -18 26 -24 t26 -6q8 0 19 2.5t21.5 8.5t19.5 16.5t13 27.5q3 -1 6.5 -1t6.5 -1q-8 -37 -35.5 -52t-55.5 -15q-20 0 -34 10.5t-28 27.5q-14 18 -26 24t-26 6q-8 0 -19 -2.5t-21.5 -8.5t-19.5 -16.5t-13 -27.5q-3 1 -6.5 1t-6.5 1z" />
<glyph unicode="&#xd2;" horiz-adv-x="839" d="M62 349q10 74 47.5 139.5t93 114t124.5 77t143 28.5t135.5 -28.5t103.5 -77t60.5 -114t8.5 -139.5t-47.5 -139t-93 -113.5t-125 -76.5t-143.5 -28t-135 28t-102.5 76.5t-60.5 113.5t-9 139zM76 348q-10 -71 8 -133t58 -108.5t98 -73.5t128 -27q71 0 138 27t121 73.5 t90.5 109t46.5 133.5t-8.5 133.5t-58.5 109.5t-99 74.5t-130 27.5t-137.5 -27.5t-119.5 -74.5t-89 -110t-46 -134zM387 883h15q18 -33 35.5 -66.5t35.5 -66.5h-16q-18 33 -35.5 66.5t-34.5 66.5z" />
<glyph unicode="&#xd3;" horiz-adv-x="840" d="M62 349q10 74 47.5 139.5t93 114t124.5 77t143 28.5t135.5 -28.5t103.5 -77t60.5 -114t8.5 -139.5t-47.5 -139t-93 -113.5t-125 -76.5t-143.5 -28t-135 28t-102.5 76.5t-60.5 113.5t-9 139zM76 348q-10 -71 8 -133t58 -108.5t98 -73.5t128 -27q71 0 138 27t121 73.5 t90.5 109t46.5 133.5t-8.5 133.5t-58.5 109.5t-99 74.5t-130 27.5t-137.5 -27.5t-119.5 -74.5t-89 -110t-46 -134zM473 750q27 33 54.5 66.5t54.5 66.5h16q-27 -33 -54.5 -66.5t-54.5 -66.5h-16z" />
<glyph unicode="&#xd4;" horiz-adv-x="839" d="M62 349q10 74 47.5 139.5t93 114t124.5 77t143 28.5t135.5 -28.5t103.5 -77t60.5 -114t8.5 -139.5t-47.5 -139t-93 -113.5t-125 -76.5t-143.5 -28t-135 28t-102.5 76.5t-60.5 113.5t-9 139zM76 348q-10 -71 8 -133t58 -108.5t98 -73.5t128 -27q71 0 138 27t121 73.5 t90.5 109t46.5 133.5t-8.5 133.5t-58.5 109.5t-99 74.5t-130 27.5t-137.5 -27.5t-119.5 -74.5t-89 -110t-46 -134zM358 750q36 45 72.5 90.5t72.5 90.5q24 -45 47.5 -90.5t47.5 -90.5h-16q-21 38 -41.5 77t-41.5 77q-32 -38 -62.5 -77t-62.5 -77h-16z" />
<glyph unicode="&#xd5;" horiz-adv-x="839" d="M62 349q10 74 47.5 139.5t93 114t124.5 77t143 28.5t135.5 -28.5t103.5 -77t60.5 -114t8.5 -139.5t-47.5 -139t-93 -113.5t-125 -76.5t-143.5 -28t-135 28t-102.5 76.5t-60.5 113.5t-9 139zM76 348q-10 -71 8 -133t58 -108.5t98 -73.5t128 -27q71 0 138 27t121 73.5 t90.5 109t46.5 133.5t-8.5 133.5t-58.5 109.5t-99 74.5t-130 27.5t-137.5 -27.5t-119.5 -74.5t-89 -110t-46 -134zM326 801q8 37 35.5 52t55.5 15q20 0 34 -10.5t28 -27.5q14 -18 26 -24t26 -6q8 0 19 2.5t21.5 8.5t19.5 16.5t13 27.5q3 -1 6.5 -1t6.5 -1q-8 -37 -35.5 -52 t-55.5 -15q-20 0 -34 10.5t-28 27.5q-14 18 -26 24t-26 6q-8 0 -19 -2.5t-21.5 -8.5t-19.5 -16.5t-13 -27.5q-3 1 -6.5 1t-6.5 1z" />
<glyph unicode="&#xd6;" horiz-adv-x="839" d="M62 349q10 74 47.5 139.5t93 114t124.5 77t143 28.5t135.5 -28.5t103.5 -77t60.5 -114t8.5 -139.5t-47.5 -139t-93 -113.5t-125 -76.5t-143.5 -28t-135 28t-102.5 76.5t-60.5 113.5t-9 139zM76 348q-10 -71 8 -133t58 -108.5t98 -73.5t128 -27q71 0 138 27t121 73.5 t90.5 109t46.5 133.5t-8.5 133.5t-58.5 109.5t-99 74.5t-130 27.5t-137.5 -27.5t-119.5 -74.5t-89 -110t-46 -134zM369 790q1 8 7.5 14t14.5 6t13.5 -6t4.5 -14q-2 -8 -8.5 -14t-14.5 -6t-13.5 6t-3.5 14zM534 790q1 8 7.5 14t14.5 6t13.5 -6t4.5 -14q-2 -8 -8.5 -14 t-14.5 -6t-13.5 6t-3.5 14z" />
<glyph unicode="&#xd7;" horiz-adv-x="500" d="M112 10q35 31 70 61.5t70 61.5l-104 121l11 10l104 -121q35 31 70 61t70 61q2 -2 4.5 -5t4.5 -5q-35 -31 -70 -61t-70 -61l105 -123l-11 -10q-26 31 -53 61.5t-53 61.5q-35 -31 -69.5 -61.5t-69.5 -61.5q-2 2 -4.5 5t-4.5 5z" />
<glyph unicode="&#xd8;" horiz-adv-x="840" d="M58 0q21 21 41.5 42.5t41.5 42.5q-48 49 -69.5 117t-10.5 147q10 74 47.5 139.5t93 114t124.5 77t143 28.5q62 0 114.5 -20t93.5 -55q19 19 36.5 37.5t36.5 37.5l4 -4l4 -4q-19 -19 -36.5 -37t-36.5 -37q54 -50 79 -121.5t13 -155.5q-10 -74 -47.5 -139t-93 -113.5 t-125 -76.5t-143.5 -28q-66 0 -121.5 22.5t-97.5 62.5q-21 -21 -41.5 -42.5t-41.5 -42.5l-4 4zM75 348q-11 -76 10 -141t66 -112q129 133 257 263.5t258 263.5q-39 34 -89.5 53t-109.5 19q-71 0 -137.5 -27.5t-119.5 -74.5t-89 -110t-46 -134zM159 87q39 -38 92 -59.5 t116 -21.5q71 0 138 27t121 73.5t90.5 109t46.5 133.5q11 80 -13.5 149t-75.5 117q-130 -133 -258 -264t-257 -264z" />
<glyph unicode="&#xd9;" horiz-adv-x="652" d="M87 226l66 474h14l-66 -471q-8 -54 2 -95.5t34 -70t61 -43t83 -14.5q45 0 86 14.5t73 43t53.5 70t29.5 95.5l66 471h14l-66 -474q-8 -57 -31.5 -101t-58 -73.5t-77.5 -44.5t-91 -15t-87.5 15t-65.5 44.5t-36.5 73.5t-2.5 101zM293 883h15q18 -33 35.5 -66.5t35.5 -66.5 h-16q-18 33 -35.5 66.5t-34.5 66.5z" />
<glyph unicode="&#xda;" horiz-adv-x="652" d="M87 226l66 474h14l-66 -471q-8 -54 2 -95.5t34 -70t61 -43t83 -14.5q45 0 86 14.5t73 43t53.5 70t29.5 95.5l66 471h14l-66 -474q-8 -57 -31.5 -101t-58 -73.5t-77.5 -44.5t-91 -15t-87.5 15t-65.5 44.5t-36.5 73.5t-2.5 101zM367 750q27 33 54.5 66.5t54.5 66.5h16 q-27 -33 -54.5 -66.5t-54.5 -66.5h-16z" />
<glyph unicode="&#xdb;" horiz-adv-x="652" d="M87 226l66 474h14l-66 -471q-8 -54 2 -95.5t34 -70t61 -43t83 -14.5q45 0 86 14.5t73 43t53.5 70t29.5 95.5l66 471h14l-66 -474q-8 -57 -31.5 -101t-58 -73.5t-77.5 -44.5t-91 -15t-87.5 15t-65.5 44.5t-36.5 73.5t-2.5 101zM266 751q36 45 72.5 90.5t72.5 90.5 q24 -45 47.5 -90.5t47.5 -90.5h-16q-21 38 -41.5 77t-41.5 77q-32 -38 -62.5 -77t-62.5 -77h-16z" />
<glyph unicode="&#xdc;" horiz-adv-x="652" d="M87 226l66 474h14l-66 -471q-8 -54 2 -95.5t34 -70t61 -43t83 -14.5q45 0 86 14.5t73 43t53.5 70t29.5 95.5l66 471h14l-66 -474q-8 -57 -31.5 -101t-58 -73.5t-77.5 -44.5t-91 -15t-87.5 15t-65.5 44.5t-36.5 73.5t-2.5 101zM294 790q1 8 7.5 14t14.5 6t13.5 -6t4.5 -14 q-2 -8 -8.5 -14t-14.5 -6t-13.5 6t-3.5 14zM459 790q1 8 7.5 14t14.5 6t13.5 -6t4.5 -14q-2 -8 -8.5 -14t-14.5 -6t-13.5 6t-3.5 14z" />
<glyph unicode="&#xdd;" horiz-adv-x="638" d="M97 700h17q46 -101 92.5 -200.5t91.5 -201.5q2 -7 4.5 -13t4.5 -13h1q4 7 7 13t7 13l297 402h17l-324 -438l-37 -262h-14l37 262zM363 750q27 33 54.5 66.5t54.5 66.5h16q-27 -33 -54.5 -66.5t-54.5 -66.5h-16z" />
<glyph unicode="&#xde;" horiz-adv-x="501" d="M50 0l99 700h14l-23 -165h126q29 0 62.5 -10t60.5 -31t42.5 -55t8.5 -82q-11 -83 -73.5 -132t-165.5 -49h-112l-25 -176h-14zM91 190h115q58 0 98.5 16t66 40.5t38.5 54t17 56.5q5 33 -5.5 62.5t-34 52t-57 36t-75.5 13.5h-116z" />
<glyph unicode="&#xdf;" horiz-adv-x="573" d="M37 370l2 14h65l6 42q7 55 28 98t50 72t65 44.5t74 17.5q29 -1 53 -12.5t40.5 -31t23.5 -45.5t3 -55q-6 -44 -36.5 -77.5t-73.5 -47.5q33 -8 59 -26t43.5 -43.5t24.5 -57t2 -67.5q-6 -42 -27.5 -79t-53 -64.5t-71 -43.5t-81.5 -16q-58 0 -102 30q2 3 3.5 5.5t3.5 5.5 q40 -28 95 -28q40 0 77 15.5t67 41.5t50 60.5t25 72.5t-5 71.5t-32.5 59t-55 40.5t-71.5 15q1 2 1 7l1 8q26 0 50 8.5t43.5 24t32.5 36.5t17 46q3 26 -3 50t-20.5 42.5t-36 29.5t-48.5 11q-34 0 -67 -15t-60.5 -43t-47 -67.5t-26.5 -88.5l-60 -430h-14l52 370h-65z" />
<glyph unicode="&#xe0;" horiz-adv-x="551" d="M75 188q6 44 26.5 80t50.5 61.5t67.5 39.5t76.5 14q31 0 57.5 -9t48 -25.5t36.5 -39t22 -49.5q4 29 9.5 57.5t10.5 57.5h10l-52 -375h-14l7 54q2 16 5 31.5t5 31.5q-29 -54 -82.5 -88.5t-116.5 -34.5q-41 0 -74 15t-55.5 41.5t-33 61.5t-4.5 76zM89 188q-5 -38 4.5 -70.5 t30.5 -57t51.5 -38.5t68.5 -14q37 0 72 14t63 38.5t47 57t24 70.5q5 37 -4.5 70t-30.5 58t-52.5 39t-68.5 14q-38 0 -72.5 -14t-62.5 -39t-46.5 -58t-23.5 -70zM230 612h15q18 -33 35.5 -66.5t35.5 -66.5h-16q-18 33 -35.5 66.5t-34.5 66.5z" />
<glyph unicode="&#xe1;" horiz-adv-x="551" d="M75 188q6 44 26.5 80t50.5 61.5t67.5 39.5t76.5 14q31 0 57.5 -9t48 -25.5t36.5 -39t22 -49.5q4 29 9.5 57.5t10.5 57.5h10l-52 -375h-14l7 54q2 16 5 31.5t5 31.5q-29 -54 -82.5 -88.5t-116.5 -34.5q-41 0 -74 15t-55.5 41.5t-33 61.5t-4.5 76zM89 188q-5 -38 4.5 -70.5 t30.5 -57t51.5 -38.5t68.5 -14q37 0 72 14t63 38.5t47 57t24 70.5q5 37 -4.5 70t-30.5 58t-52.5 39t-68.5 14q-38 0 -72.5 -14t-62.5 -39t-46.5 -58t-23.5 -70zM299 479q27 33 54.5 66.5t54.5 66.5h16q-27 -33 -54.5 -66.5t-54.5 -66.5h-16z" />
<glyph unicode="&#xe2;" horiz-adv-x="551" d="M75 188q6 44 26.5 80t50.5 61.5t67.5 39.5t76.5 14q31 0 57.5 -9t48 -25.5t36.5 -39t22 -49.5q4 29 9.5 57.5t10.5 57.5h10l-52 -375h-14l7 54q2 16 5 31.5t5 31.5q-29 -54 -82.5 -88.5t-116.5 -34.5q-41 0 -74 15t-55.5 41.5t-33 61.5t-4.5 76zM89 188q-5 -38 4.5 -70.5 t30.5 -57t51.5 -38.5t68.5 -14q37 0 72 14t63 38.5t47 57t24 70.5q5 37 -4.5 70t-30.5 58t-52.5 39t-68.5 14q-38 0 -72.5 -14t-62.5 -39t-46.5 -58t-23.5 -70zM205 479q36 45 72.5 90.5t72.5 90.5q24 -45 47.5 -90.5t47.5 -90.5h-16q-21 38 -41.5 77t-41.5 77 q-32 -38 -62.5 -77t-62.5 -77h-16z" />
<glyph unicode="&#xe3;" horiz-adv-x="551" d="M75 188q6 44 26.5 80t50.5 61.5t67.5 39.5t76.5 14q31 0 57.5 -9t48 -25.5t36.5 -39t22 -49.5q4 29 9.5 57.5t10.5 57.5h10l-52 -375h-14l7 54q2 16 5 31.5t5 31.5q-29 -54 -82.5 -88.5t-116.5 -34.5q-41 0 -74 15t-55.5 41.5t-33 61.5t-4.5 76zM89 188q-5 -38 4.5 -70.5 t30.5 -57t51.5 -38.5t68.5 -14q37 0 72 14t63 38.5t47 57t24 70.5q5 37 -4.5 70t-30.5 58t-52.5 39t-68.5 14q-38 0 -72.5 -14t-62.5 -39t-46.5 -58t-23.5 -70zM180 474q8 37 35.5 52t55.5 15q20 0 34 -10.5t28 -27.5q14 -18 26 -24t26 -6q8 0 19 2.5t21.5 8.5t19.5 16.5 t13 27.5q3 -1 6.5 -1t6.5 -1q-8 -37 -35.5 -52t-55.5 -15q-20 0 -34 10.5t-28 27.5q-14 18 -26 24t-26 6q-8 0 -19 -2.5t-21.5 -8.5t-19.5 -16.5t-13 -27.5q-3 1 -6.5 1t-6.5 1z" />
<glyph unicode="&#xe4;" horiz-adv-x="551" d="M75 188q6 44 26.5 80t50.5 61.5t67.5 39.5t76.5 14q31 0 57.5 -9t48 -25.5t36.5 -39t22 -49.5q4 29 9.5 57.5t10.5 57.5h10l-52 -375h-14l7 54q2 16 5 31.5t5 31.5q-29 -54 -82.5 -88.5t-116.5 -34.5q-41 0 -74 15t-55.5 41.5t-33 61.5t-4.5 76zM89 188q-5 -38 4.5 -70.5 t30.5 -57t51.5 -38.5t68.5 -14q37 0 72 14t63 38.5t47 57t24 70.5q5 37 -4.5 70t-30.5 58t-52.5 39t-68.5 14q-38 0 -72.5 -14t-62.5 -39t-46.5 -58t-23.5 -70zM223 500q1 8 7.5 14t14.5 6t13.5 -6t4.5 -14q-2 -8 -8.5 -14t-14.5 -6t-13.5 6t-3.5 14zM388 500q1 8 7.5 14 t14.5 6t13.5 -6t4.5 -14q-2 -8 -8.5 -14t-14.5 -6t-13.5 6t-3.5 14z" />
<glyph unicode="&#xe5;" horiz-adv-x="551" d="M75 188q6 44 26.5 80t50.5 61.5t67.5 39.5t76.5 14q31 0 57.5 -9t48 -25.5t36.5 -39t22 -49.5q4 29 9.5 57.5t10.5 57.5h10l-52 -375h-14l7 54q2 16 5 31.5t5 31.5q-29 -54 -82.5 -88.5t-116.5 -34.5q-41 0 -74 15t-55.5 41.5t-33 61.5t-4.5 76zM89 188q-5 -38 4.5 -70.5 t30.5 -57t51.5 -38.5t68.5 -14q37 0 72 14t63 38.5t47 57t24 70.5q5 37 -4.5 70t-30.5 58t-52.5 39t-68.5 14q-38 0 -72.5 -14t-62.5 -39t-46.5 -58t-23.5 -70zM262 540q4 27 24.5 45t47.5 18t42.5 -18t11.5 -45t-24 -45t-47 -18t-43 18t-12 45zM276 540q-2 -20 10.5 -34.5 t32.5 -14.5t36.5 14.5t18.5 34.5q3 20 -9.5 34.5t-32.5 14.5t-36.5 -14.5t-19.5 -34.5z" />
<glyph unicode="&#xe6;" horiz-adv-x="629" d="M36 98q4 27 19 45t37.5 29.5t50.5 16t57 4.5h146l8 52q4 31 2.5 54.5t-14.5 39t-40 23t-73 7.5q-14 0 -30.5 -3t-32.5 -8t-29.5 -11.5t-22.5 -12.5q-2 3 -5.5 6t-5.5 6q10 8 25.5 14.5t33 11.5t36 8t34.5 3q70 0 103 -17q39 17 82 17q58 0 99 -34.5t53 -89.5 q-53 -20 -105.5 -40.5t-105.5 -40.5l-3 -24l-4 -24q-5 -39 -17.5 -64.5t-38.5 -43.5q16 -7 32.5 -10.5t36.5 -3.5q36 0 70 13t61 36q2 -3 4 -5.5t4 -5.5q-30 -24 -66 -38t-75 -14q-47 0 -81 18q-40 -20 -103 -20q-35 0 -63.5 5t-47.5 17t-27.5 32.5t-3.5 51.5zM50 99 q-4 -29 7.5 -47.5t31.5 -28.5t45 -13.5t48 -3.5q25 0 50.5 4.5t46.5 16t36 31t19 49.5l10 72h-94q-16 0 -47.5 0.5t-64 -6t-58 -23.5t-30.5 -51zM347 356q18 -16 22 -43.5t-2 -69.5l-7 -50q48 18 96 36.5t96 36.5q-14 46 -50.5 74.5t-86.5 28.5q-34 0 -68 -13z" />
<glyph unicode="&#xe7;" horiz-adv-x="383" d="M51 188q6 40 26 76t50 62t67 41.5t78 15.5q35 0 65 -11.5t52 -31.5q-3 -3 -6 -5.5t-6 -5.5q-20 19 -47.5 29.5t-59.5 10.5q-38 0 -72.5 -14t-62.5 -39t-46.5 -58t-23.5 -70q-5 -38 4 -70.5t30 -57t51.5 -38.5t68.5 -14q32 0 62.5 10.5t56.5 28.5q2 -2 4 -5t4 -5 q-53 -39 -119 -43q-2 -13 1 -22t8 -15t12 -10t13 -8q20 -15 27 -33.5t5 -32.5q-7 -51 -35.5 -73.5t-61.5 -22.5q-18 0 -33 6q-15 7 -25.5 19.5t-14.5 32.5q4 1 7.5 2t8.5 2q3 -21 18.5 -34.5t40.5 -13.5q31 0 53 20.5t27 51.5q4 28 -7 43t-25 25.5t-25.5 21.5t-8.5 31l1 10 q-39 1 -71.5 16t-54.5 41.5t-32 61.5t-4 75z" />
<glyph unicode="&#xe8;" horiz-adv-x="451" d="M62 188q6 44 25 80t48.5 61.5t67 39.5t80.5 14q58 0 99 -34.5t53 -89.5q-90 -35 -178.5 -68.5t-177.5 -68.5q12 -51 53 -82.5t99 -31.5q36 0 69.5 13t61.5 36q2 -3 3.5 -5.5t3.5 -5.5q-30 -24 -65.5 -38t-74.5 -14q-41 0 -74 15t-55.5 41.5t-33 61.5t-4.5 76zM75 135 q87 33 172 65.5t171 65.5q-14 46 -50.5 74.5t-86.5 28.5q-40 0 -75 -13t-62 -36.5t-45 -57t-23 -74.5q-4 -26 -1 -53zM208 612h15q18 -33 35.5 -66.5t35.5 -66.5h-16q-18 33 -35.5 66.5t-34.5 66.5z" />
<glyph unicode="&#xe9;" horiz-adv-x="451" d="M62 188q6 44 25 80t48.5 61.5t67 39.5t80.5 14q58 0 99 -34.5t53 -89.5q-90 -35 -178.5 -68.5t-177.5 -68.5q12 -51 53 -82.5t99 -31.5q36 0 69.5 13t61.5 36q2 -3 3.5 -5.5t3.5 -5.5q-30 -24 -65.5 -38t-74.5 -14q-41 0 -74 15t-55.5 41.5t-33 61.5t-4.5 76zM75 135 q87 33 172 65.5t171 65.5q-14 46 -50.5 74.5t-86.5 28.5q-40 0 -75 -13t-62 -36.5t-45 -57t-23 -74.5q-4 -26 -1 -53zM294 479q27 33 54.5 66.5t54.5 66.5h16q-27 -33 -54.5 -66.5t-54.5 -66.5h-16z" />
<glyph unicode="&#xea;" horiz-adv-x="451" d="M62 188q6 44 25 80t48.5 61.5t67 39.5t80.5 14q58 0 99 -34.5t53 -89.5q-90 -35 -178.5 -68.5t-177.5 -68.5q12 -51 53 -82.5t99 -31.5q36 0 69.5 13t61.5 36q2 -3 3.5 -5.5t3.5 -5.5q-30 -24 -65.5 -38t-74.5 -14q-41 0 -74 15t-55.5 41.5t-33 61.5t-4.5 76zM75 135 q87 33 172 65.5t171 65.5q-14 46 -50.5 74.5t-86.5 28.5q-40 0 -75 -13t-62 -36.5t-45 -57t-23 -74.5q-4 -26 -1 -53zM179 479q36 45 72.5 90.5t72.5 90.5q24 -45 47.5 -90.5t47.5 -90.5h-16q-21 38 -41.5 77t-41.5 77q-32 -38 -62.5 -77t-62.5 -77h-16z" />
<glyph unicode="&#xeb;" horiz-adv-x="451" d="M62 188q6 44 25 80t48.5 61.5t67 39.5t80.5 14q58 0 99 -34.5t53 -89.5q-90 -35 -178.5 -68.5t-177.5 -68.5q12 -51 53 -82.5t99 -31.5q36 0 69.5 13t61.5 36q2 -3 3.5 -5.5t3.5 -5.5q-30 -24 -65.5 -38t-74.5 -14q-41 0 -74 15t-55.5 41.5t-33 61.5t-4.5 76zM75 135 q87 33 172 65.5t171 65.5q-14 46 -50.5 74.5t-86.5 28.5q-40 0 -75 -13t-62 -36.5t-45 -57t-23 -74.5q-4 -26 -1 -53zM192 500q1 8 7.5 14t14.5 6t13.5 -6t4.5 -14q-2 -8 -8.5 -14t-14.5 -6t-13.5 6t-3.5 14zM357 500q1 8 7.5 14t14.5 6t13.5 -6t4.5 -14q-2 -8 -8.5 -14 t-14.5 -6t-13.5 6t-3.5 14z" />
<glyph unicode="&#xec;" horiz-adv-x="174" d="M66 612h15q18 -33 35.5 -66.5t35.5 -66.5h-16q-18 33 -35.5 66.5t-34.5 66.5zM86 0l52 375h14l-52 -375h-14z" />
<glyph unicode="&#xed;" horiz-adv-x="200" d="M79 0l52 375h14l-52 -375h-14zM141 479q27 33 54.5 66.5t54.5 66.5h16q-27 -33 -54.5 -66.5t-54.5 -66.5h-16z" />
<glyph unicode="&#xee;" horiz-adv-x="239" d="M57 479q36 45 72.5 90.5t72.5 90.5q24 -45 47.5 -90.5t47.5 -90.5h-16q-21 38 -41.5 77t-41.5 77q-32 -38 -62.5 -77t-62.5 -77h-16zM109 0l52 375h14l-52 -375h-14z" />
<glyph unicode="&#xef;" horiz-adv-x="271" d="M103 500q1 8 7.5 14t14.5 6t13.5 -6t4.5 -14q-2 -8 -8.5 -14t-14.5 -6t-13.5 6t-3.5 14zM139 0l52 375h14l-52 -375h-14zM268 500q1 8 7.5 14t14.5 6t13.5 -6t4.5 -14q-2 -8 -8.5 -14t-14.5 -6t-13.5 6t-3.5 14z" />
<glyph unicode="&#xf0;" horiz-adv-x="493" d="M27 188q6 40 26 76t50 62t67.5 41.5t78.5 15.5q51 0 90.5 -24t59.5 -64q-2 28 -10.5 64.5t-24 78.5t-40 88t-59.5 94q-22 -20 -43.5 -40.5t-42.5 -40.5q-5 5 -7 8q22 20 44 41t43 41q-18 23 -38 45.5t-43 42.5q2 2 3.5 4.5t3.5 4.5q44 -38 83 -89q20 20 40.5 38.5 t40.5 38.5l3.5 -3.5l3.5 -3.5q-20 -20 -40.5 -39t-41.5 -39q34 -48 63.5 -103t49.5 -112t28.5 -114.5t0.5 -111.5q-6 -41 -26 -76t-50 -61.5t-68 -41.5t-78 -15q-41 0 -74 15t-55.5 41.5t-33 61.5t-4.5 76zM41 188q-5 -38 4.5 -70.5t30.5 -57t51.5 -38.5t68.5 -14 q37 0 72 14t63 38.5t47 57t24 70.5q5 37 -4.5 70t-30.5 58t-52 39t-68 14q-38 0 -72.5 -14t-62.5 -39t-47 -58t-24 -70z" />
<glyph unicode="&#xf1;" horiz-adv-x="523" d="M117 0l52 375h14l-7 -53q-2 -11 -4.5 -22.5t-5.5 -22.5q27 47 75 76t105 29q53 0 79.5 -31t20.5 -81l-37 -270h-14l38 277q4 36 -17 62.5t-65 28.5q-34 0 -66 -11t-58 -30.5t-43.5 -47t-22.5 -59.5l-30 -220h-14zM197 463q8 37 35.5 52t55.5 15q20 0 34 -10.5t28 -27.5 q14 -18 26 -24t26 -6q8 0 19 2.5t21.5 8.5t19.5 16.5t13 27.5q3 -1 6.5 -1t6.5 -1q-8 -37 -35.5 -52t-55.5 -15q-20 0 -34 10.5t-28 27.5q-14 18 -26 24t-26 6q-8 0 -19 -2.5t-21.5 -8.5t-19.5 -16.5t-13 -27.5q-3 1 -6.5 1t-6.5 1z" />
<glyph unicode="&#xf2;" horiz-adv-x="469" d="M62 188q6 44 25 80t48.5 62t67 40t80.5 14q40 0 74 -15.5t57 -42t33.5 -62.5t4.5 -76q-6 -46 -26 -82t-50 -61t-67.5 -38t-79.5 -13q-41 0 -74 15t-55.5 41.5t-33 61.5t-4.5 76zM76 188q-5 -38 4.5 -70.5t30.5 -57t51.5 -38.5t68.5 -14q37 0 72 13t63 36.5t47 56.5t24 74 q5 37 -4.5 70t-30.5 58t-52.5 39t-68.5 14q-40 0 -75 -13t-62 -36.5t-45 -57t-23 -74.5zM209 612h15q18 -33 35.5 -66.5t35.5 -66.5h-16q-18 33 -35.5 66.5t-34.5 66.5z" />
<glyph unicode="&#xf3;" horiz-adv-x="469" d="M62 188q6 44 25 80t48.5 62t67 40t80.5 14q40 0 74 -15.5t57 -42t33.5 -62.5t4.5 -76q-6 -46 -26 -82t-50 -61t-67.5 -38t-79.5 -13q-41 0 -74 15t-55.5 41.5t-33 61.5t-4.5 76zM76 188q-5 -38 4.5 -70.5t30.5 -57t51.5 -38.5t68.5 -14q37 0 72 13t63 36.5t47 56.5t24 74 q5 37 -4.5 70t-30.5 58t-52.5 39t-68.5 14q-40 0 -75 -13t-62 -36.5t-45 -57t-23 -74.5zM295 479q27 33 54.5 66.5t54.5 66.5h16q-27 -33 -54.5 -66.5t-54.5 -66.5h-16z" />
<glyph unicode="&#xf4;" horiz-adv-x="469" d="M62 188q6 44 25 80t48.5 62t67 40t80.5 14q40 0 74 -15.5t57 -42t33.5 -62.5t4.5 -76q-6 -46 -26 -82t-50 -61t-67.5 -38t-79.5 -13q-41 0 -74 15t-55.5 41.5t-33 61.5t-4.5 76zM76 188q-5 -38 4.5 -70.5t30.5 -57t51.5 -38.5t68.5 -14q37 0 72 13t63 36.5t47 56.5t24 74 q5 37 -4.5 70t-30.5 58t-52.5 39t-68.5 14q-40 0 -75 -13t-62 -36.5t-45 -57t-23 -74.5zM174 479q36 45 72.5 90.5t72.5 90.5q24 -45 47.5 -90.5t47.5 -90.5h-16q-21 38 -41.5 77t-41.5 77q-32 -38 -62.5 -77t-62.5 -77h-16z" />
<glyph unicode="&#xf5;" horiz-adv-x="469" d="M62 188q6 44 25 80t48.5 62t67 40t80.5 14q40 0 74 -15.5t57 -42t33.5 -62.5t4.5 -76q-6 -46 -26 -82t-50 -61t-67.5 -38t-79.5 -13q-41 0 -74 15t-55.5 41.5t-33 61.5t-4.5 76zM76 188q-5 -38 4.5 -70.5t30.5 -57t51.5 -38.5t68.5 -14q37 0 72 13t63 36.5t47 56.5t24 74 q5 37 -4.5 70t-30.5 58t-52.5 39t-68.5 14q-40 0 -75 -13t-62 -36.5t-45 -57t-23 -74.5zM150 474q8 37 35.5 52t55.5 15q20 0 34 -10.5t28 -27.5q14 -18 26 -24t26 -6q8 0 19 2.5t21.5 8.5t19.5 16.5t13 27.5q3 -1 6.5 -1t6.5 -1q-8 -37 -35.5 -52t-55.5 -15q-20 0 -34 10.5 t-28 27.5q-14 18 -26 24t-26 6q-8 0 -19 -2.5t-21.5 -8.5t-19.5 -16.5t-13 -27.5q-3 1 -6.5 1t-6.5 1z" />
<glyph unicode="&#xf6;" horiz-adv-x="469" d="M62 188q6 44 25 80t48.5 62t67 40t80.5 14q40 0 74 -15.5t57 -42t33.5 -62.5t4.5 -76q-6 -46 -26 -82t-50 -61t-67.5 -38t-79.5 -13q-41 0 -74 15t-55.5 41.5t-33 61.5t-4.5 76zM76 188q-5 -38 4.5 -70.5t30.5 -57t51.5 -38.5t68.5 -14q37 0 72 13t63 36.5t47 56.5t24 74 q5 37 -4.5 70t-30.5 58t-52.5 39t-68.5 14q-40 0 -75 -13t-62 -36.5t-45 -57t-23 -74.5zM192 500q1 8 7.5 14t14.5 6t13.5 -6t4.5 -14q-2 -8 -8.5 -14t-14.5 -6t-13.5 6t-3.5 14zM357 500q1 8 7.5 14t14.5 6t13.5 -6t4.5 -14q-2 -8 -8.5 -14t-14.5 -6t-13.5 6t-3.5 14z" />
<glyph unicode="&#xf7;" horiz-adv-x="501" d="M67 210l1 14h360l-1 -14h-360zM213 91q1 8 8 14t15 6t13 -6t4 -14q-2 -8 -8.5 -14t-14.5 -6t-13.5 6t-3.5 14zM248 341q2 8 8.5 14t14.5 6t13.5 -6t3.5 -14q-1 -8 -8 -14t-15 -6t-13 6t-4 14z" />
<glyph unicode="&#xf8;" horiz-adv-x="468" d="M29 0q11 12 23 23.5t23 23.5q-24 26 -34.5 62.5t-4.5 78.5q6 40 26 76t50 62t67 41.5t78 15.5q32 0 60 -10t50 -27q8 9 17.5 18.5l18.5 18.5l8 -8l-18.5 -18.5t-17.5 -18.5q29 -26 42.5 -65.5t7.5 -84.5q-6 -41 -26.5 -76t-50.5 -61.5t-68 -41.5t-78 -15q-36 0 -66 12 t-53 33l-23.5 -23.5t-22.5 -23.5zM50 188q-6 -38 4 -71.5t31 -58.5q68 69 135 138.5t135 138.5q-20 16 -45.5 25t-54.5 9q-38 0 -72.5 -14t-62.5 -39t-46.5 -58t-23.5 -70zM93 50q44 -42 111 -42q37 0 72.5 14t63.5 38.5t47 57t24 70.5q5 42 -8 78t-39 61 q-68 -69 -135.5 -138.5t-135.5 -138.5z" />
<glyph unicode="&#xf9;" horiz-adv-x="529" d="M131 105l38 270h14l-39 -277q-3 -36 18 -62.5t64 -28.5q34 0 66 11t58 30.5t43.5 47t22.5 59.5l31 220h14l-52 -375h-14l7 53l9 45q-27 -48 -75 -76.5t-104 -28.5q-53 0 -79.5 31t-21.5 81zM251 612h15q18 -33 35.5 -66.5t35.5 -66.5h-16q-18 33 -35.5 66.5t-34.5 66.5z " />
<glyph unicode="&#xfa;" horiz-adv-x="529" d="M131 105l38 270h14l-39 -277q-3 -36 18 -62.5t64 -28.5q34 0 66 11t58 30.5t43.5 47t22.5 59.5l31 220h14l-52 -375h-14l7 53l9 45q-27 -48 -75 -76.5t-104 -28.5q-53 0 -79.5 31t-21.5 81zM294 479q27 33 54.5 66.5t54.5 66.5h16q-27 -33 -54.5 -66.5t-54.5 -66.5h-16z " />
<glyph unicode="&#xfb;" horiz-adv-x="529" d="M131 105l38 270h14l-39 -277q-3 -36 18 -62.5t64 -28.5q34 0 66 11t58 30.5t43.5 47t22.5 59.5l31 220h14l-52 -375h-14l7 53l9 45q-27 -48 -75 -76.5t-104 -28.5q-53 0 -79.5 31t-21.5 81zM205 479q36 45 72.5 90.5t72.5 90.5q24 -45 47.5 -90.5t47.5 -90.5h-16 q-21 38 -41.5 77t-41.5 77q-32 -38 -62.5 -77t-62.5 -77h-16z" />
<glyph unicode="&#xfc;" horiz-adv-x="529" d="M131 105l38 270h14l-39 -277q-3 -36 18 -62.5t64 -28.5q34 0 66 11t58 30.5t43.5 47t22.5 59.5l31 220h14l-52 -375h-14l7 53l9 45q-27 -48 -75 -76.5t-104 -28.5q-53 0 -79.5 31t-21.5 81zM223 500q1 8 7.5 14t14.5 6t13.5 -6t4.5 -14q-2 -8 -8.5 -14t-14.5 -6t-13.5 6 t-3.5 14zM388 500q1 8 7.5 14t14.5 6t13.5 -6t4.5 -14q-2 -8 -8.5 -14t-14.5 -6t-13.5 6t-3.5 14z" />
<glyph unicode="&#xfd;" horiz-adv-x="488" d="M76 -250q40 62 79 123t79 123q-34 95 -68 189.5t-68 189.5h18q32 -91 64.5 -180.5t64.5 -180.5q58 91 115.5 180.5t115.5 180.5h18q-100 -157 -199 -312.5t-200 -312.5h-19zM295 479q27 33 54.5 66.5t54.5 66.5h16q-27 -33 -54.5 -66.5t-54.5 -66.5h-16z" />
<glyph unicode="&#xfe;" horiz-adv-x="557" d="M-3 -250l140 1000h14l-61 -429q-2 -16 -5 -32t-5 -32q15 27 36 50t47.5 39.5t56 25.5t60.5 9q40 0 73.5 -15t56 -41.5t33 -62t4.5 -75.5q-6 -41 -26.5 -76.5t-50.5 -61.5t-67.5 -41.5t-77.5 -15.5q-63 0 -106.5 34.5t-56.5 88.5q-2 -14 -3.5 -27t-3.5 -27l-44 -311h-14z M72 187q-5 -38 4.5 -70.5t30.5 -57.5t51.5 -39t68.5 -14q37 0 72 14t63 39t47 57.5t24 70.5q5 37 -4.5 70t-30.5 57.5t-52 38.5t-68 14q-38 0 -72.5 -14t-62.5 -38.5t-47 -57.5t-24 -70z" />
<glyph unicode="&#xff;" horiz-adv-x="488" d="M76 -250q40 62 79 123t79 123q-34 95 -68 189.5t-68 189.5h18q32 -91 64.5 -180.5t64.5 -180.5q58 91 115.5 180.5t115.5 180.5h18q-100 -157 -199 -312.5t-200 -312.5h-19zM206 500q1 8 7.5 14t14.5 6t13.5 -6t4.5 -14q-2 -8 -8.5 -14t-14.5 -6t-13.5 6t-3.5 14z M371 500q1 8 7.5 14t14.5 6t13.5 -6t4.5 -14q-2 -8 -8.5 -14t-14.5 -6t-13.5 6t-3.5 14z" />
<glyph unicode="&#x2000;" horiz-adv-x="466" />
<glyph unicode="&#x2001;" horiz-adv-x="932" />
<glyph unicode="&#x2002;" horiz-adv-x="466" />
<glyph unicode="&#x2003;" horiz-adv-x="932" />
<glyph unicode="&#x2004;" horiz-adv-x="310" />
<glyph unicode="&#x2005;" horiz-adv-x="233" />
<glyph unicode="&#x2006;" horiz-adv-x="155" />
<glyph unicode="&#x2007;" horiz-adv-x="155" />
<glyph unicode="&#x2008;" horiz-adv-x="116" />
<glyph unicode="&#x2009;" horiz-adv-x="186" />
<glyph unicode="&#x200a;" horiz-adv-x="51" />
<glyph unicode="&#x2010;" d="M52 184l1 14h184l-1 -14h-184z" />
<glyph unicode="&#x2011;" d="M52 184l1 14h184l-1 -14h-184z" />
<glyph unicode="&#x2012;" d="M52 184l1 14h184l-1 -14h-184z" />
<glyph unicode="&#x2013;" horiz-adv-x="509" d="M99 179l1 14h301l-1 -14h-301z" />
<glyph unicode="&#x2014;" horiz-adv-x="700" d="M98 179l1 14h502l-1 -14h-502z" />
<glyph unicode="&#x2018;" horiz-adv-x="164" d="M42.5 634.5q-7.5 36.5 6.5 76.5q5 -2 9.5 -3.5t8.5 -3.5q-11 -35 -6 -64.5t23 -49.5q-2 -5 -4 -9t-4 -9q-26 26 -33.5 62.5z" />
<glyph unicode="&#x2019;" horiz-adv-x="164" d="M51 590q24 20 37.5 49.5t11.5 64.5q5 2 10 3.5t10 3.5q3 -40 -14.5 -76.5t-50.5 -62.5q-1 5 -2 9t-2 9z" />
<glyph unicode="&#x201a;" horiz-adv-x="146" d="M12 -29q24 20 37.5 49.5t11.5 64.5q5 2 10 3.5t10 3.5q3 -40 -14.5 -76.5t-50.5 -62.5q-1 5 -2 9t-2 9z" />
<glyph unicode="&#x201c;" horiz-adv-x="249" d="M33.5 634.5q-7.5 36.5 6.5 76.5q5 -2 9.5 -3.5t8.5 -3.5q-11 -35 -6 -64.5t23 -49.5q-2 -5 -4 -9t-4 -9q-26 26 -33.5 62.5zM137.5 634.5q-7.5 36.5 6.5 76.5q5 -2 9.5 -3.5t8.5 -3.5q-11 -35 -6 -64.5t23 -49.5q-2 -5 -4 -9t-4 -9q-26 26 -33.5 62.5z" />
<glyph unicode="&#x201d;" horiz-adv-x="248" d="M36 590q24 20 37.5 49.5t11.5 64.5q5 2 10 3.5t10 3.5q3 -40 -14.5 -76.5t-50.5 -62.5q-1 5 -2 9t-2 9zM140 590q24 20 37.5 49.5t11.5 64.5q5 2 10 3.5t10 3.5q3 -40 -14.5 -76.5t-50.5 -62.5q-1 5 -2 9t-2 9z" />
<glyph unicode="&#x201e;" horiz-adv-x="234" d="M12 -29q24 20 37.5 49.5t11.5 64.5q5 2 10 3.5t10 3.5q3 -40 -14.5 -76.5t-50.5 -62.5q-1 5 -2 9t-2 9zM116 -29q24 20 37.5 49.5t11.5 64.5q5 2 10 3.5t10 3.5q3 -40 -14.5 -76.5t-50.5 -62.5q-1 5 -2 9t-2 9z" />
<glyph unicode="&#x2022;" horiz-adv-x="479" d="M173 300q5 28 26.5 47t48.5 19q28 0 44.5 -19t11.5 -47q-4 -27 -25.5 -46t-49.5 -19q-27 0 -43.5 19t-12.5 46z" />
<glyph unicode="&#x202f;" horiz-adv-x="186" />
<glyph unicode="&#x2039;" horiz-adv-x="392" d="M117 239q48 41 96.5 80.5t96.5 80.5l-2 -17q-41 -36 -81.5 -72t-80.5 -72q30 -37 60.5 -73t60.5 -73l-2 -16z" />
<glyph unicode="&#x203a;" horiz-adv-x="392" d="M94 77l2 16q41 37 81.5 73t81.5 73q-31 36 -61.5 72t-60.5 72l2 17q38 -41 74.5 -80.5t74.5 -80.5z" />
<glyph unicode="&#x205f;" horiz-adv-x="233" />
<glyph unicode="&#xe000;" horiz-adv-x="375" d="M0 0v375h375v-375h-375z" />
</font>
</defs>
</svg>
