<?xml version="1.0" standalone="no"?>
<!DOCTYPE svg PUBLIC "-//W3C//DTD SVG 1.1//EN" "http://www.w3.org/Graphics/SVG/1.1/DTD/svg11.dtd" >
<svg xmlns="http://www.w3.org/2000/svg">
<metadata></metadata>
<defs>
<font id="josefin_sansthin" horiz-adv-x="300" >
<font-face units-per-em="1000" ascent="750" descent="-250" />
<missing-glyph horiz-adv-x="500" />
<glyph horiz-adv-x="1000" />
<glyph horiz-adv-x="1000" />
<glyph unicode="&#xd;" />
<glyph unicode=" " />
<glyph unicode="!" horiz-adv-x="201" d="M81 56q0 9 6 14.5t13 5.5q8 0 14 -5.5t6 -14.5q0 -8 -6 -14t-14 -6q-7 0 -13 6t-6 14zM93 166v584h14v-584h-14z" />
<glyph unicode="&#x22;" horiz-adv-x="293" d="M63 472v248h18q-1 -63 -2 -124t-2 -124h-14zM196 472v248h18q-1 -63 -2 -124t-2 -124h-14z" />
<glyph unicode="#" horiz-adv-x="571" d="M29 225q0 4 0.5 7t0.5 7h118l10 84l10 84h-116q0 4 0.5 7t0.5 7h117l27 222h14l-27 -222h170l27 222h14l-27 -222h136q0 -4 -0.5 -7t-0.5 -7h-137l-10 -84l-10 -84h135q0 -4 -0.5 -7t-0.5 -7h-136q-7 -57 -13 -112.5t-13 -112.5h-14q7 57 13 112.5t13 112.5h-170 q-7 -57 -13 -112.5t-13 -112.5h-14q7 57 13 112.5t13 112.5h-117zM162 239h170l10 84l10 84h-170l-10 -84z" />
<glyph unicode="$" horiz-adv-x="567" d="M80 78l12 12q28 -29 70 -55.5t102 -28.5v363q-2 1 -3 1t-3 1q-19 5 -45 14t-50.5 25.5t-42.5 42t-20 64.5q-2 33 6.5 65.5t29 59t52.5 43.5t76 19v60h14v-60q36 -1 71.5 -14t70.5 -43l-4 -6l-4 -6q-9 8 -22 17t-30 17t-37.5 14t-44.5 7v-312q31 -10 67.5 -22.5t67 -33.5 t51 -54t20.5 -82q0 -44 -16 -79t-44 -60.5t-65.5 -39.5t-80.5 -15v-60h-14v60q-38 1 -68 11.5t-53 24t-38.5 27.5t-24.5 23zM114 530q0 -31 9.5 -53.5t26.5 -38.5t42 -28t57 -22q7 -3 15 -5v307q-38 -1 -66 -15t-46.5 -36t-28 -50.5t-9.5 -58.5zM278 6q37 1 72 14t61.5 36 t42.5 55t16 71q0 45 -17.5 75t-45 51t-62 34t-67.5 23v-359z" />
<glyph unicode="%" horiz-adv-x="726" d="M108 389q0 22 8.5 42t23.5 34.5t35 23t43 8.5q22 0 42 -8.5t35 -23t24 -34.5t9 -42q0 -23 -9 -43t-24 -34.5t-35 -23t-42 -8.5q-23 0 -43 8.5t-35 23t-23.5 34.5t-8.5 43zM122 388q0 -20 7.5 -37t20.5 -29.5t30.5 -20t37.5 -7.5t37.5 7.5t30.5 20t20.5 29.5t7.5 37 q0 19 -7.5 36.5t-20.5 30.5t-30.5 20.5t-37.5 7.5t-37.5 -7.5t-30.5 -20.5t-20.5 -30.5t-7.5 -36.5zM208 0q75 126 149 250t149 250h16q-75 -126 -149 -250t-149 -250h-16zM412 113q0 22 8.5 42t23.5 34.5t35 23t43 8.5q22 0 42 -8.5t35 -23t24 -34.5t9 -42q0 -23 -9 -43 t-24 -34.5t-35 -23t-42 -8.5q-23 0 -43 8.5t-35 23t-23.5 34.5t-8.5 43zM426 112q0 -20 7.5 -37t20.5 -29.5t30.5 -20t37.5 -7.5t37.5 7.5t30.5 20t20.5 29.5t7.5 37q0 19 -7.5 36.5t-20.5 30.5t-30.5 20.5t-37.5 7.5t-37.5 -7.5t-30.5 -20.5t-20.5 -30.5t-7.5 -36.5z" />
<glyph unicode="&#x26;" horiz-adv-x="700" d="M106 187q0 36 12.5 68.5t34 58t51.5 42.5t65 23l-72 117q-18 30 -25.5 62t-2.5 63t23 58t51 47q28 17 57.5 20.5t57.5 -1.5t52.5 -16t43.5 -23q-2 -3 -3 -6.5t-3 -6.5q-23 13 -47 24t-49 16t-50.5 1.5t-50.5 -19.5q-31 -20 -48 -45t-21.5 -52.5t2.5 -57t24 -56.5 q63 -102 124.5 -203t124.5 -203q11 20 17.5 42t6.5 47v70q0 46 7 70t19 34.5t27.5 12t32.5 1.5h37v-14h-57q-31 0 -41.5 -26t-10.5 -86v-62q0 -29 -7.5 -54.5t-21.5 -48.5q15 -24 29.5 -47.5t29.5 -47.5q-3 -2 -5.5 -4t-5.5 -4q-14 23 -28.5 45.5t-28.5 45.5 q-26 -36 -67 -57.5t-90 -21.5q-41 0 -76 15t-61.5 41.5t-41.5 61.5t-15 76zM120 187q0 -38 14 -70.5t38.5 -57t57 -38.5t70.5 -14q47 0 86 21.5t63 56.5q-43 71 -86 140.5t-86 140.5q-33 -4 -62 -19.5t-50 -39.5t-33 -55t-12 -65z" />
<glyph unicode="'" horiz-adv-x="147" d="M67 472v248h18q-1 -63 -2 -124t-2 -124h-14z" />
<glyph unicode="(" horiz-adv-x="394" d="M147 292q0 75 14 143t37 126t52.5 105.5t61.5 80.5q1 -6 1.5 -11.5t1.5 -11.5q-29 -33 -56.5 -78t-49.5 -100t-35 -119t-13 -135t13 -135t35 -119t49.5 -100t56.5 -78q-1 -6 -1.5 -11.5t-1.5 -11.5q-32 33 -61.5 80.5t-52.5 105.5t-37 126t-14 143z" />
<glyph unicode=")" horiz-adv-x="400" d="M111 -140q29 33 56.5 78t49.5 100t35 119t13 135t-13 135t-35 119t-49.5 100t-56.5 78q1 6 1.5 11.5t1.5 11.5q31 -33 61 -80.5t53 -105.5t37 -126t14 -143t-14 -143t-37 -126t-53 -105.5t-61 -80.5q-1 6 -1.5 11.5t-1.5 11.5z" />
<glyph unicode="*" horiz-adv-x="335" d="M39 513l111 63l-111 66q2 3 3.5 6t3.5 6q28 -17 56 -32.5t56 -32.5v131h18q-1 -33 -1 -65.5t-1 -65.5q29 16 57 32t57 32q2 -3 3.5 -6t3.5 -6q-29 -17 -56.5 -33t-56.5 -33l56 -32l56 -32l-9 -15l-111 66q-1 -32 -1 -64t-1 -64h-14v127q-28 -16 -55 -31.5t-55 -31.5z" />
<glyph unicode="+" horiz-adv-x="543" d="M86 225v14h173v172h14v-172h173v-14h-173v-174h-14v174h-173z" />
<glyph unicode="," horiz-adv-x="200" d="M27 -120q20 52 38.5 103t38.5 103h23q-22 -52 -43 -103t-43 -103h-14z" />
<glyph unicode="-" d="M53 184v14h184v-14h-184z" />
<glyph unicode="." horiz-adv-x="163" d="M66 20q0 8 6 14t14 6t14 -6t6 -14t-6 -14t-14 -6t-14 6t-6 14z" />
<glyph unicode="/" horiz-adv-x="322" d="M17 -19q70 190 139 377.5t139 377.5h14q-70 -190 -139 -377.5t-139 -377.5h-14z" />
<glyph unicode="0" horiz-adv-x="616" d="M36 327q0 48 14.5 105.5t46.5 108t84 84t127 33.5q74 0 125 -34.5t82 -85t44.5 -108.5t13.5 -106q0 -69 -22 -129.5t-59 -105.5t-86.5 -70.5t-104.5 -25.5t-103.5 26.5t-84.5 71.5t-56.5 105.5t-20.5 130.5zM51 328q0 -73 21 -132t56 -101t81 -65t94 -23t94 22t82 63 t58 100t22 131q0 73 -19 132.5t-53 101t-80 64.5t-100 23t-100.5 -21.5t-81 -63t-54.5 -100t-20 -131.5z" />
<glyph unicode="1" horiz-adv-x="249" d="M34 636v14h127v-650h-14v636h-113z" />
<glyph unicode="2" horiz-adv-x="495" d="M50 469q0 40 11.5 74.5t34 60t56 40t76.5 14.5q39 0 71 -14.5t55.5 -40.5t36 -61.5t12.5 -77.5q0 -58 -29.5 -115.5t-75.5 -113.5t-101.5 -111.5t-107.5 -109.5h360v-14h-396q64 62 125 122.5t107.5 118t75 111t28.5 100.5q0 56 -16 93t-40 59t-52 31t-53 9 q-50 0 -81.5 -17.5t-50 -44t-25.5 -57t-7 -56.5q0 -71 40 -114q-2 -2 -4.5 -4t-4.5 -4q-21 24 -33 52.5t-12 69.5z" />
<glyph unicode="3" horiz-adv-x="515" d="M93 58q2 3 5 6.5t5 6.5q24 -29 59 -47t77 -18q39 0 74.5 15t61.5 41t41.5 60.5t15.5 72.5q0 39 -15.5 73.5t-41.5 60t-61.5 40.5t-74.5 15q-16 0 -31.5 -6t-29.5 -17q54 69 106 137.5t106 137.5h-287v14h319q-50 -63 -99.5 -126t-99.5 -126q45 2 85.5 -12.5t71 -41.5 t48.5 -65.5t18 -83.5q0 -42 -16 -79t-44 -64.5t-65 -43.5t-79 -16q-45 0 -83 18t-66 48z" />
<glyph unicode="4" horiz-adv-x="505" d="M37 183q92 119 183 237.5t183 237.5v-461h97v-14h-97v-183h-14v183h-352zM67 197h322v420q-81 -106 -161 -210t-161 -210z" />
<glyph unicode="5" horiz-adv-x="543" d="M115 48q3 2 5.5 5t5.5 5q24 -25 56.5 -38.5t70.5 -13.5q40 0 75 15t61 41t41.5 60.5t15.5 72.5q0 39 -15.5 72.5t-41.5 59t-61 40t-75 14.5q-35 0 -64 -11.5t-46 -28.5v309h287v-14h-273v-264q23 11 47.5 17t50.5 6q42 0 79.5 -15.5t65 -42.5t44 -63.5t16.5 -78.5 t-16.5 -79t-44 -64.5t-65 -43.5t-79.5 -16q-41 0 -76.5 15t-63.5 41z" />
<glyph unicode="6" horiz-adv-x="520" d="M50 193q0 73 31 135.5t79 116.5t107 100.5t115 87.5q2 -3 5 -6.5t5 -6.5q-67 -44 -118 -87t-87.5 -82.5t-60 -74t-35.5 -62.5q28 37 70 59t93 22q42 0 79.5 -16t65 -43.5t43.5 -64t16 -78.5t-16 -78.5t-43.5 -63.5t-65 -43t-79.5 -16t-79.5 16t-65 43t-43.5 63.5 t-16 78.5zM63 193q0 -39 15 -73t40.5 -59.5t60.5 -40t74 -14.5t74 14.5t61 40t41 59.5t15 73t-15 73t-41 59.5t-61 40.5t-74 15t-74 -15t-60.5 -40.5t-40.5 -59.5t-15 -73z" />
<glyph unicode="7" horiz-adv-x="469" d="M14 636v14h401q-73 -164 -146 -325t-146 -325h-18q72 160 143.5 318t143.5 318h-378z" />
<glyph unicode="8" horiz-adv-x="510" d="M53 195q0 35 11.5 66.5t31.5 57t47.5 44t60.5 26.5q-42 14 -69 48.5t-27 80.5q0 29 11.5 54.5t31 44.5t45.5 30t56 11t56 -11.5t45.5 -31t31 -45.5t11.5 -56q0 -44 -25.5 -77.5t-66.5 -47.5q33 -8 61.5 -26t49.5 -43.5t33 -57t12 -67.5q0 -42 -16.5 -79t-44 -64.5 t-65 -43.5t-79.5 -16t-78.5 16t-64 43.5t-43.5 64.5t-16 79zM67 195q0 -38 14.5 -72.5t39.5 -60.5t59 -41.5t73 -15.5q40 0 75 15.5t61 41.5t41.5 60.5t15.5 72.5q0 39 -15.5 72.5t-41.5 59t-61 40t-75 14.5q-39 0 -73 -14.5t-59 -40t-39.5 -59t-14.5 -72.5zM122 511 q0 -25 10 -46t28 -36.5t42 -24t52 -8.5q27 0 50.5 8.5t41 24t27 36.5t9.5 46q0 27 -9.5 51t-27 42t-41 29t-50.5 11q-28 0 -52 -11t-42 -29t-28 -42t-10 -51z" />
<glyph unicode="9" horiz-adv-x="525" d="M55 432q0 42 16 78.5t43.5 63.5t65 43t79.5 16t79.5 -16t65 -43t43.5 -63.5t16 -78.5q0 -73 -31 -135.5t-79 -116.5t-107 -100.5t-115 -87.5q-2 3 -5 6.5t-5 6.5q67 44 118 87t87.5 82.5t60 74t35.5 62.5q-28 -37 -70 -59t-93 -22q-42 0 -79.5 16t-65 43.5t-43.5 64 t-16 78.5zM69 432q0 -39 15 -73.5t41 -60t61 -40t74 -14.5t74 14.5t60.5 40t40.5 60t15 73.5t-15 73t-40.5 59.5t-60.5 40t-74 14.5t-74 -14.5t-61 -40t-41 -59.5t-15 -73z" />
<glyph unicode=":" horiz-adv-x="175" d="M65 20q0 8 6 14t14 6t14 -6t6 -14t-6 -14t-14 -6t-14 6t-6 14zM65 270q0 8 6 14t14 6t14 -6t6 -14t-6 -14t-14 -6t-14 6t-6 14z" />
<glyph unicode=";" horiz-adv-x="201" d="M12 -120q20 52 38.5 103t38.5 103h23q-22 -52 -43 -103t-43 -103h-14zM88 270q0 8 6 14t14 6t14 -6t6 -14t-6 -14t-14 -6t-14 6t-6 14z" />
<glyph unicode="&#x3c;" horiz-adv-x="680" d="M115 238q110 63 219 126.5t219 126.5v-16q-103 -60 -206 -118.5t-206 -118.5q103 -60 206 -118.5t206 -118.5v-16q-110 63 -219 126.5t-219 126.5z" />
<glyph unicode="=" horiz-adv-x="708" d="M100 150v14h506v-14h-506zM100 344v14h506v-14h-506z" />
<glyph unicode="&#x3e;" horiz-adv-x="650" d="M115 1q103 60 206 118.5t206 118.5q-103 60 -206 118.5t-206 118.5v16q110 -63 219 -126.5t219 -126.5q-110 -63 -219 -126.5t-219 -126.5v16z" />
<glyph unicode="?" horiz-adv-x="452" d="M31 599q20 58 70 95.5t115 37.5q41 0 77 -15.5t62.5 -42t41.5 -62t15 -75.5q0 -54 -26.5 -94.5t-71.5 -72.5q-20 -14 -36.5 -23.5t-29 -21.5t-19.5 -31t-7 -52v-78h-14v97q0 31 11.5 49.5t30 33t42 29t47.5 35.5q31 27 45 59.5t14 69.5q0 39 -14 72t-38.5 57.5t-58 38 t-71.5 13.5q-30 0 -57 -9t-50 -25t-39.5 -38.5t-25.5 -49.5q-3 1 -6.5 1.5t-6.5 1.5zM196 45q0 9 6 14.5t13 5.5q8 0 14 -5.5t6 -14.5q0 -8 -6 -14t-14 -6q-7 0 -13 6t-6 14z" />
<glyph unicode="@" horiz-adv-x="990" d="M94 189q0 82 31 154t84.5 126t125.5 85t154 31t154 -31t126 -85t85 -126.5t31 -154.5q-2 -59 -14 -96t-31 -57.5t-42.5 -27.5t-48.5 -7h-78v54q0 16 0.5 31.5t0.5 31.5q-11 -27 -29 -49.5t-41.5 -39t-52 -25.5t-59.5 -9q-41 0 -76 15t-61.5 41.5t-41.5 61.5t-15 76 q0 40 15 76t41.5 62t61.5 41.5t76 15.5q62 0 110.5 -34.5t70.5 -88.5q0 29 1 57.5t3 57.5h10v-362h71q54 0 83.5 42t31.5 133q0 79 -30 149t-82 122t-121.5 82t-148.5 30t-148.5 -30t-121 -82t-81.5 -122t-30 -149t30 -148.5t81.5 -121t121 -81.5t148.5 -30q62 0 117 19 t102 51q2 -3 4.5 -5.5t4.5 -5.5q-50 -34 -106 -53.5t-122 -19.5q-82 0 -154 31t-125.5 85t-84.5 126t-31 154zM310 188q0 -38 14 -70.5t38.5 -57t57 -38.5t70.5 -14q37 0 70 14t58 38.5t39 57t14 70.5q0 37 -14 70t-39 58t-58 39t-70 14q-38 0 -70.5 -14t-57 -39t-38.5 -58 t-14 -70z" />
<glyph unicode="A" horiz-adv-x="740" d="M60 0q78 184 155 366t155 366q78 -184 155 -366t155 -366h-15q-34 79 -67 158t-67 158h-322q-34 -79 -67 -158t-67 -158h-15zM215 330h310q-37 87 -73 172.5t-73 172.5q-2 6 -4.5 12.5t-4.5 12.5q-35 -94 -75.5 -185.5t-79.5 -184.5z" />
<glyph unicode="B" horiz-adv-x="535" d="M84 0v700h145q45 0 82.5 -10t64.5 -31t41.5 -54.5t14.5 -79.5q0 -62 -31 -109t-96 -64q30 -6 58 -20t49.5 -36t34 -51t12.5 -65q0 -45 -18 -78.5t-47.5 -56t-67.5 -34t-79 -11.5h-163zM98 14h148q40 0 76.5 10t63.5 30.5t43 51t16 71.5q0 43 -18.5 75t-49 52t-69.5 30 t-81 10h-129v-330zM98 358h147q80 0 126.5 47t46.5 123q0 42 -13 72t-36.5 49t-56 28t-71.5 9h-143v-328z" />
<glyph unicode="C" horiz-adv-x="670" d="M62 349q0 74 28 139.5t76.5 114t113.5 77t139 28.5q51 0 96.5 -13t86.5 -37l-4 -6l-4 -6q-38 23 -82.5 35.5t-92.5 12.5q-71 0 -133.5 -27.5t-109 -74.5t-73.5 -110t-27 -134t27 -133t73 -108.5t108 -73.5t132 -27q48 0 92.5 12.5t83.5 35.5l9 -12q-40 -23 -85.5 -36.5 t-96.5 -13.5q-74 0 -139 28t-113.5 76.5t-76.5 113.5t-28 139z" />
<glyph unicode="D" horiz-adv-x="652" d="M86 0v700h137q72 0 136 -24.5t112 -70t76 -110.5t28 -145q0 -59 -20.5 -121t-66.5 -113t-119.5 -83.5t-179.5 -32.5h-103zM100 15h98q99 0 168.5 31t113 80t63 108t19.5 116q0 77 -26.5 139.5t-72.5 106t-106.5 67t-127.5 23.5h-129v-671z" />
<glyph unicode="E" horiz-adv-x="601" d="M95 0v700h405v-14h-391v-326h352v-14h-352v-332h405v-14h-419z" />
<glyph unicode="F" horiz-adv-x="587" d="M95 0v700h405v-14h-391v-326h352v-14h-352v-346h-14z" />
<glyph unicode="G" horiz-adv-x="675" d="M62 349q0 74 28 139.5t76.5 114t113.5 77t139 28.5q51 0 96.5 -13t86.5 -37l-4 -6l-4 -6q-38 23 -82.5 35.5t-92.5 12.5q-71 0 -133.5 -27.5t-109 -74.5t-73.5 -110t-27 -134t27 -133t73 -108.5t108 -73.5t132 -27q47 0 90 11.5t81 33.5v141v71q0 9 -6.5 16t-23.5 7h-142 v14h128q31 0 44.5 -8t13.5 -37v-213q-40 -23 -85.5 -36.5t-96.5 -13.5q-74 0 -139 28t-113.5 76.5t-76.5 113.5t-28 139z" />
<glyph unicode="H" horiz-adv-x="700" d="M104 0v700h14v-340h464v340h18q-1 -176 -2 -350t-2 -350h-14v346h-464v-346h-14z" />
<glyph unicode="I" horiz-adv-x="228" d="M107 0v700h14v-700h-14z" />
<glyph unicode="J" horiz-adv-x="292" d="M18 -128q37 2 68 17.5t54 44t36 68.5t13 91v607h14v-610q0 -56 -14.5 -98.5t-40 -71.5t-59 -45t-71.5 -17v14z" />
<glyph unicode="K" horiz-adv-x="600" d="M77 0v700h14v-340q0 -8 -0.5 -14.5t-0.5 -14.5q5 5 8.5 10t8.5 10q92 88 183 174.5t183 174.5h22q-73 -69 -145 -138t-145 -138q85 -106 167.5 -212t167.5 -212h-20q-82 104 -163 207t-163 207q-26 -25 -52 -49t-52 -49q0 -79 0.5 -158t0.5 -158h-14z" />
<glyph unicode="L" horiz-adv-x="593" d="M95 0v700h14v-686h405v-14h-419z" />
<glyph unicode="M" horiz-adv-x="937" d="M100 0v732q92 -119 183 -237.5t183 -237.5q92 119 183 237.5t183 237.5v-732h-14v430v215q0 11 0.5 22.5t0.5 22.5q-88 -118 -176 -232t-177 -230q-69 91 -137.5 179.5t-137.5 179.5l-69 90q-2 3 -4.5 6.5t-4.5 6.5q0 -11 0.5 -22.5t0.5 -22.5v-645h-14z" />
<glyph unicode="N" horiz-adv-x="813" d="M100 0v732q146 -178 290.5 -352.5t290.5 -351.5q5 -7 9.5 -13t9.5 -13q-1 8 -1.5 16t-1.5 16v666h14v-732q-146 177 -290.5 351t-290.5 351q-5 7 -9.5 13t-9.5 13q1 -8 1.5 -16t1.5 -16v-664h-14z" />
<glyph unicode="O" horiz-adv-x="840" d="M62 349q0 74 28 139.5t76.5 114t113.5 77t139 28.5t139.5 -28.5t114 -77t77 -114t28.5 -139.5t-28.5 -139t-77 -113.5t-114 -76.5t-139.5 -28t-139 28t-113.5 76.5t-76.5 113.5t-28 139zM76 348q0 -71 27 -133t73 -108.5t108 -73.5t132 -27q71 0 134.5 27t111 73.5 t75 109t27.5 133.5t-27.5 133.5t-74.5 109.5t-109.5 74.5t-133.5 27.5t-133.5 -27.5t-109 -74.5t-73.5 -110t-27 -134z" />
<glyph unicode="P" horiz-adv-x="447" d="M84 0v700h140q29 0 64 -10t65 -31t50.5 -55t20.5 -82q0 -83 -55.5 -132t-158.5 -49h-112v-341h-14zM98 355h115q58 0 96 16t60.5 40.5t31.5 54t9 56.5q0 33 -15 62.5t-41.5 52t-62 36t-77.5 13.5h-116v-331z" />
<glyph unicode="Q" horiz-adv-x="842" d="M62 349q0 74 28 139.5t76.5 114t113.5 77t139 28.5t139.5 -28.5t114 -77t77 -114t28.5 -139.5q0 -58 -17.5 -110.5t-48.5 -96t-74.5 -76.5t-94.5 -52h257v-14h-307q-38 -8 -74 -8q-74 0 -139 28t-113.5 76.5t-76.5 113.5t-28 139zM76 348q0 -71 27 -133t73 -108.5 t108 -73.5t132 -27q71 0 134.5 27t111 73.5t75 109t27.5 133.5t-27.5 133.5t-74.5 109.5t-109.5 74.5t-133.5 27.5t-133.5 -27.5t-109 -74.5t-73.5 -110t-27 -134z" />
<glyph unicode="R" horiz-adv-x="496" d="M84 0v700h140q29 0 64 -10t65 -31t50.5 -55t20.5 -82q0 -69 -39 -115.5t-113 -60.5q41 -87 81.5 -173t81.5 -173h-15q-41 87 -81.5 172t-81.5 172q-23 -3 -47 -3h-112v-341h-14zM98 355h115q58 0 96 16t60.5 40.5t31.5 54t9 56.5q0 33 -15 62.5t-41.5 52t-62 36 t-77.5 13.5h-116v-331z" />
<glyph unicode="S" horiz-adv-x="544" d="M80 78l12 12q14 -15 32 -30t40 -27t48.5 -19.5t57.5 -7.5q39 0 75 12.5t63.5 35.5t44.5 55.5t17 72.5q0 48 -20 79.5t-51 52.5t-68.5 33.5t-72.5 23.5q-19 5 -45 14t-50.5 25.5t-42.5 42t-20 64.5v12q0 27 7 55q9 34 30 60.5t54.5 43t80.5 16.5q38 0 75 -12.5t73 -44.5 l-4 -6l-4 -6q-9 8 -22.5 17.5t-31.5 18t-40 14t-48 5.5q-39 0 -68.5 -13.5t-49 -36t-29 -51t-9.5 -59.5q0 -32 9.5 -54t26.5 -38t42 -28t57 -22q31 -10 71.5 -22t77 -34t61.5 -56.5t25 -89.5q0 -44 -16.5 -80t-45.5 -61.5t-67.5 -39t-82.5 -13.5q-40 0 -71.5 10t-55 24 t-40 28.5t-25.5 23.5z" />
<glyph unicode="T" horiz-adv-x="553" d="M0 686v14h553v-14h-270v-686h-14v686h-269z" />
<glyph unicode="U" horiz-adv-x="652" d="M102 226v474h14v-471q0 -54 15.5 -95.5t43.5 -70t67 -43t85 -14.5q45 0 84 14.5t67 43t44 70t16 95.5v471h14v-474q0 -57 -17.5 -101t-47.5 -73.5t-71 -44.5t-89 -15t-89.5 15t-71.5 44.5t-47 73.5t-17 101z" />
<glyph unicode="V" horiz-adv-x="722" d="M54 700h15q72 -170 143 -337.5t143 -337.5q2 -6 4.5 -12.5t4.5 -12.5q2 6 4.5 12.5t4.5 12.5q72 170 143 337.5t143 337.5h15q-78 -184 -155 -366t-155 -366q-78 184 -155 366t-155 366z" />
<glyph unicode="W" horiz-adv-x="1108" d="M54 700h15q71 -170 141.5 -338t144.5 -337q2 -6 4.5 -12.5t4.5 -12.5q40 108 86.5 213.5t91.5 211.5q-29 69 -58 137.5t-58 137.5h15q71 -170 141.5 -338t144.5 -337q2 -6 4.5 -12.5t4.5 -12.5q2 6 4.5 12.5t4.5 12.5q72 170 143 337.5t143 337.5h15q-78 -184 -155 -366 t-155 -366l-177 417q-2 5 -4.5 11t-4.5 11q-48 -110 -93.5 -219.5t-92.5 -219.5q-78 184 -155 366t-155 366z" />
<glyph unicode="X" horiz-adv-x="700" d="M93 0q58 91 115 180t115 180l-110 170l-110 170h16q52 -80 104 -159.5t104 -159.5q2 -3 4 -6.5t4 -6.5q2 3 4 6.5t4 6.5q51 80 102 159.5t102 159.5h16q-55 -87 -110 -172t-110 -172q58 -90 116 -178t116 -178h-17l-183 279q-11 17 -21.5 35t-22.5 34q-2 -3 -4 -6.5 t-4 -6.5q-54 -85 -107 -167.5t-107 -167.5h-16z" />
<glyph unicode="Y" horiz-adv-x="638" d="M48 700h17q60 -101 121 -200.5t120 -201.5q3 -7 6 -13t6 -13h1q3 7 5.5 13t5.5 13l240 402h17q-66 -110 -131 -219t-131 -219v-262h-14v262q-66 110 -131.5 219t-131.5 219z" />
<glyph unicode="Z" horiz-adv-x="700" d="M81 0v14l510 672h-433q-31 0 -45.5 8t-14.5 37v4h16v-12q0 -9 6.5 -16t23.5 -7h467v-14l-510 -672h539v-14h-559z" />
<glyph unicode="[" horiz-adv-x="338" d="M83 -149v895h163v-14h-147v-867h147v-14h-163z" />
<glyph unicode="\" horiz-adv-x="320" d="M17 736h14q70 -190 139 -377.5t139 -377.5h-14q-70 190 -139 377.5t-139 377.5z" />
<glyph unicode="]" horiz-adv-x="342" d="M88 -135h147v867h-147v14h163v-895h-163v14z" />
<glyph unicode="^" horiz-adv-x="470" d="M112 479q30 45 60 90.5t60 90.5q30 -45 60 -90.5t60 -90.5h-16q-26 38 -52 77t-52 77q-26 -38 -52 -77t-52 -77h-16z" />
<glyph unicode="_" horiz-adv-x="600" d="M100 0v14h400v-14h-400z" />
<glyph unicode="`" horiz-adv-x="200" d="M-14 612h16q23 -33 45 -66.5t45 -66.5h-16q-23 33 -45 66.5t-45 66.5z" />
<glyph unicode="a" horiz-adv-x="498" d="M49 188q0 40 15 76t41.5 62t61.5 41.5t76 15.5q62 0 110.5 -34.5t70.5 -88.5q0 29 1 57.5t3 57.5h10v-375h-14v54q0 16 0.5 31.5t0.5 31.5q-11 -27 -29 -49.5t-41.5 -39t-52 -25.5t-59.5 -9q-41 0 -76 15t-61.5 41.5t-41.5 61.5t-15 76zM63 188q0 -38 14 -70.5t38.5 -57 t57 -38.5t70.5 -14q37 0 70 14t58 38.5t39 57t14 70.5q0 37 -14 70t-39 58t-58 39t-70 14q-38 0 -70.5 -14t-57 -39t-38.5 -58t-14 -70z" />
<glyph unicode="b" horiz-adv-x="527" d="M82 0v750h14v-436v-54q10 27 28 49.5t41.5 39t52 25.5t59.5 9q40 0 75.5 -15.5t62 -41.5t41.5 -62t15 -76q0 -41 -15 -76t-41.5 -61.5t-62 -41.5t-75.5 -15q-31 0 -59.5 9t-52 25.5t-42 39t-28.5 49.5q0 -16 0.5 -31.5t0.5 -31.5v-54h-14zM96 188q0 -38 14 -70.5t39 -57 t57.5 -38.5t70.5 -14q37 0 70 14t57.5 38.5t38.5 57t14 70.5q0 37 -14 70t-38.5 58t-57.5 39t-70 14q-38 0 -70.5 -14t-57.5 -39t-39 -58t-14 -70z" />
<glyph unicode="c" horiz-adv-x="383" d="M36 188q0 40 15 76t41.5 62t61.5 41.5t76 15.5q35 0 66.5 -11.5t56.5 -31.5q-2 -3 -5 -5.5t-5 -5.5q-23 19 -52 29.5t-61 10.5q-38 0 -70.5 -14t-57 -39t-38.5 -58t-14 -70q0 -38 14 -70.5t38.5 -57t57 -38.5t70.5 -14q32 0 61 10.5t52 28.5l10 -10q-26 -20 -57 -31.5 t-66 -11.5q-41 0 -76 15t-61.5 41.5t-41.5 61.5t-15 76z" />
<glyph unicode="d" horiz-adv-x="522" d="M55 188q0 40 15 76t41.5 62t61.5 41.5t76 15.5q31 0 59.5 -9t52 -25.5t41 -39t28.5 -49.5v54v436h14v-750h-14v54q0 16 0.5 31.5t0.5 31.5q-11 -27 -29 -49.5t-41.5 -39t-52 -25.5t-59.5 -9q-41 0 -76 15t-61.5 41.5t-41.5 61.5t-15 76zM69 188q0 -38 14 -70.5t38.5 -57 t57 -38.5t70.5 -14q37 0 70 14t58 38.5t39 57t14 70.5q0 37 -14 70t-39 58t-58 39t-70 14q-38 0 -70.5 -14t-57 -39t-38.5 -58t-14 -70z" />
<glyph unicode="e" horiz-adv-x="451" d="M36 188q0 40 15 76t41.5 62t61.5 41.5t76 15.5q58 0 103.5 -34.5t65.5 -89.5q-85 -35 -168.5 -68.5t-168.5 -68.5q20 -51 65 -82.5t103 -31.5q36 0 68 13t56 36q2 -3 4.5 -5.5t4.5 -5.5q-26 -24 -60 -38t-73 -14q-41 0 -76 15t-61.5 41.5t-41.5 61.5t-15 76zM50 188 q0 -29 7 -53q81 33 162 65.5t162 65.5q-20 46 -60.5 74.5t-90.5 28.5q-38 0 -70.5 -14t-57 -39t-38.5 -58t-14 -70z" />
<glyph unicode="f" horiz-adv-x="272" d="M22 358v14h65v146q0 55 14.5 98t40 72t59 44.5t71.5 17.5v-14q-34 0 -65 -15t-54.5 -43t-37.5 -67.5t-14 -88.5v-150h130v-14h-130v-358h-14v358h-65z" />
<glyph unicode="g" horiz-adv-x="518" d="M49 188q0 40 15 76t41.5 62t61.5 41.5t76 15.5q62 0 110.5 -34.5t70.5 -88.5q0 29 1 57.5t3 57.5h10v-393q0 -56 -14.5 -98.5t-40 -71.5t-59 -45t-71.5 -17q-41 2 -83 14.5t-68 45.5q3 2 6.5 3.5t6.5 3.5q24 -30 63 -41.5t75 -11.5q34 0 65.5 15t54.5 43t37 67.5t14 88.5 v76q0 16 0.5 31.5t0.5 31.5q-11 -27 -29 -49.5t-41.5 -39t-52 -25.5t-59.5 -9q-41 0 -76 15t-61.5 41.5t-41.5 61.5t-15 76zM63 188q0 -38 14 -70.5t38.5 -57t57 -38.5t70.5 -14q37 0 70 14t58 38.5t39 57t14 70.5q0 37 -14 70t-39 58t-58 39t-70 14q-38 0 -70.5 -14 t-57 -39t-38.5 -58t-14 -70z" />
<glyph unicode="h" horiz-adv-x="483" d="M117 0v750h14v-428l-3 -45q20 47 64 76t101 29q53 0 83.5 -31t32.5 -81v-270h-14v277q-2 36 -26.5 62.5t-68.5 28.5q-34 0 -64.5 -11t-54 -30.5t-37 -47t-13.5 -59.5v-220h-14z" />
<glyph unicode="i" horiz-adv-x="179" d="M73 500q0 8 6 14t14 6t14 -6t6 -14t-6 -14t-14 -6t-14 6t-6 14zM86 0v375h14v-375h-14z" />
<glyph unicode="j" horiz-adv-x="225" d="M56 -171q25 28 40 68.5t15 91.5v386h14v-382q0 -57 -15.5 -100.5t-41.5 -72.5zM98 500q0 8 6 14t14 6t14 -6t6 -14t-6 -14t-14 -6t-14 6t-6 14z" />
<glyph unicode="k" horiz-adv-x="449" d="M90 0v750h14v-574q57 54 111.5 104t111.5 104q2 -2 4.5 -5t4.5 -5q-38 -36 -73 -69.5t-73 -69.5q43 -59 86 -117.5t86 -117.5h-18q-42 57 -83 112.5t-83 112.5q-19 -17 -37 -35t-37 -35v-155h-14z" />
<glyph unicode="l" horiz-adv-x="183" d="M86 0v750h14v-750h-14z" />
<glyph unicode="m" horiz-adv-x="796" d="M117 0v375h14v-53l-3 -45q20 47 64 76t101 29q49 0 79.5 -27.5t35.5 -72.5q21 45 64.5 72.5t98.5 27.5q53 0 83.5 -31t32.5 -81v-270h-14v277q-2 36 -26.5 62.5t-68.5 28.5q-33 0 -63 -10.5t-53 -29.5t-37.5 -45t-15.5 -57v-226h-14v277q-2 36 -26.5 62.5t-68.5 28.5 q-34 0 -64.5 -11t-54 -30.5t-37 -47t-13.5 -59.5v-220h-14z" />
<glyph unicode="n" horiz-adv-x="495" d="M117 0v375h14v-53l-3 -45q20 47 64 76t101 29q53 0 83.5 -31t32.5 -81v-270h-14v277q-2 36 -26.5 62.5t-68.5 28.5q-34 0 -64.5 -11t-54 -30.5t-37 -47t-13.5 -59.5v-220h-14z" />
<glyph unicode="o" horiz-adv-x="468" d="M36 188q0 40 15 76t41.5 62.5t61.5 42t76 15.5q40 0 76 -15.5t62.5 -42t42 -62.5t15.5 -76q0 -41 -15.5 -76t-42 -61.5t-62.5 -41.5t-76 -15q-41 0 -76 15t-61.5 41.5t-41.5 61.5t-15 76zM50 188q0 -38 14 -70.5t38.5 -57t57 -38.5t70.5 -14q37 0 70 14t58 38.5t39 57 t14 70.5q0 37 -14 70t-39 58t-58 39t-70 14q-38 0 -70.5 -14t-57 -39t-38.5 -58t-14 -70z" />
<glyph unicode="p" horiz-adv-x="525" d="M67 -250v625h14q0 -29 -0.5 -59t-0.5 -59q21 55 70 89.5t112 34.5q40 0 75.5 -15t62 -41.5t41.5 -62t15 -75.5q0 -41 -15 -76.5t-41.5 -61.5t-62 -41.5t-75.5 -15.5q-31 0 -59.5 9t-52 25.5t-41.5 39t-28 49.5q0 -14 0.5 -27t0.5 -27v-311h-15zM81 187q0 -38 14 -70.5 t39 -57.5t57.5 -39t70.5 -14q37 0 70 14t57.5 39t38.5 57.5t14 70.5q0 37 -14 70t-38.5 57.5t-57.5 38.5t-70 14q-38 0 -70.5 -14t-57.5 -38.5t-39 -57.5t-14 -70z" />
<glyph unicode="q" horiz-adv-x="512" d="M53 187q0 40 15 75.5t41.5 62t61.5 41.5t76 15q63 0 112 -34.5t70 -89.5q0 29 -0.5 59t-0.5 59h14v-625h-15v311q0 14 0.5 27t0.5 27q-11 -27 -28.5 -49.5t-41 -39t-52 -25.5t-59.5 -9q-41 0 -76 15.5t-61.5 41.5t-41.5 61.5t-15 76.5zM67 187q0 -38 14 -70.5t38.5 -57.5 t57 -39t70.5 -14q37 0 70 14t58 39t39 57.5t14 70.5q0 37 -14 70t-39 57.5t-58 38.5t-70 14q-38 0 -70.5 -14t-57 -38.5t-38.5 -57.5t-14 -70z" />
<glyph unicode="r" horiz-adv-x="331" d="M117 0v375h14v-53l-3 -45q21 48 65 75.5t101 29.5v-14q-33 -1 -62.5 -12.5t-52 -31t-35.5 -46.5t-13 -58v-220h-14z" />
<glyph unicode="s" horiz-adv-x="350" d="M57 39q3 2 5.5 4.5t5.5 4.5q6 -9 19 -17t28 -13.5t30.5 -8.5t28.5 -3q15 0 32 6t31.5 17.5t24.5 28.5t10 40q0 31 -15 48t-37 26.5t-48.5 16.5t-48.5 16.5t-37 26.5t-15 48q0 24 8.5 42t23 31t32.5 19.5t37 6.5q21 0 49.5 -9.5t49.5 -33.5l-10 -10q-17 20 -43.5 29.5 t-47.5 9.5q-13 0 -27.5 -4t-27.5 -13.5t-21.5 -25t-8.5 -41.5q0 -27 14 -41q15 -16 37.5 -25t48.5 -15.5t48.5 -17.5t37.5 -29.5t15 -51.5q0 -19 -7 -38.5t-21.5 -35t-36 -25.5t-51.5 -10q-26 0 -59 10.5t-54 36.5z" />
<glyph unicode="t" horiz-adv-x="278" d="M46 353v14h89v252h14v-252h127v-14h-127v-353h-14v353h-89z" />
<glyph unicode="u" horiz-adv-x="529" d="M117 105v270h14v-277q2 -36 26.5 -62.5t68.5 -28.5q34 0 64.5 11t53.5 30.5t37 47t14 59.5v220h14v-375h-14v53l3 45q-20 -48 -64.5 -76.5t-100.5 -28.5q-53 0 -83.5 31t-32.5 81z" />
<glyph unicode="v" horiz-adv-x="500" d="M54 375h15q46 -91 91.5 -183t91.5 -184q46 92 91.5 183.5t91.5 183.5h15q-50 -100 -99 -199t-99 -199q-50 100 -99 199t-99 199z" />
<glyph unicode="w" horiz-adv-x="772" d="M57 375h15q45 -92 91 -184t92 -183q32 65 64 129t64 129q-14 27 -27 54.5t-27 54.5h15q45 -92 91 -184t92 -183q46 92 91.5 183.5t91.5 183.5h15q-50 -100 -99 -199t-99 -199q-34 69 -68 137t-68 137q-34 -69 -68 -137t-68 -137q-50 100 -99 199t-99 199z" />
<glyph unicode="x" horiz-adv-x="385" d="M42 375h18l129 -177q32 45 63 88t63 88h17q-34 -48 -67.5 -94t-67.5 -94q35 -47 68.5 -93t68.5 -93h-16q-32 44 -64.5 87.5t-64.5 87.5q-32 -44 -62.5 -87.5t-62.5 -87.5h-18q34 47 67 93.5t67 93.5q-35 48 -69 94t-69 94z" />
<glyph unicode="y" horiz-adv-x="486" d="M46 375h18q45 -91 90 -180.5t90 -180.5q45 91 90 180.5t90 180.5h18q-78 -157 -155.5 -312.5t-155.5 -312.5h-19l123 246q-48 95 -94.5 189.5t-94.5 189.5z" />
<glyph unicode="z" horiz-adv-x="451" d="M42 0v14q84 88 162 173.5t162 173.5h-241q-31 0 -45.5 8t-14.5 37v4h16v-12q0 -9 6.5 -16t23.5 -7h273v-14q-84 -88 -162 -173.5t-162 -173.5h341v-14h-359z" />
<glyph unicode="{" horiz-adv-x="272" d="M30 287v24q24 1 39.5 14.5t24.5 33.5t12 43.5t3 43.5v182q0 45 7.5 69.5t19.5 35t27.5 12t31.5 1.5h37v-14h-57q-31 0 -41.5 -26t-10.5 -86v-150q0 -47 -5.5 -77t-14.5 -48.5t-21 -28.5t-25 -17q13 -8 25 -18t21 -29t14.5 -48.5t5.5 -75.5v-150q0 -60 10.5 -86t41.5 -26 h57v-14h-37q-20 0 -36 2t-27 16t-17 45.5t-6 90.5v146q0 20 -3 43.5t-12 43.5t-24.5 33.5t-39.5 14.5z" />
<glyph unicode="|" horiz-adv-x="219" d="M99 -232v932h14v-932h-14z" />
<glyph unicode="}" horiz-adv-x="320" d="M88 -134h57q31 0 41.5 26t10.5 86v187q0 34 7 57t17 38.5t21.5 24.5t20.5 14q-13 7 -25 17t-21 28.5t-14.5 48.5t-5.5 77v150q0 60 -10.5 86t-41.5 26h-57v14h37q16 0 31.5 -1.5t27.5 -12t19.5 -34.5t7.5 -70v-146v-28.5t2 -35.5t6 -37.5t13 -33.5t23 -25t35 -11v-24 q-32 -2 -48 -22.5t-23 -48t-7.5 -55.5t-0.5 -45v-146q0 -46 -7.5 -70.5t-19.5 -35t-27.5 -11.5t-31.5 -1h-37v14z" />
<glyph unicode="~" horiz-adv-x="489" d="M132 474q1 18 9 31t19.5 21t25.5 11.5t28 3.5q20 0 36.5 -10.5t32.5 -27.5q16 -18 28 -24t26 -6q8 0 18.5 2.5t20.5 8.5t17.5 16.5t9.5 27.5q3 -1 6.5 -1t6.5 -1q-1 -18 -9 -31t-19.5 -21t-25.5 -11.5t-28 -3.5q-20 0 -36.5 10.5t-32.5 27.5q-16 18 -28 24t-26 6 q-8 0 -18.5 -2.5t-20.5 -8.5t-17.5 -16.5t-9.5 -27.5q-3 1 -6.5 1t-6.5 1z" />
<glyph unicode="&#xa0;" />
<glyph unicode="&#xa1;" horiz-adv-x="200" d="M81 484q0 -9 6 -14.5t13 -5.5q8 0 14 5.5t6 14.5q0 8 -6 14t-14 6q-7 0 -13 -6t-6 -14zM93 -210h14v584h-14v-584z" />
<glyph unicode="&#xa2;" horiz-adv-x="385" d="M36 188q0 39 14 73t38 60t56.5 42t70.5 19v56h14v-55q35 0 67 -11.5t57 -31.5q-2 -3 -5 -5.5t-5 -5.5q-23 19 -52.5 29.5t-61.5 10.5v-361q32 0 61.5 10.5t52.5 28.5l10 -10q-26 -20 -57.5 -31.5t-66.5 -11.5v-62h-14v63q-38 3 -70.5 19t-56.5 41.5t-38 59.5t-14 73z M50 188q0 -36 12.5 -67.5t35 -55.5t52.5 -39t65 -18v360q-35 -3 -65 -18t-52.5 -39t-35 -55.5t-12.5 -67.5z" />
<glyph unicode="&#xa3;" horiz-adv-x="574" d="M26 0v14h44q18 0 28.5 7.5t15.5 24.5t6.5 46t1.5 72v147h-65v14h65v175q0 70 43.5 102t115.5 32q67 0 101.5 -24.5t54.5 -64.5q-2 -2 -5 -3t-5 -3q-13 24 -26 39.5t-30 24.5t-38.5 13t-51.5 4q-42 0 -70 -9.5t-44.5 -25.5t-23.5 -37t-7 -44v-179h129v-14h-129v-162v-40 q0 -29 -4.5 -55t-18.5 -40h206h41q60 0 86 10.5t26 41.5v57h14v-37q0 -16 -1.5 -31.5t-12 -27.5t-34.5 -19.5t-70 -7.5h-342z" />
<glyph unicode="&#xa4;" horiz-adv-x="500" d="M109 229l41 41q-35 38 -35 91q0 25 8.5 47t23.5 40l-38 38l10 10l38 -38q17 17 40.5 26.5t49.5 9.5t49.5 -10t40.5 -27l38 38l10 -10l-38 -38q15 -17 23.5 -39t8.5 -47q0 -26 -9.5 -49t-25.5 -41l41 -41l-10 -10l-41 41q-36 -33 -87 -33q-25 0 -47.5 8.5t-39.5 23.5 l-41 -41zM129 361q0 -25 9.5 -46.5t25.5 -37.5t37.5 -25.5t45.5 -9.5t45.5 9.5t37.5 25.5t25.5 37.5t9.5 46.5t-9.5 46.5t-25.5 37.5t-37.5 25.5t-45.5 9.5t-45.5 -9.5t-37.5 -25.5t-25.5 -37.5t-9.5 -46.5z" />
<glyph unicode="&#xa5;" horiz-adv-x="638" d="M48 700h17q60 -101 120.5 -201t120.5 -201q3 -7 6 -13t6 -13h1q3 7 5.5 13t5.5 13l240 402h17q-64 -106 -127 -211.5t-127 -211.5h150v-14h-158v-149h158v-14h-158v-100h-14v100h-161v14h161v149h-161v14h152q-64 106 -127 211.5t-127 211.5z" />
<glyph unicode="&#xa6;" horiz-adv-x="215" d="M102 117h14v-350h-14v350zM102 350v350h14v-350h-14z" />
<glyph unicode="&#xa7;" horiz-adv-x="500" d="M146 346.5q-3 22.5 2.5 43.5t18.5 39t33 30q27 15 57 13.5t56 -16.5q-17 27 -32 54.5t-31 55.5q-28 49 -31 74t7 41t32.5 28t39.5 21q2 -3 3.5 -6t3.5 -6q-13 -8 -25 -14.5t-25 -14.5q-26 -15 -22.5 -43t33.5 -80q22 -38 43.5 -75.5t43.5 -75.5q12 -20 14.5 -42t-3 -43 t-18.5 -38.5t-33 -29.5q-27 -16 -57 -15t-56 17q16 -28 32 -55t32 -55q14 -24 21 -42.5t9.5 -32t0 -23t-6.5 -17.5q-10 -17 -32.5 -29t-39.5 -20q-2 3 -3.5 6t-3.5 6q13 8 25 14.5t25 14.5q26 15 22.5 43t-33.5 80l-87 150q-12 20 -15 42.5zM159.5 357q1.5 -25 13.5 -46 q15 -27 41.5 -39t55.5 -10q21 2 37.5 12.5t27.5 25.5t16.5 34t2.5 37q-3 22 -13.5 39t-26 28.5t-34 16.5t-36.5 4q-29 -3 -48 -18.5t-28.5 -37t-8 -46.5z" />
<glyph unicode="&#xa8;" horiz-adv-x="370" d="M82 500q0 8 6 14t14 6t14 -6t6 -14t-6 -14t-14 -6t-14 6t-6 14zM247 500q0 8 6 14t14 6t14 -6t6 -14t-6 -14t-14 -6t-14 6t-6 14z" />
<glyph unicode="&#xa9;" horiz-adv-x="793" d="M145 372q0 55 19.5 102t54 81t81 53t100.5 19t100.5 -19t81 -53t54 -81t19.5 -102t-19.5 -101.5t-54 -80.5t-81 -53t-100.5 -19t-100.5 19t-81 53t-54 80.5t-19.5 101.5zM159 371q0 -51 19 -94.5t52 -76t76.5 -50.5t92.5 -18q50 0 94 18t77 50.5t52 76t19 94.5 q0 52 -19 96.5t-52 77t-77 50.5t-94 18q-49 0 -92.5 -18t-76.5 -50.5t-52 -77t-19 -96.5zM244 375q0 34 12.5 63.5t34.5 51.5t51.5 34.5t62.5 12.5q45 0 83 -22q-2 -4 -4 -6q-36 22 -79 22q-32 0 -60 -12.5t-49 -34t-33.5 -50t-12.5 -60.5t12 -60t33 -49t49 -33t60 -12 q22 0 42 5.5t37 15.5l5 -5q-18 -11 -39 -17t-44 -6q-33 0 -62.5 13t-51.5 35t-34.5 51.5t-12.5 62.5z" />
<glyph unicode="&#xaa;" horiz-adv-x="585" d="M77 357q0 28 11 54t30 45t44.5 30t54.5 11q45 0 80 -25t51 -63q0 20 0.5 41t2.5 41h7v-270h-10v39q0 11 0.5 22.5t0.5 22.5q-8 -19 -21 -35.5t-30 -28t-37.5 -18t-43.5 -6.5q-29 0 -54.5 10.5t-44.5 30t-30 44.5t-11 55zM87 357q0 -28 10.5 -51.5t28 -41t41 -27.5 t50.5 -10t51 10t42 27.5t28 41t10 51.5q0 26 -10 50t-28 42t-42 28t-51 10t-50.5 -10t-41 -28t-28 -42t-10.5 -50z" />
<glyph unicode="&#xab;" horiz-adv-x="601" d="M117 239q43 41 85.5 80.5t85.5 80.5v-17q-35 -36 -71 -72t-71 -72q35 -37 71 -73t71 -73v-16zM288 239q43 41 85.5 80.5t85.5 80.5v-17q-35 -36 -71 -72t-71 -72q35 -37 71 -73t71 -73v-16z" />
<glyph unicode="&#xac;" horiz-adv-x="559" d="M100 227v14h360v-93h-14v79h-346z" />
<glyph unicode="&#xad;" d="M53 184v14h184v-14h-184z" />
<glyph unicode="&#xae;" horiz-adv-x="801" d="M145 372q0 55 19.5 102t54 81t81 53t100.5 19t100.5 -19t81 -53t54 -81t19.5 -102t-19.5 -101.5t-54 -80.5t-81 -53t-100.5 -19t-100.5 19t-81 53t-54 80.5t-19.5 101.5zM159 371q0 -51 19 -94.5t52 -76t76.5 -50.5t92.5 -18q50 0 94 18t77 50.5t52 76t19 94.5 q0 52 -19 96.5t-52 77t-77 50.5t-94 18q-49 0 -92.5 -18t-76.5 -50.5t-52 -77t-19 -96.5zM334 210v331h66q13 0 29.5 -4.5t31 -15t24 -26.5t9.5 -38q0 -33 -18.5 -54.5t-53.5 -28.5q20 -42 39 -82.5t38 -81.5h-7q-19 41 -38 81t-39 82q-5 -1 -10.5 -1.5t-11.5 -0.5h-53v-161 h-6zM340 378h55q27 0 45 7.5t28.5 19t14.5 25.5t4 27q0 31 -26.5 54t-65.5 23h-55v-156z" />
<glyph unicode="&#xaf;" horiz-adv-x="399" d="M85 492v14h230v-14h-230z" />
<glyph unicode="&#xb0;" horiz-adv-x="282" d="M61 559q0 33 22 55t55 22q32 0 54 -22t22 -55q0 -32 -22 -53.5t-54 -21.5q-33 0 -55 21.5t-22 53.5zM75 560q0 -26 18.5 -44t44.5 -18t44 18t18 44t-18 44t-44 18t-44.5 -18t-18.5 -44z" />
<glyph unicode="&#xb1;" horiz-adv-x="524" d="M86 136v14h360v-14h-360zM86 385v14h173v172h14v-172h173v-14h-173v-174h-14v174h-173z" />
<glyph unicode="&#xb2;" horiz-adv-x="398" d="M63 417q0 19 5.5 36t16.5 30t28 20t38 7q19 0 35 -7t27.5 -20t18 -30.5t6.5 -38.5q0 -28 -15 -56.5t-37.5 -56.5t-50 -55t-53.5 -54h178v-7h-196q32 31 62 60.5t53 58t37.5 55t14.5 49.5q0 28 -8 46t-20 29t-26 15.5t-26 4.5q-25 0 -40.5 -8.5t-24.5 -21.5t-12.5 -28.5 t-3.5 -27.5q0 -35 20 -57q-1 -1 -2.5 -2t-2.5 -2q-10 12 -16 26t-6 35z" />
<glyph unicode="&#xb3;" horiz-adv-x="419" d="M71 216l2.5 2.5t2.5 3.5q12 -14 29 -23t38 -9q19 0 36.5 7.5t30.5 20t20.5 29.5t7.5 36t-7.5 36t-20.5 29.5t-30.5 20t-36.5 7.5q-8 0 -15.5 -3t-14.5 -8q26 34 52 67.5t52 67.5h-141v7h157q-25 -31 -49 -62t-49 -62q22 1 42 -6t35 -20.5t24 -32.5t9 -41q0 -21 -8 -39 t-22 -31.5t-32 -21.5t-39 -8q-22 0 -40.5 9t-32.5 24z" />
<glyph unicode="&#xb4;" horiz-adv-x="218" d="M100 479q23 33 45 66.5t45 66.5h16q-23 -33 -45 -66.5t-45 -66.5h-16z" />
<glyph unicode="&#xb5;" horiz-adv-x="545" d="M117 -201v576h14v-277q2 -36 26.5 -62.5t68.5 -28.5q34 0 64.5 11t53.5 30.5t37 47t14 59.5v220h14v-375h-14v53l3 45q-20 -48 -64.5 -76.5t-100.5 -28.5q-36 0 -62 15t-40 41v-250h-14z" />
<glyph unicode="&#xb6;" horiz-adv-x="489" d="M38 586q0 34 12.5 64t34.5 52t52 35t64 13h177v-750h-14v736h-149v-736h-14v423q-34 0 -64 12.5t-52 34.5t-34.5 52t-12.5 64z" />
<glyph unicode="&#xb7;" horiz-adv-x="163" d="M66 280q0 8 6 14t14 6t14 -6t6 -14t-6 -14t-14 -6t-14 6t-6 14z" />
<glyph unicode="&#xb8;" horiz-adv-x="452" d="M125 -165q4 1 7.5 2t7.5 2q6 -21 23.5 -34.5t42.5 -13.5q31 0 50.5 20.5t19.5 51.5q0 28 -13 43t-28.5 25.5t-28.5 21.5t-13 31v16h14v-6q0 -26 14 -36.5t27 -18.5q23 -15 32.5 -33.5t9.5 -32.5q0 -51 -25.5 -73.5t-58.5 -22.5q-26 0 -48.5 14.5t-32.5 43.5z" />
<glyph unicode="&#xb9;" horiz-adv-x="249" d="M41 477v6h58v-299h-7v293h-51z" />
<glyph unicode="&#xba;" horiz-adv-x="469" d="M73 357q0 28 11 54t30 45.5t44 30.5t55 11q29 0 55 -11t45 -30.5t30 -45.5t11 -54q0 -30 -11 -55t-30 -44.5t-45 -30t-55 -10.5q-30 0 -55 10.5t-44 30t-30 44.5t-11 55zM83 357q0 -28 10 -51.5t28 -41t41 -27.5t51 -10q27 0 50.5 10t41.5 27.5t28 41t10 51.5 q0 26 -10 50t-28 42t-41.5 28t-50.5 10q-28 0 -51 -10t-41 -28t-28 -42t-10 -50z" />
<glyph unicode="&#xbb;" horiz-adv-x="601" d="M117 77l171 162q-43 41 -85.5 80.5t-85.5 80.5v-17q35 -36 71 -72t71 -72q-35 -37 -71 -73t-71 -73v-16zM288 77l171 162q-43 41 -85.5 80.5t-85.5 80.5v-17q35 -36 71 -72t71 -72q-35 -37 -71 -73t-71 -73v-16z" />
<glyph unicode="&#xbc;" horiz-adv-x="968" d="M105 617v10h90v-461h-10v451h-80zM295 -19q70 190 139 377t139 377h14q-70 -190 -139 -377t-139 -377h-14zM379 136q69 89 136.5 177t135.5 177v-343h72v-11h-72v-136h-10v136h-262zM402 147h239v312q-60 -78 -119.5 -155.5t-119.5 -156.5z" />
<glyph unicode="&#xbd;" horiz-adv-x="1069" d="M93 617v10h90v-461h-10v451h-80zM295 -19q70 190 139 377t139 377h14q-70 -190 -139 -377t-139 -377h-14zM426 331q0 29 8.5 53t24 42t39.5 28.5t54 10.5q28 0 50.5 -10.5t39 -28.5t25.5 -43t9 -55q0 -41 -21 -81.5t-53.5 -80.5t-71.5 -79t-76 -77h254v-10h-280 q46 44 89 86.5t76 83.5t53 78.5t20 70.5q0 40 -11.5 66t-28.5 41.5t-36.5 22t-37.5 6.5q-35 0 -57.5 -12.5t-35.5 -31t-18 -40t-5 -40.5q0 -50 29 -80q-2 -2 -3.5 -3t-3.5 -3q-15 17 -23.5 37t-8.5 49z" />
<glyph unicode="&#xbe;" horiz-adv-x="1276" d="M135 204q1 2 3.5 4.5t3.5 5.5q19 -23 46 -36.5t59 -13.5q30 0 57.5 11.5t47.5 31.5t32 46.5t12 56.5t-12 56.5t-32 46t-47.5 31t-57.5 11.5q-12 0 -24 -4.5t-23 -12.5q42 53 82 106t81 106h-221v11h246q-38 -49 -76.5 -97.5t-76.5 -97.5q34 2 65.5 -9.5t55 -32 t37.5 -50.5t14 -64q0 -33 -12.5 -61.5t-34 -49.5t-50 -33.5t-61.5 -12.5q-34 0 -63.5 14t-50.5 37zM460 -19q70 190 139 377.5t139 377.5h14q-70 -190 -139 -377.5t-139 -377.5h-14zM529 136q68 89 136 177t136 177v-343h73v-11h-73v-136h-10v136h-262zM551 147h240v312 q-61 -78 -120.5 -155.5t-119.5 -156.5z" />
<glyph unicode="&#xbf;" horiz-adv-x="410" d="M37 2q0 54 26.5 94.5t71.5 72.5q20 14 36.5 23.5t29 21.5t19.5 31t7 52v78h14v-97q0 -31 -11.5 -49.5t-30 -33t-42 -29t-47.5 -35.5q-31 -27 -45 -59.5t-14 -69.5q0 -39 14 -72t38.5 -57.5t58 -38t71.5 -13.5q30 0 57 9t50 25t39.5 38.5t25.5 49.5q3 -1 6.5 -1.5 t6.5 -1.5q-20 -58 -70 -95.5t-115 -37.5q-41 0 -77 15.5t-62.5 42t-41.5 62t-15 75.5zM214 494q0 8 6 14t14 6q7 0 13 -6t6 -14q0 -9 -6 -14.5t-13 -5.5q-8 0 -14 5.5t-6 14.5z" />
<glyph unicode="&#xc0;" horiz-adv-x="740" d="M60 0q78 184 155 366t155 366q78 -184 155 -366t155 -366h-15q-34 79 -67 158t-67 158h-322q-34 -79 -67 -158t-67 -158h-15zM215 330h310q-37 87 -73 172.5t-73 172.5q-2 6 -4.5 12.5t-4.5 12.5q-35 -94 -75.5 -185.5t-79.5 -184.5zM282 883h16q23 -33 45 -66.5 t45 -66.5h-16q-23 33 -45 66.5t-45 66.5z" />
<glyph unicode="&#xc1;" horiz-adv-x="740" d="M60 0q78 184 155 366t155 366q78 -184 155 -366t155 -366h-15q-34 79 -67 158t-67 158h-322q-34 -79 -67 -158t-67 -158h-15zM215 330h310q-37 87 -73 172.5t-73 172.5q-2 6 -4.5 12.5t-4.5 12.5q-35 -94 -75.5 -185.5t-79.5 -184.5zM356 750q23 33 45 66.5t45 66.5h16 q-23 -33 -45 -66.5t-45 -66.5h-16z" />
<glyph unicode="&#xc2;" horiz-adv-x="740" d="M60 0q78 184 155 366t155 366q78 -184 155 -366t155 -366h-15q-34 79 -67 158t-67 158h-322q-34 -79 -67 -158t-67 -158h-15zM215 330h310q-37 87 -73 172.5t-73 172.5q-2 6 -4.5 12.5t-4.5 12.5q-35 -94 -75.5 -185.5t-79.5 -184.5zM251 750q30 45 60 90.5t60 90.5 q30 -45 60 -90.5t60 -90.5h-16q-26 38 -52 77t-52 77q-26 -38 -52 -77t-52 -77h-16z" />
<glyph unicode="&#xc3;" horiz-adv-x="740" d="M60 0q78 184 155 366t155 366q78 -184 155 -366t155 -366h-15q-34 79 -67 158t-67 158h-322q-34 -79 -67 -158t-67 -158h-15zM215 330h310q-37 87 -73 172.5t-73 172.5q-2 6 -4.5 12.5t-4.5 12.5q-35 -94 -75.5 -185.5t-79.5 -184.5zM223 762q1 18 9 31t19.5 21 t25.5 11.5t28 3.5q20 0 36.5 -10.5t32.5 -27.5q16 -18 28 -24t26 -6q8 0 18.5 2.5t20.5 8.5t17.5 16.5t9.5 27.5q3 -1 6.5 -1t6.5 -1q-1 -18 -9 -31t-19.5 -21t-25.5 -11.5t-28 -3.5q-20 0 -36.5 10.5t-32.5 27.5q-16 18 -28 24t-26 6q-8 0 -18.5 -2.5t-20.5 -8.5 t-17.5 -16.5t-9.5 -27.5q-3 1 -6.5 1t-6.5 1z" />
<glyph unicode="&#xc4;" horiz-adv-x="740" d="M60 0q78 184 155 366t155 366q78 -184 155 -366t155 -366h-15q-34 79 -67 158t-67 158h-322q-34 -79 -67 -158t-67 -158h-15zM215 330h310q-37 87 -73 172.5t-73 172.5q-2 6 -4.5 12.5t-4.5 12.5q-35 -94 -75.5 -185.5t-79.5 -184.5zM269 790q0 8 6 14t14 6t14 -6t6 -14 t-6 -14t-14 -6t-14 6t-6 14zM434 790q0 8 6 14t14 6t14 -6t6 -14t-6 -14t-14 -6t-14 6t-6 14z" />
<glyph unicode="&#xc5;" horiz-adv-x="740" d="M60 0q78 184 155 366t155 366q78 -184 155 -366t155 -366h-15q-34 79 -67 158t-67 158h-322q-34 -79 -67 -158t-67 -158h-15zM215 330h310q-37 87 -73 172.5t-73 172.5q-2 6 -4.5 12.5t-4.5 12.5q-35 -94 -75.5 -185.5t-79.5 -184.5zM308 834q0 27 18 45t45 18t45 -18 t18 -45t-18 -45t-45 -18t-45 18t-18 45zM322 834q0 -20 14.5 -34.5t34.5 -14.5t34.5 14.5t14.5 34.5t-14.5 34.5t-34.5 14.5t-34.5 -14.5t-14.5 -34.5z" />
<glyph unicode="&#xc6;" horiz-adv-x="787" d="M60 0q75 176 148 350t148 350h324v-14h-310v-326h271v-14h-271v-332h324v-14h-338v316h-147q-34 -79 -67 -158t-67 -158h-15zM215 330h141v336q-32 -86 -69 -168.5t-72 -167.5z" />
<glyph unicode="&#xc7;" horiz-adv-x="670" d="M62 349q0 74 28 139.5t76.5 114t113.5 77t139 28.5q51 0 96.5 -13t86.5 -37l-4 -6l-4 -6q-38 23 -82.5 35.5t-92.5 12.5q-71 0 -133.5 -27.5t-109 -74.5t-73.5 -110t-27 -134t27 -133t73 -108.5t108 -73.5t132 -27q48 0 92.5 12.5t83.5 35.5l9 -12q-40 -23 -85.5 -36.5 t-96.5 -13.5q1 -25 14.5 -35t26.5 -18q23 -15 32.5 -33.5t9.5 -32.5q0 -51 -25.5 -73.5t-58.5 -22.5q-26 0 -48.5 14.5t-32.5 43.5q4 1 7.5 2t7.5 2q6 -21 23.5 -34.5t42.5 -13.5q31 0 50.5 20.5t19.5 51.5q0 28 -13 43t-28.5 25.5t-28.5 21.5t-13 31v9q-72 3 -134.5 31.5 t-109 76.5t-73 112t-26.5 136z" />
<glyph unicode="&#xc8;" horiz-adv-x="601" d="M95 0v700h405v-14h-391v-326h352v-14h-352v-332h405v-14h-419zM199 883h16q23 -33 45 -66.5t45 -66.5h-16q-23 33 -45 66.5t-45 66.5z" />
<glyph unicode="&#xc9;" horiz-adv-x="601" d="M95 0v700h405v-14h-391v-326h352v-14h-352v-332h405v-14h-419zM277 750q23 33 45 66.5t45 66.5h16q-23 -33 -45 -66.5t-45 -66.5h-16z" />
<glyph unicode="&#xca;" horiz-adv-x="601" d="M95 0v700h405v-14h-391v-326h352v-14h-352v-332h405v-14h-419zM180 750q30 45 60 90.5t60 90.5q30 -45 60 -90.5t60 -90.5h-16q-26 38 -52 77t-52 77q-26 -38 -52 -77t-52 -77h-16z" />
<glyph unicode="&#xcb;" horiz-adv-x="601" d="M95 0v700h405v-14h-391v-326h352v-14h-352v-332h405v-14h-419zM194 790q0 8 6 14t14 6t14 -6t6 -14t-6 -14t-14 -6t-14 6t-6 14zM359 790q0 8 6 14t14 6t14 -6t6 -14t-6 -14t-14 -6t-14 6t-6 14z" />
<glyph unicode="&#xcc;" horiz-adv-x="236" d="M22 883h16q23 -33 45 -66.5t45 -66.5h-16q-23 33 -45 66.5t-45 66.5zM107 0v700h14v-700h-14z" />
<glyph unicode="&#xcd;" horiz-adv-x="236" d="M96 750q23 33 45 66.5t45 66.5h16q-23 -33 -45 -66.5t-45 -66.5h-16zM107 0v700h14v-700h-14z" />
<glyph unicode="&#xce;" horiz-adv-x="236" d="M-5 750q30 45 60 90.5t60 90.5q30 -45 60 -90.5t60 -90.5h-16q-26 38 -52 77t-52 77q-26 -38 -52 -77t-52 -77h-16zM107 0v700h14v-700h-14z" />
<glyph unicode="&#xcf;" horiz-adv-x="236" d="M12 790q0 8 6 14t14 6t14 -6t6 -14t-6 -14t-14 -6t-14 6t-6 14zM107 0v700h14v-700h-14zM177 790q0 8 6 14t14 6t14 -6t6 -14t-6 -14t-14 -6t-14 6t-6 14z" />
<glyph unicode="&#xd0;" horiz-adv-x="646" d="M22 346v14h64v340h137q72 0 136 -24.5t112 -70t76 -110.5t28 -145q0 -59 -20.5 -121t-66.5 -113t-119.5 -83.5t-179.5 -32.5h-103v346h-64zM100 14h100q77 0 143 23.5t115 67.5t76.5 106t27.5 139q0 78 -26.5 140t-74.5 105.5t-114.5 67t-146.5 23.5h-100v-326h224v-14 h-224v-332z" />
<glyph unicode="&#xd1;" horiz-adv-x="813" d="M100 0v732q146 -178 290.5 -352.5t290.5 -351.5q5 -7 9.5 -13t9.5 -13q-1 8 -1.5 16t-1.5 16v666h14v-732q-146 177 -290.5 351t-290.5 351q-5 7 -9.5 13t-9.5 13q1 -8 1.5 -16t1.5 -16v-664h-14zM270 767q1 18 9 31t19.5 21t25.5 11.5t28 3.5q20 0 36.5 -10.5 t32.5 -27.5q16 -18 28 -24t26 -6q8 0 18.5 2.5t20.5 8.5t17.5 16.5t9.5 27.5q3 -1 6.5 -1t6.5 -1q-1 -18 -9 -31t-19.5 -21t-25.5 -11.5t-28 -3.5q-20 0 -36.5 10.5t-32.5 27.5q-16 18 -28 24t-26 6q-8 0 -18.5 -2.5t-20.5 -8.5t-17.5 -16.5t-9.5 -27.5q-3 1 -6.5 1t-6.5 1z " />
<glyph unicode="&#xd2;" horiz-adv-x="839" d="M63 349q0 74 28 139.5t76.5 114t113.5 77t139 28.5t139.5 -28.5t114 -77t77 -114t28.5 -139.5t-28.5 -139t-77 -113.5t-114 -76.5t-139.5 -28t-139 28t-113.5 76.5t-76.5 113.5t-28 139zM77 348q0 -71 27 -133t73 -108.5t108 -73.5t132 -27q71 0 134.5 27t111 73.5 t75 109t27.5 133.5t-27.5 133.5t-74.5 109.5t-109.5 74.5t-133.5 27.5t-133.5 -27.5t-109 -74.5t-73.5 -110t-27 -134zM328 883h16q23 -33 45 -66.5t45 -66.5h-16q-23 33 -45 66.5t-45 66.5z" />
<glyph unicode="&#xd3;" horiz-adv-x="840" d="M63 349q0 74 28 139.5t76.5 114t113.5 77t139 28.5t139.5 -28.5t114 -77t77 -114t28.5 -139.5t-28.5 -139t-77 -113.5t-114 -76.5t-139.5 -28t-139 28t-113.5 76.5t-76.5 113.5t-28 139zM77 348q0 -71 27 -133t73 -108.5t108 -73.5t132 -27q71 0 134.5 27t111 73.5 t75 109t27.5 133.5t-27.5 133.5t-74.5 109.5t-109.5 74.5t-133.5 27.5t-133.5 -27.5t-109 -74.5t-73.5 -110t-27 -134zM400 750q23 33 45 66.5t45 66.5h16q-23 -33 -45 -66.5t-45 -66.5h-16z" />
<glyph unicode="&#xd4;" horiz-adv-x="839" d="M63 349q0 74 28 139.5t76.5 114t113.5 77t139 28.5t139.5 -28.5t114 -77t77 -114t28.5 -139.5t-28.5 -139t-77 -113.5t-114 -76.5t-139.5 -28t-139 28t-113.5 76.5t-76.5 113.5t-28 139zM77 348q0 -71 27 -133t73 -108.5t108 -73.5t132 -27q71 0 134.5 27t111 73.5 t75 109t27.5 133.5t-27.5 133.5t-74.5 109.5t-109.5 74.5t-133.5 27.5t-133.5 -27.5t-109 -74.5t-73.5 -110t-27 -134zM296 750q30 45 60 90.5t60 90.5q30 -45 60 -90.5t60 -90.5h-16q-26 38 -52 77t-52 77q-26 -38 -52 -77t-52 -77h-16z" />
<glyph unicode="&#xd5;" horiz-adv-x="839" d="M63 349q0 74 28 139.5t76.5 114t113.5 77t139 28.5t139.5 -28.5t114 -77t77 -114t28.5 -139.5t-28.5 -139t-77 -113.5t-114 -76.5t-139.5 -28t-139 28t-113.5 76.5t-76.5 113.5t-28 139zM77 348q0 -71 27 -133t73 -108.5t108 -73.5t132 -27q71 0 134.5 27t111 73.5 t75 109t27.5 133.5t-27.5 133.5t-74.5 109.5t-109.5 74.5t-133.5 27.5t-133.5 -27.5t-109 -74.5t-73.5 -110t-27 -134zM273 801q1 18 9 31t19.5 21t25.5 11.5t28 3.5q20 0 36.5 -10.5t32.5 -27.5q16 -18 28 -24t26 -6q8 0 18.5 2.5t20.5 8.5t17.5 16.5t9.5 27.5q3 -1 6.5 -1 t6.5 -1q-1 -18 -9 -31t-19.5 -21t-25.5 -11.5t-28 -3.5q-20 0 -36.5 10.5t-32.5 27.5q-16 18 -28 24t-26 6q-8 0 -18.5 -2.5t-20.5 -8.5t-17.5 -16.5t-9.5 -27.5q-3 1 -6.5 1t-6.5 1z" />
<glyph unicode="&#xd6;" horiz-adv-x="839" d="M63 349q0 74 28 139.5t76.5 114t113.5 77t139 28.5t139.5 -28.5t114 -77t77 -114t28.5 -139.5t-28.5 -139t-77 -113.5t-114 -76.5t-139.5 -28t-139 28t-113.5 76.5t-76.5 113.5t-28 139zM77 348q0 -71 27 -133t73 -108.5t108 -73.5t132 -27q71 0 134.5 27t111 73.5 t75 109t27.5 133.5t-27.5 133.5t-74.5 109.5t-109.5 74.5t-133.5 27.5t-133.5 -27.5t-109 -74.5t-73.5 -110t-27 -134zM317 790q0 8 6 14t14 6t14 -6t6 -14t-6 -14t-14 -6t-14 6t-6 14zM482 790q0 8 6 14t14 6t14 -6t6 -14t-6 -14t-14 -6t-14 6t-6 14z" />
<glyph unicode="&#xd7;" horiz-adv-x="500" d="M130 10q31 31 61 61.5t61 61.5l-121 121l10 10l121 -121q31 31 61.5 61t61.5 61l10 -10q-31 -31 -61.5 -61t-61.5 -61l123 -123l-10 -10l-123 123q-31 -31 -61 -61.5t-61 -61.5z" />
<glyph unicode="&#xd8;" horiz-adv-x="840" d="M62 349q0 74 28 139.5t76.5 114t113.5 77t139 28.5q62 0 117.5 -20t101.5 -55q16 19 31 37.5t31 37.5q2 -2 4.5 -4t4.5 -4q-16 -19 -31 -37t-31 -37q60 -50 95.5 -121.5t35.5 -155.5q0 -74 -28.5 -139t-77 -113.5t-114 -76.5t-139.5 -28q-66 0 -125 22.5t-106 62.5 q-18 -21 -35.5 -42.5t-35.5 -42.5q-2 2 -4.5 4t-4.5 4q18 21 35.5 42.5t35.5 42.5q-54 49 -85.5 117t-31.5 147zM76 348q0 -76 30 -141t81 -112q111 133 220.5 263.5t220.5 263.5q-44 34 -97 53t-112 19q-71 0 -133.5 -27.5t-109 -74.5t-73.5 -110t-27 -134zM196 87 q45 -38 101 -59.5t119 -21.5q71 0 134.5 27t111 73.5t75 109t27.5 133.5q0 80 -34.5 149t-92.5 117z" />
<glyph unicode="&#xd9;" horiz-adv-x="652" d="M104 226v474h14v-471q0 -54 15.5 -95.5t43.5 -70t67 -43t85 -14.5q45 0 84 14.5t67 43t44 70t16 95.5v471h14v-474q0 -57 -17.5 -101t-47.5 -73.5t-71 -44.5t-89 -15t-89.5 15t-71.5 44.5t-47 73.5t-17 101zM233 883h16q23 -33 45 -66.5t45 -66.5h-16q-23 33 -45 66.5 t-45 66.5z" />
<glyph unicode="&#xda;" horiz-adv-x="652" d="M104 226v474h14v-471q0 -54 15.5 -95.5t43.5 -70t67 -43t85 -14.5q45 0 84 14.5t67 43t44 70t16 95.5v471h14v-474q0 -57 -17.5 -101t-47.5 -73.5t-71 -44.5t-89 -15t-89.5 15t-71.5 44.5t-47 73.5t-17 101zM300 750q23 33 45 66.5t45 66.5h16q-23 -33 -45 -66.5 t-45 -66.5h-16z" />
<glyph unicode="&#xdb;" horiz-adv-x="652" d="M104 226v474h14v-471q0 -54 15.5 -95.5t43.5 -70t67 -43t85 -14.5q45 0 84 14.5t67 43t44 70t16 95.5v471h14v-474q0 -57 -17.5 -101t-47.5 -73.5t-71 -44.5t-89 -15t-89.5 15t-71.5 44.5t-47 73.5t-17 101zM206 800q30 45 60 90.5t60 90.5q30 -45 60 -90.5t60 -90.5h-16 q-26 38 -52 77t-52 77q-26 -38 -52 -77t-52 -77h-16z" />
<glyph unicode="&#xdc;" horiz-adv-x="652" d="M104 226v474h14v-471q0 -54 15.5 -95.5t43.5 -70t67 -43t85 -14.5q45 0 84 14.5t67 43t44 70t16 95.5v471h14v-474q0 -57 -17.5 -101t-47.5 -73.5t-71 -44.5t-89 -15t-89.5 15t-71.5 44.5t-47 73.5t-17 101zM227 790q0 8 6 14t14 6t14 -6t6 -14t-6 -14t-14 -6t-14 6 t-6 14zM392 790q0 8 6 14t14 6t14 -6t6 -14t-6 -14t-14 -6t-14 6t-6 14z" />
<glyph unicode="&#xdd;" horiz-adv-x="638" d="M48 700h17q60 -101 121 -200.5t120 -201.5q3 -7 6 -13t6 -13h1q3 7 5.5 13t5.5 13l240 402h17q-66 -110 -131 -219t-131 -219v-262h-14v262q-66 110 -131.5 219t-131.5 219zM304 750q23 33 45 66.5t45 66.5h16q-23 -33 -45 -66.5t-45 -66.5h-16z" />
<glyph unicode="&#xde;" horiz-adv-x="501" d="M100 0v700h14v-165h126q29 0 64 -10t65 -31t50.5 -55t20.5 -82q0 -83 -55.5 -132t-158.5 -49h-112v-176h-14zM114 190h115q58 0 96 16t60.5 40.5t31.5 54t9 56.5q0 33 -15 62.5t-41.5 52t-62 36t-77.5 13.5h-116v-331z" />
<glyph unicode="&#xdf;" horiz-adv-x="573" d="M31 370v14h65v42q0 55 14.5 98t40 72t59 44.5t71.5 17.5q29 -1 54.5 -12.5t44.5 -31t30 -45.5t11 -55q0 -44 -25.5 -77.5t-66.5 -47.5q33 -8 61.5 -26t49.5 -43.5t33 -57t12 -67.5q0 -42 -16.5 -79t-44 -64.5t-65 -43.5t-79.5 -16q-29 0 -56 8t-50 22q2 3 3 5.5t3 5.5 q44 -28 98 -28q40 0 75 15.5t61 41.5t41.5 60.5t15.5 72.5t-15 71.5t-40.5 59t-60.5 40.5t-74 15v7v8q26 0 49 8.5t40 24t27 36.5t10 46q0 26 -9.5 50t-26 42.5t-40 29.5t-50.5 11q-34 0 -65 -15t-54.5 -43t-37.5 -67.5t-14 -88.5v-430h-14v370h-65z" />
<glyph unicode="&#xe0;" horiz-adv-x="551" d="M49 188q0 40 15 76t41.5 62t61.5 41.5t76 15.5q62 0 110.5 -34.5t70.5 -88.5q0 29 1 57.5t3 57.5h10v-375h-14v54q0 16 0.5 31.5t0.5 31.5q-11 -27 -29 -49.5t-41.5 -39t-52 -25.5t-59.5 -9q-41 0 -76 15t-61.5 41.5t-41.5 61.5t-15 76zM63 188q0 -38 14 -70.5t38.5 -57 t57 -38.5t70.5 -14q37 0 70 14t58 38.5t39 57t14 70.5q0 37 -14 70t-39 58t-58 39t-70 14q-38 0 -70.5 -14t-57 -39t-38.5 -58t-14 -70zM154 612h16q23 -33 45 -66.5t45 -66.5h-16q-23 33 -45 66.5t-45 66.5z" />
<glyph unicode="&#xe1;" horiz-adv-x="551" d="M49 188q0 40 15 76t41.5 62t61.5 41.5t76 15.5q62 0 110.5 -34.5t70.5 -88.5q0 29 1 57.5t3 57.5h10v-375h-14v54q0 16 0.5 31.5t0.5 31.5q-11 -27 -29 -49.5t-41.5 -39t-52 -25.5t-59.5 -9q-41 0 -76 15t-61.5 41.5t-41.5 61.5t-15 76zM63 188q0 -38 14 -70.5t38.5 -57 t57 -38.5t70.5 -14q37 0 70 14t58 38.5t39 57t14 70.5q0 37 -14 70t-39 58t-58 39t-70 14q-38 0 -70.5 -14t-57 -39t-38.5 -58t-14 -70zM232 479q23 33 45 66.5t45 66.5h16q-23 -33 -45 -66.5t-45 -66.5h-16z" />
<glyph unicode="&#xe2;" horiz-adv-x="551" d="M49 188q0 40 15 76t41.5 62t61.5 41.5t76 15.5q62 0 110.5 -34.5t70.5 -88.5q0 29 1 57.5t3 57.5h10v-375h-14v54q0 16 0.5 31.5t0.5 31.5q-11 -27 -29 -49.5t-41.5 -39t-52 -25.5t-59.5 -9q-41 0 -76 15t-61.5 41.5t-41.5 61.5t-15 76zM63 188q0 -38 14 -70.5t38.5 -57 t57 -38.5t70.5 -14q37 0 70 14t58 38.5t39 57t14 70.5q0 37 -14 70t-39 58t-58 39t-70 14q-38 0 -70.5 -14t-57 -39t-38.5 -58t-14 -70zM141 479q30 45 60 90.5t60 90.5q30 -45 60 -90.5t60 -90.5h-16q-26 38 -52 77t-52 77q-26 -38 -52 -77t-52 -77h-16z" />
<glyph unicode="&#xe3;" horiz-adv-x="551" d="M49 188q0 40 15 76t41.5 62t61.5 41.5t76 15.5q62 0 110.5 -34.5t70.5 -88.5q0 29 1 57.5t3 57.5h10v-375h-14v54q0 16 0.5 31.5t0.5 31.5q-11 -27 -29 -49.5t-41.5 -39t-52 -25.5t-59.5 -9q-41 0 -76 15t-61.5 41.5t-41.5 61.5t-15 76zM63 188q0 -38 14 -70.5t38.5 -57 t57 -38.5t70.5 -14q37 0 70 14t58 38.5t39 57t14 70.5q0 37 -14 70t-39 58t-58 39t-70 14q-38 0 -70.5 -14t-57 -39t-38.5 -58t-14 -70zM127 474q1 18 9 31t19.5 21t25.5 11.5t28 3.5q20 0 36.5 -10.5t32.5 -27.5q16 -18 28 -24t26 -6q8 0 18.5 2.5t20.5 8.5t17.5 16.5 t9.5 27.5q3 -1 6.5 -1t6.5 -1q-1 -18 -9 -31t-19.5 -21t-25.5 -11.5t-28 -3.5q-20 0 -36.5 10.5t-32.5 27.5q-16 18 -28 24t-26 6q-8 0 -18.5 -2.5t-20.5 -8.5t-17.5 -16.5t-9.5 -27.5q-3 1 -6.5 1t-6.5 1z" />
<glyph unicode="&#xe4;" horiz-adv-x="551" d="M49 188q0 40 15 76t41.5 62t61.5 41.5t76 15.5q62 0 110.5 -34.5t70.5 -88.5q0 29 1 57.5t3 57.5h10v-375h-14v54q0 16 0.5 31.5t0.5 31.5q-11 -27 -29 -49.5t-41.5 -39t-52 -25.5t-59.5 -9q-41 0 -76 15t-61.5 41.5t-41.5 61.5t-15 76zM63 188q0 -38 14 -70.5t38.5 -57 t57 -38.5t70.5 -14q37 0 70 14t58 38.5t39 57t14 70.5q0 37 -14 70t-39 58t-58 39t-70 14q-38 0 -70.5 -14t-57 -39t-38.5 -58t-14 -70zM161 500q0 8 6 14t14 6t14 -6t6 -14t-6 -14t-14 -6t-14 6t-6 14zM326 500q0 8 6 14t14 6t14 -6t6 -14t-6 -14t-14 -6t-14 6t-6 14z" />
<glyph unicode="&#xe5;" horiz-adv-x="551" d="M49 188q0 40 15 76t41.5 62t61.5 41.5t76 15.5q62 0 110.5 -34.5t70.5 -88.5q0 29 1 57.5t3 57.5h10v-375h-14v54q0 16 0.5 31.5t0.5 31.5q-11 -27 -29 -49.5t-41.5 -39t-52 -25.5t-59.5 -9q-41 0 -76 15t-61.5 41.5t-41.5 61.5t-15 76zM63 188q0 -38 14 -70.5t38.5 -57 t57 -38.5t70.5 -14q37 0 70 14t58 38.5t39 57t14 70.5q0 37 -14 70t-39 58t-58 39t-70 14q-38 0 -70.5 -14t-57 -39t-38.5 -58t-14 -70zM187 540q0 27 18 45t45 18t45 -18t18 -45t-18 -45t-45 -18t-45 18t-18 45zM201 540q0 -20 14.5 -34.5t34.5 -14.5t34.5 14.5t14.5 34.5 t-14.5 34.5t-34.5 14.5t-34.5 -14.5t-14.5 -34.5z" />
<glyph unicode="&#xe6;" horiz-adv-x="629" d="M49 98q0 27 13 45t34 29.5t48 16t56 4.5h146v52q0 31 -5 54.5t-20 39t-43 23t-74 7.5q-14 0 -30 -3t-31 -8t-28 -11.5t-21 -12.5q-3 3 -6.5 6t-6.5 6q9 8 23.5 14.5t31.5 11.5t35 8t34 3q71 0 105 -17q37 17 80 17q58 0 103.5 -34.5t65.5 -89.5q-50 -20 -99.5 -40.5 t-99.5 -40.5v-24v-24q0 -39 -9 -64.5t-32 -43.5q34 -14 71 -14q36 0 68 13t56 36q2 -3 4.5 -5.5t4.5 -5.5q-26 -24 -60 -38t-73 -14q-47 0 -84 18q-37 -20 -100 -20q-35 0 -64 5t-49.5 17t-32 32.5t-11.5 51.5zM63 99q0 -29 14 -47.5t35.5 -28.5t47 -13.5t48.5 -3.5 q25 0 50 4.5t44.5 16t31.5 31t12 49.5v72h-94q-16 0 -47.5 0.5t-63 -6t-55 -23.5t-23.5 -51zM324 356q20 -16 28 -43.5t8 -69.5v-50q45 18 90.5 36.5t90.5 36.5q-20 46 -60.5 74.5t-90.5 28.5q-34 0 -66 -13z" />
<glyph unicode="&#xe7;" horiz-adv-x="383" d="M36 188q0 40 15 76t41.5 62t61.5 41.5t76 15.5q35 0 66.5 -11.5t56.5 -31.5q-2 -3 -5 -5.5t-5 -5.5q-23 19 -52 29.5t-61 10.5q-38 0 -70.5 -14t-57 -39t-38.5 -58t-14 -70q0 -38 14 -70.5t38.5 -57t57 -38.5t70.5 -14q32 0 61 10.5t52 28.5l10 -10q-49 -39 -113 -43 q0 -26 14 -36.5t27 -18.5q23 -15 32.5 -33.5t9.5 -32.5q0 -51 -25.5 -73.5t-58.5 -22.5q-18 0 -34 6q-16 7 -28 19.5t-19 32.5q4 1 7.5 2t7.5 2q6 -21 23.5 -34.5t42.5 -13.5q31 0 50.5 20.5t19.5 51.5q0 28 -13 43t-28.5 25.5t-28.5 21.5t-13 31v10q-40 1 -74.5 16 t-60 41.5t-40.5 61.5t-15 75z" />
<glyph unicode="&#xe8;" horiz-adv-x="451" d="M36 188q0 40 15 76t41.5 62t61.5 41.5t76 15.5q58 0 103.5 -34.5t65.5 -89.5q-85 -35 -168.5 -68.5t-168.5 -68.5q20 -51 65 -82.5t103 -31.5q36 0 68 13t56 36q2 -3 4.5 -5.5t4.5 -5.5q-26 -24 -60 -38t-73 -14q-41 0 -76 15t-61.5 41.5t-41.5 61.5t-15 76zM50 188 q0 -29 7 -53q81 33 162 65.5t162 65.5q-20 46 -60.5 74.5t-90.5 28.5q-38 0 -70.5 -14t-57 -39t-38.5 -58t-14 -70zM126 612h16q23 -33 45 -66.5t45 -66.5h-16q-23 33 -45 66.5t-45 66.5z" />
<glyph unicode="&#xe9;" horiz-adv-x="451" d="M36 188q0 40 15 76t41.5 62t61.5 41.5t76 15.5q58 0 103.5 -34.5t65.5 -89.5q-85 -35 -168.5 -68.5t-168.5 -68.5q20 -51 65 -82.5t103 -31.5q36 0 68 13t56 36q2 -3 4.5 -5.5t4.5 -5.5q-26 -24 -60 -38t-73 -14q-41 0 -76 15t-61.5 41.5t-41.5 61.5t-15 76zM50 188 q0 -29 7 -53q81 33 162 65.5t162 65.5q-20 46 -60.5 74.5t-90.5 28.5q-38 0 -70.5 -14t-57 -39t-38.5 -58t-14 -70zM233 479q23 33 45 66.5t45 66.5h16q-23 -33 -45 -66.5t-45 -66.5h-16z" />
<glyph unicode="&#xea;" horiz-adv-x="451" d="M36 188q0 40 15 76t41.5 62t61.5 41.5t76 15.5q58 0 103.5 -34.5t65.5 -89.5q-85 -35 -168.5 -68.5t-168.5 -68.5q20 -51 65 -82.5t103 -31.5q36 0 68 13t56 36q2 -3 4.5 -5.5t4.5 -5.5q-26 -24 -60 -38t-73 -14q-41 0 -76 15t-61.5 41.5t-41.5 61.5t-15 76zM50 188 q0 -29 7 -53q81 33 162 65.5t162 65.5q-20 46 -60.5 74.5t-90.5 28.5q-38 0 -70.5 -14t-57 -39t-38.5 -58t-14 -70zM112 479q30 45 60 90.5t60 90.5q30 -45 60 -90.5t60 -90.5h-16q-26 38 -52 77t-52 77q-26 -38 -52 -77t-52 -77h-16z" />
<glyph unicode="&#xeb;" horiz-adv-x="451" d="M36 188q0 40 15 76t41.5 62t61.5 41.5t76 15.5q58 0 103.5 -34.5t65.5 -89.5q-85 -35 -168.5 -68.5t-168.5 -68.5q20 -51 65 -82.5t103 -31.5q36 0 68 13t56 36q2 -3 4.5 -5.5t4.5 -5.5q-26 -24 -60 -38t-73 -14q-41 0 -76 15t-61.5 41.5t-41.5 61.5t-15 76zM50 188 q0 -29 7 -53q81 33 162 65.5t162 65.5q-20 46 -60.5 74.5t-90.5 28.5q-38 0 -70.5 -14t-57 -39t-38.5 -58t-14 -70zM127 500q0 8 6 14t14 6t14 -6t6 -14t-6 -14t-14 -6t-14 6t-6 14zM292 500q0 8 6 14t14 6t14 -6t6 -14t-6 -14t-14 -6t-14 6t-6 14z" />
<glyph unicode="&#xec;" horiz-adv-x="174" d="M-2 612h16q23 -33 45 -66.5t45 -66.5h-16q-23 33 -45 66.5t-45 66.5zM86 0v375h14v-375h-14z" />
<glyph unicode="&#xed;" horiz-adv-x="200" d="M77 479q23 33 45 66.5t45 66.5h16q-23 -33 -45 -66.5t-45 -66.5h-16zM79 0v375h14v-375h-14z" />
<glyph unicode="&#xee;" horiz-adv-x="239" d="M-4 479q30 45 60 90.5t60 90.5q30 -45 60 -90.5t60 -90.5h-16q-26 38 -52 77t-52 77q-26 -38 -52 -77t-52 -77h-16zM109 0v375h14v-375h-14z" />
<glyph unicode="&#xef;" horiz-adv-x="271" d="M39 500q0 8 6 14t14 6t14 -6t6 -14t-6 -14t-14 -6t-14 6t-6 14zM139 0v375h14v-375h-14zM204 500q0 8 6 14t14 6t14 -6t6 -14t-6 -14t-14 -6t-14 6t-6 14z" />
<glyph unicode="&#xf0;" horiz-adv-x="493" d="M52 188q0 40 15 76t41.5 62t61.5 41.5t76 15.5q51 0 94 -24t69 -64q-6 28 -19.5 64.5t-35.5 78.5t-52.5 88t-72.5 94l-75 -81l-8 8q19 20 38 41t38 41q-22 23 -45 45.5t-49 42.5l6 9q48 -36 96 -89q17 20 35 38.5t35 38.5q2 -2 4 -3.5t4 -3.5q-18 -20 -35.5 -39 t-35.5 -39q41 -48 78 -103t65 -112t44.5 -114.5t16.5 -111.5q0 -41 -15.5 -76t-41.5 -61.5t-62 -41.5t-76 -15q-41 0 -76 15t-61.5 41.5t-41.5 61.5t-15 76zM66 188q0 -38 14 -70.5t38.5 -57t57 -38.5t70.5 -14q37 0 70 14t58 38.5t39 57t14 70.5q0 37 -14 70t-39 58t-58 39 t-70 14q-38 0 -70.5 -14t-57 -39t-38.5 -58t-14 -70z" />
<glyph unicode="&#xf1;" horiz-adv-x="523" d="M117 0v375h14v-53l-3 -45q20 47 64 76t101 29q53 0 83.5 -31t32.5 -81v-270h-14v277q-2 36 -26.5 62.5t-68.5 28.5q-34 0 -64.5 -11t-54 -30.5t-37 -47t-13.5 -59.5v-220h-14zM138 463q1 18 9 31t19.5 21t25.5 11.5t28 3.5q20 0 36.5 -10.5t32.5 -27.5q16 -18 28 -24 t26 -6q8 0 18.5 2.5t20.5 8.5t17.5 16.5t9.5 27.5q3 -1 6.5 -1t6.5 -1q-1 -18 -9 -31t-19.5 -21t-25.5 -11.5t-28 -3.5q-20 0 -36.5 10.5t-32.5 27.5q-16 18 -28 24t-26 6q-8 0 -18.5 -2.5t-20.5 -8.5t-17.5 -16.5t-9.5 -27.5q-3 1 -6.5 1t-6.5 1z" />
<glyph unicode="&#xf2;" horiz-adv-x="469" d="M36 188q0 40 15 76t41.5 62.5t61.5 42t76 15.5q40 0 76 -15.5t62.5 -42t42 -62.5t15.5 -76q0 -41 -15.5 -76t-42 -61.5t-62.5 -41.5t-76 -15q-41 0 -76 15t-61.5 41.5t-41.5 61.5t-15 76zM50 188q0 -38 14 -70.5t38.5 -57t57 -38.5t70.5 -14q37 0 70 14t58 38.5t39 57 t14 70.5q0 37 -14 70t-39 58t-58 39t-70 14q-38 0 -70.5 -14t-57 -39t-38.5 -58t-14 -70zM124 612h16q23 -33 45 -66.5t45 -66.5h-16q-23 33 -45 66.5t-45 66.5z" />
<glyph unicode="&#xf3;" horiz-adv-x="469" d="M36 188q0 40 15 76t41.5 62.5t61.5 42t76 15.5q40 0 76 -15.5t62.5 -42t42 -62.5t15.5 -76q0 -41 -15.5 -76t-42 -61.5t-62.5 -41.5t-76 -15q-41 0 -76 15t-61.5 41.5t-41.5 61.5t-15 76zM50 188q0 -38 14 -70.5t38.5 -57t57 -38.5t70.5 -14q37 0 70 14t58 38.5t39 57 t14 70.5q0 37 -14 70t-39 58t-58 39t-70 14q-38 0 -70.5 -14t-57 -39t-38.5 -58t-14 -70zM231 479q23 33 45 66.5t45 66.5h16q-23 -33 -45 -66.5t-45 -66.5h-16z" />
<glyph unicode="&#xf4;" horiz-adv-x="469" d="M36 188q0 40 15 76t41.5 62.5t61.5 42t76 15.5q40 0 76 -15.5t62.5 -42t42 -62.5t15.5 -76q0 -41 -15.5 -76t-42 -61.5t-62.5 -41.5t-76 -15q-41 0 -76 15t-61.5 41.5t-41.5 61.5t-15 76zM50 188q0 -38 14 -70.5t38.5 -57t57 -38.5t70.5 -14q37 0 70 14t58 38.5t39 57 t14 70.5q0 37 -14 70t-39 58t-58 39t-70 14q-38 0 -70.5 -14t-57 -39t-38.5 -58t-14 -70zM111 479q30 45 60 90.5t60 90.5q30 -45 60 -90.5t60 -90.5h-16q-26 38 -52 77t-52 77q-26 -38 -52 -77t-52 -77h-16z" />
<glyph unicode="&#xf5;" horiz-adv-x="469" d="M36 188q0 40 15 76t41.5 62.5t61.5 42t76 15.5q40 0 76 -15.5t62.5 -42t42 -62.5t15.5 -76q0 -41 -15.5 -76t-42 -61.5t-62.5 -41.5t-76 -15q-41 0 -76 15t-61.5 41.5t-41.5 61.5t-15 76zM50 188q0 -38 14 -70.5t38.5 -57t57 -38.5t70.5 -14q37 0 70 14t58 38.5t39 57 t14 70.5q0 37 -14 70t-39 58t-58 39t-70 14q-38 0 -70.5 -14t-57 -39t-38.5 -58t-14 -70zM92 474q1 18 9 31t19.5 21t25.5 11.5t28 3.5q20 0 36.5 -10.5t32.5 -27.5q16 -18 28 -24t26 -6q8 0 18.5 2.5t20.5 8.5t17.5 16.5t9.5 27.5q3 -1 6.5 -1t6.5 -1q-1 -18 -9 -31 t-19.5 -21t-25.5 -11.5t-28 -3.5q-20 0 -36.5 10.5t-32.5 27.5q-16 18 -28 24t-26 6q-8 0 -18.5 -2.5t-20.5 -8.5t-17.5 -16.5t-9.5 -27.5q-3 1 -6.5 1t-6.5 1z" />
<glyph unicode="&#xf6;" horiz-adv-x="469" d="M36 188q0 40 15 76t41.5 62.5t61.5 42t76 15.5q40 0 76 -15.5t62.5 -42t42 -62.5t15.5 -76q0 -41 -15.5 -76t-42 -61.5t-62.5 -41.5t-76 -15q-41 0 -76 15t-61.5 41.5t-41.5 61.5t-15 76zM50 188q0 -38 14 -70.5t38.5 -57t57 -38.5t70.5 -14q37 0 70 14t58 38.5t39 57 t14 70.5q0 37 -14 70t-39 58t-58 39t-70 14q-38 0 -70.5 -14t-57 -39t-38.5 -58t-14 -70zM132 500q0 8 6 14t14 6t14 -6t6 -14t-6 -14t-14 -6t-14 6t-6 14zM297 500q0 8 6 14t14 6t14 -6t6 -14t-6 -14t-14 -6t-14 6t-6 14z" />
<glyph unicode="&#xf7;" horiz-adv-x="501" d="M68 210v14h360v-14h-360zM231 91q0 8 6 14t14 6t14 -6t6 -14t-6 -14t-14 -6t-14 6t-6 14zM231 341q0 8 6 14t14 6t14 -6t6 -14t-6 -14t-14 -6t-14 6t-6 14z" />
<glyph unicode="&#xf8;" horiz-adv-x="468" d="M36 188q0 40 15 76t41.5 62t61.5 41.5t76 15.5q32 0 61.5 -10t53.5 -27q8 9 15.5 18.5t15.5 18.5q2 -2 4.5 -4t4.5 -4q-8 -9 -15.5 -18.5t-15.5 -18.5q32 -26 51.5 -65.5t19.5 -84.5q0 -41 -15.5 -76t-41.5 -61.5t-62 -41.5t-76 -15q-36 0 -68 12t-58 33 q-10 -12 -19.5 -23.5t-19.5 -23.5q-2 2 -4.5 4t-4.5 4q10 12 19.5 23.5t19.5 23.5q-28 26 -43.5 62.5t-15.5 78.5zM50 188q0 -38 14.5 -71.5t39.5 -58.5q58 69 115.5 138.5t115.5 138.5q-22 16 -49 25t-56 9q-38 0 -70.5 -14t-57 -39t-38.5 -58t-14 -70zM113 50 q50 -42 117 -42q37 0 70 14t58 38.5t39 57t14 70.5q0 42 -18 78t-48 61q-58 -69 -116 -138.5t-116 -138.5z" />
<glyph unicode="&#xf9;" horiz-adv-x="529" d="M117 105v270h14v-277q2 -36 26.5 -62.5t68.5 -28.5q34 0 64.5 11t53.5 30.5t37 47t14 59.5v220h14v-375h-14v53l3 45q-20 -48 -64.5 -76.5t-100.5 -28.5q-53 0 -83.5 31t-32.5 81zM176 612h16q23 -33 45 -66.5t45 -66.5h-16q-23 33 -45 66.5t-45 66.5z" />
<glyph unicode="&#xfa;" horiz-adv-x="529" d="M117 105v270h14v-277q2 -36 26.5 -62.5t68.5 -28.5q34 0 64.5 11t53.5 30.5t37 47t14 59.5v220h14v-375h-14v53l3 45q-20 -48 -64.5 -76.5t-100.5 -28.5q-53 0 -83.5 31t-32.5 81zM231 479q23 33 45 66.5t45 66.5h16q-23 -33 -45 -66.5t-45 -66.5h-16z" />
<glyph unicode="&#xfb;" horiz-adv-x="529" d="M117 105v270h14v-277q2 -36 26.5 -62.5t68.5 -28.5q34 0 64.5 11t53.5 30.5t37 47t14 59.5v220h14v-375h-14v53l3 45q-20 -48 -64.5 -76.5t-100.5 -28.5q-53 0 -83.5 31t-32.5 81zM146 479q30 45 60 90.5t60 90.5q30 -45 60 -90.5t60 -90.5h-16q-26 38 -52 77t-52 77 q-26 -38 -52 -77t-52 -77h-16z" />
<glyph unicode="&#xfc;" horiz-adv-x="529" d="M117 105v270h14v-277q2 -36 26.5 -62.5t68.5 -28.5q34 0 64.5 11t53.5 30.5t37 47t14 59.5v220h14v-375h-14v53l3 45q-20 -48 -64.5 -76.5t-100.5 -28.5q-53 0 -83.5 31t-32.5 81zM157 500q0 8 6 14t14 6t14 -6t6 -14t-6 -14t-14 -6t-14 6t-6 14zM322 500q0 8 6 14t14 6 t14 -6t6 -14t-6 -14t-14 -6t-14 6t-6 14z" />
<glyph unicode="&#xfd;" horiz-adv-x="488" d="M46 375h18q45 -91 90 -180.5t90 -180.5q45 91 90 180.5t90 180.5h18q-78 -157 -155.5 -312.5t-155.5 -312.5h-19l123 246q-48 95 -94.5 189.5t-94.5 189.5zM241 479q23 33 45 66.5t45 66.5h16q-23 -33 -45 -66.5t-45 -66.5h-16z" />
<glyph unicode="&#xfe;" horiz-adv-x="557" d="M67 -250v1000h14v-429q0 -16 -0.5 -32t-0.5 -32q21 55 70 89.5t112 34.5q40 0 75.5 -15t62 -41.5t41.5 -62t15 -75.5q0 -41 -15 -76.5t-41.5 -61.5t-62 -41.5t-75.5 -15.5q-31 0 -59.5 9t-52 25.5t-41.5 39t-28 49.5q0 -14 0.5 -27t0.5 -27v-311h-15zM81 187 q0 -38 14 -70.5t39 -57.5t57.5 -39t70.5 -14q37 0 70 14t57.5 39t38.5 57.5t14 70.5q0 37 -14 70t-38.5 57.5t-57.5 38.5t-70 14q-38 0 -70.5 -14t-57.5 -38.5t-39 -57.5t-14 -70z" />
<glyph unicode="&#xff;" horiz-adv-x="488" d="M46 375h18q45 -91 90 -180.5t90 -180.5q45 91 90 180.5t90 180.5h18q-78 -157 -155.5 -312.5t-155.5 -312.5h-19l123 246q-48 95 -94.5 189.5t-94.5 189.5zM153 500q0 8 6 14t14 6t14 -6t6 -14t-6 -14t-14 -6t-14 6t-6 14zM318 500q0 8 6 14t14 6t14 -6t6 -14t-6 -14 t-14 -6t-14 6t-6 14z" />
<glyph unicode="&#x2000;" horiz-adv-x="490" />
<glyph unicode="&#x2001;" horiz-adv-x="981" />
<glyph unicode="&#x2002;" horiz-adv-x="490" />
<glyph unicode="&#x2003;" horiz-adv-x="981" />
<glyph unicode="&#x2004;" horiz-adv-x="327" />
<glyph unicode="&#x2005;" horiz-adv-x="245" />
<glyph unicode="&#x2006;" horiz-adv-x="163" />
<glyph unicode="&#x2007;" horiz-adv-x="163" />
<glyph unicode="&#x2008;" horiz-adv-x="122" />
<glyph unicode="&#x2009;" horiz-adv-x="196" />
<glyph unicode="&#x200a;" horiz-adv-x="54" />
<glyph unicode="&#x2010;" d="M53 184v14h184v-14h-184z" />
<glyph unicode="&#x2011;" d="M53 184v14h184v-14h-184z" />
<glyph unicode="&#x2012;" d="M53 184v14h184v-14h-184z" />
<glyph unicode="&#x2013;" horiz-adv-x="509" d="M100 179v14h301v-14h-301z" />
<glyph unicode="&#x2014;" horiz-adv-x="700" d="M99 179v14h502v-14h-502z" />
<glyph unicode="&#x2018;" horiz-adv-x="164" d="M40 711q5 -2 9.5 -3.5t9.5 -3.5q-7 -35 2.5 -64.5t30.5 -49.5l-6 -18q-29 26 -41.5 62.5t-4.5 76.5z" />
<glyph unicode="&#x2019;" horiz-adv-x="164" d="M59 590q21 20 30.5 49.5t2.5 64.5q5 2 9.5 3.5t9.5 3.5q8 -40 -4.5 -76.5t-41.5 -62.5z" />
<glyph unicode="&#x201a;" horiz-adv-x="146" d="M20 -29q21 20 30.5 49.5t2.5 64.5q5 2 9.5 3.5t9.5 3.5q8 -40 -4.5 -76.5t-41.5 -62.5z" />
<glyph unicode="&#x201c;" horiz-adv-x="249" d="M31 711q5 -2 9.5 -3.5t9.5 -3.5q-7 -35 2.5 -64.5t30.5 -49.5l-6 -18q-29 26 -41.5 62.5t-4.5 76.5zM135 711q5 -2 9.5 -3.5t9.5 -3.5q-7 -35 2.5 -64.5t30.5 -49.5l-6 -18q-29 26 -41.5 62.5t-4.5 76.5z" />
<glyph unicode="&#x201d;" horiz-adv-x="248" d="M44 590q21 20 30.5 49.5t2.5 64.5q5 2 9.5 3.5t9.5 3.5q8 -40 -4.5 -76.5t-41.5 -62.5zM148 590q21 20 30.5 49.5t2.5 64.5q5 2 9.5 3.5t9.5 3.5q8 -40 -4.5 -76.5t-41.5 -62.5z" />
<glyph unicode="&#x201e;" horiz-adv-x="234" d="M20 -29q21 20 30.5 49.5t2.5 64.5q5 2 9.5 3.5t9.5 3.5q8 -40 -4.5 -76.5t-41.5 -62.5zM124 -29q21 20 30.5 49.5t2.5 64.5q5 2 9.5 3.5t9.5 3.5q8 -40 -4.5 -76.5t-41.5 -62.5z" />
<glyph unicode="&#x2022;" horiz-adv-x="479" d="M174 300q0 28 19 47t46 19q28 0 47 -19t19 -47q0 -27 -19 -46t-47 -19q-27 0 -46 19t-19 46z" />
<glyph unicode="&#x202f;" horiz-adv-x="196" />
<glyph unicode="&#x2039;" horiz-adv-x="392" d="M117 239q43 41 85.5 80.5t85.5 80.5v-17q-35 -36 -71 -72t-71 -72q35 -37 71 -73t71 -73v-16z" />
<glyph unicode="&#x203a;" horiz-adv-x="392" d="M117 77l171 162q-43 41 -85.5 80.5t-85.5 80.5v-17q35 -36 71 -72t71 -72q-35 -37 -71 -73t-71 -73v-16z" />
<glyph unicode="&#x205f;" horiz-adv-x="245" />
<glyph unicode="&#xe000;" horiz-adv-x="375" d="M0 0v375h375v-375h-375z" />
</font>
</defs>
</svg>
