<?xml version="1.0" standalone="no"?>
<!DOCTYPE svg PUBLIC "-//W3C//DTD SVG 1.1//EN" "http://www.w3.org/Graphics/SVG/1.1/DTD/svg11.dtd" >
<svg xmlns="http://www.w3.org/2000/svg">
<metadata></metadata>
<defs>
<font id="josefin_sanssemibold_italic" horiz-adv-x="469" >
<font-face units-per-em="1000" ascent="750" descent="-250" />
<missing-glyph horiz-adv-x="300" />
<glyph horiz-adv-x="1000" />
<glyph horiz-adv-x="1000" />
<glyph unicode="&#xd;" horiz-adv-x="300" />
<glyph unicode=" "  horiz-adv-x="300" />
<glyph unicode="&#x09;" horiz-adv-x="300" />
<glyph unicode="&#xa0;" horiz-adv-x="300" />
<glyph unicode="!" horiz-adv-x="201" d="M10 54q3 19 18 30.5t31 11.5t26.5 -11.5t8.5 -30.5t-17 -31t-30 -12q-17 0 -27.5 12t-9.5 31zM37 166l82 584h62l-82 -584h-62z" />
<glyph unicode="&#x22;" horiz-adv-x="322" d="M45 472l35 248h63q-10 -63 -19.5 -124t-19.5 -124h-59zM178 472l35 248h63q-10 -63 -19.5 -124t-19.5 -124h-59z" />
<glyph unicode="#" horiz-adv-x="571" d="M9 199q4 15 7.5 30.5t7.5 30.5h100q8 31 15.5 61t15.5 61h-98q4 15 7.5 30t7.5 31h99q14 51 27 100t26 100h63q-13 -51 -26 -100t-27 -100h121q14 51 27 100t26 100h63q-13 -51 -26 -100t-27 -100h112q-4 -16 -7 -31t-7 -30h-114q-8 -31 -15.5 -61t-15.5 -61h112 q-4 -15 -7.5 -30.5t-8.5 -30.5h-112q-25 -98 -52 -199h-63q27 101 52 199h-121q-25 -98 -52 -199h-63q27 101 52 199h-99zM187 260h121q8 31 15.5 61t15.5 61h-121q-8 -31 -15.5 -61t-15.5 -61z" />
<glyph unicode="$" horiz-adv-x="567" d="M20 98l46 40q20 -26 53 -51.5t81 -32.5l40 289q-3 2 -8.5 4t-10.5 5q-18 7 -40 19t-40.5 31t-29.5 47t-6 68q3 30 15.5 61t35 57t56.5 44t79 23l9 62h63l-9 -63q31 -5 62 -19t64 -46q-11 -11 -20.5 -23t-20.5 -23q-13 13 -36.5 28.5t-56.5 21.5l-36 -253q28 -12 58 -28 t52.5 -39t34.5 -55.5t6 -77.5q-6 -41 -25 -74.5t-46.5 -58.5t-62.5 -40.5t-73 -19.5l-8 -62h-63l8 63q-33 4 -60.5 15t-49 25.5t-37 31t-24.5 31.5zM168 519q-6 -42 11.5 -64t49.5 -36q5 -3 10.5 -5t10.5 -4l33 231q-26 -4 -46 -15.5t-34 -28t-23 -36.5t-12 -42zM263 56 q50 8 89 42t46 88q4 30 -3 51t-21 37t-33.5 26.5t-40.5 19.5z" />
<glyph unicode="%" horiz-adv-x="726" d="M114 389q4 25 17 47t32 38.5t42.5 26t48.5 9.5t46 -9.5t35.5 -26t21 -38.5t3.5 -47q-4 -26 -17 -48t-32 -38.5t-42.5 -26t-48.5 -9.5t-46 9.5t-35.5 26t-21 38.5t-3.5 48zM148 0q93 126 184.5 250t184.5 250h69q-93 -126 -184.5 -250t-184.5 -250h-69zM177 389 q-4 -26 11 -43.5t41 -17.5t45 17.5t23 43.5q3 25 -11.5 42.5t-40.5 17.5t-45 -17.5t-23 -42.5zM379 112q4 25 17 47t32 38t42.5 25.5t48.5 9.5t46 -9.5t35.5 -25.5t21 -38t3.5 -47q-4 -26 -17 -48t-32 -38.5t-42.5 -26t-48.5 -9.5t-46 9.5t-35.5 26t-21 38.5t-3.5 48z M442 111q-4 -26 11 -43t41 -17t45 17t23 43q3 26 -11.5 43t-40.5 17t-45 -17t-23 -43z" />
<glyph unicode="&#x26;" horiz-adv-x="700" d="M78 188q5 36 22 68t42.5 57.5t57.5 43t67 23.5q-27 59 -55 116q-14 30 -16.5 62t7 62.5t31.5 58t58 47.5q31 17 60.5 20.5t56.5 -2t50.5 -16.5t40.5 -23q-8 -12 -16 -24.5t-16 -24.5q-13 8 -29.5 16.5t-35.5 13t-38.5 3t-38.5 -12.5q-52 -30 -63.5 -75t9.5 -89 q35 -74 69 -146t69 -146q6 18 11.5 34t10.5 30l3 21q9 29 22 43.5t29 20.5t34 6h37h44l-8 -61h-48q-15 0 -25.5 -4.5t-18 -16t-13 -31.5t-9.5 -52l-3 -23q-2 -17 -7.5 -31.5t-13.5 -28.5l54 -114q-14 -8 -26.5 -16t-26.5 -16q-11 21 -20.5 42.5t-20.5 42.5 q-32 -35 -75 -54.5t-91 -19.5q-41 0 -75 15.5t-57.5 42t-34 62t-4.5 76.5zM141 188q-4 -29 2.5 -53.5t22 -43t39 -29t53.5 -10.5q41 0 75.5 20t54.5 52l-93 198q-30 -1 -56.5 -11t-47 -27.5t-33.5 -42t-17 -53.5z" />
<glyph unicode="'" horiz-adv-x="158" d="M31 472l35 248h65q-10 -63 -19.5 -124t-19.5 -124h-61z" />
<glyph unicode="(" horiz-adv-x="415" d="M118.5 148q-4.5 68 6.5 143q10 75 33.5 143t55 126t67.5 105.5t72 80.5q12 -6 24 -11.5t25 -11.5q-33 -33 -67 -78t-63.5 -100t-51.5 -119t-32 -135t-6 -135t18 -119t35.5 -100t45.5 -78q-14 -6 -27.5 -11.5t-27.5 -11.5q-27 33 -50 80.5t-38 105.5t-19.5 126z" />
<glyph unicode=")" horiz-adv-x="400" d="M24 -144q33 33 67 78t63.5 100t51.5 119t32 135t6 135t-18 119t-35.5 100t-45.5 78q14 6 27.5 12t27.5 12q27 -33 50 -80.5t38 -105.5t19.5 -126t-5.5 -143q-11 -75 -34.5 -143t-55 -126t-67.5 -105.5t-72 -80.5q-12 5 -24.5 10.5t-24.5 11.5z" />
<glyph unicode="*" horiz-adv-x="335" d="M23 533q20 11 40.5 21.5t41.5 21.5q-17 11 -34.5 23t-34.5 23q9 13 18 25.5t18 26.5q18 -11 36 -23t36 -23l13 92h64q-4 -23 -7.5 -46t-7.5 -46q22 11 43 22.5t43 22.5q5 -14 11 -26.5t11 -25.5q-21 -11 -42 -23t-43 -23l36 -22t35 -22l-20 -28l-20 -28q-17 11 -35 23 t-35 23q-3 -22 -6.5 -43.5t-7.5 -43.5h-60l12 87q-20 -11 -40.5 -21.5t-41.5 -21.5q-10 26 -23 55z" />
<glyph unicode="+" horiz-adv-x="543" d="M81 200l9 61h148l21 150h63l-21 -150h149l-9 -61h-148l-22 -149h-63l22 149h-149z" />
<glyph unicode="," horiz-adv-x="200" d="M-5 -120q26 52 52 103t53 103h66q-29 -52 -57.5 -103t-57.5 -103h-56z" />
<glyph unicode="-" horiz-adv-x="300" d="M48 158l8 61h184l-8 -61h-184z" />
<glyph unicode="." horiz-adv-x="163" d="M42 42q3 19 17.5 31t31.5 12q16 0 27 -12t8 -31q-2 -19 -16.5 -30.5t-30.5 -11.5q-17 0 -28 11.5t-9 30.5z" />
<glyph unicode="/" horiz-adv-x="363" d="M-36 -19q97 190 192 377.5t192 377.5h63q-97 -190 -192.5 -377.5t-192.5 -377.5h-62z" />
<glyph unicode="0" horiz-adv-x="616" d="M37 327q10 68 37.5 128.5t68.5 105.5t94.5 71t115.5 26t107.5 -27t74 -73t38 -106.5t-0.5 -128.5q-11 -74 -42 -135t-75 -104.5t-96 -67.5t-104 -24t-96.5 25t-75.5 69t-44 105.5t-2 135.5zM100 327q-9 -59 0.5 -109t32.5 -86.5t56.5 -57.5t74.5 -21t81 20t74 56t58 86 t32 109q7 47 1.5 95.5t-25 88t-54 64.5t-86.5 25t-94.5 -24t-73.5 -63t-50.5 -87.5t-26.5 -95.5z" />
<glyph unicode="1" horiz-adv-x="266" d="M69 0l83 589h-81l8 61h144l-91 -650h-63z" />
<glyph unicode="2" horiz-adv-x="512" d="M6 0q71 62 138.5 121t120.5 114.5t88 107.5t42 99q6 43 -3 72.5t-26.5 48t-40 26.5t-43.5 8q-41 0 -69.5 -14.5t-46.5 -35.5t-27.5 -45t-12.5 -43q-9 -66 25 -107q-11 -10 -22 -19t-22 -19q-13 11 -22.5 28t-15 36.5t-7.5 40.5t1 40q6 40 24 76t47 63.5t69 43.5t88 16 q44 0 78 -16t56 -44t31 -65t3 -79q-7 -52 -35 -102t-68.5 -99t-90 -96.5t-99.5 -95.5h278l-9 -61h-429z" />
<glyph unicode="3" horiz-adv-x="515" d="M32 61l26 22l26 22q17 -23 43 -37.5t60 -14.5q31 0 60.5 12t53 33t39.5 48.5t21 58.5q4 31 -4 58.5t-26 47.5t-44.5 32t-57.5 12q-34 0 -66 -19q49 64 98 126.5t98 125.5h-219l9 62h326q-49 -61 -97.5 -121.5t-96.5 -120.5q35 -8 64 -26t48 -44.5t27.5 -60t3.5 -72.5 q-6 -44 -29 -82.5t-56 -67.5t-74.5 -46t-85.5 -17q-47 0 -84.5 18.5t-62.5 50.5z" />
<glyph unicode="4" horiz-adv-x="522" d="M16 183q109 119 216.5 237.5t216.5 237.5l-59 -414h97l-8 -61h-97l-26 -183h-63l26 183h-303zM151 244h176l33 230q-53 -58 -105 -115t-104 -115z" />
<glyph unicode="5" horiz-adv-x="543" d="M68 51q14 11 26.5 21.5t25.5 21.5q36 -41 95 -41q31 0 60.5 12t53.5 33t39.5 48.5t20.5 58.5q4 31 -4 58t-26 47t-44.5 32t-57.5 12q-35 0 -65.5 -11.5t-51.5 -35.5l49 343h287l-9 -61h-224l-25 -182q24 8 48 8q44 0 80.5 -16.5t62 -45t37.5 -66.5t6 -82t-29 -82.5 t-56.5 -67.5t-75 -46t-84.5 -17t-78.5 15.5t-60.5 43.5z" />
<glyph unicode="6" horiz-adv-x="520" d="M32 196q10 72 49.5 134.5t95 116.5t121 101t127.5 88q8 -12 16 -24.5t16 -24.5q-94 -57 -154 -107.5t-94 -89.5q14 11 30.5 18t35.5 7q44 0 81 -16.5t62.5 -45t37 -67t5.5 -82.5t-29 -82.5t-56 -67t-74.5 -45.5t-85.5 -17q-43 0 -79 16t-61 43.5t-37 65t-7 79.5zM97 204 q-5 -31 3 -58.5t25 -48t42.5 -32.5t56.5 -12t60.5 12t53.5 32.5t39.5 48t20.5 58.5q4 31 -4 58.5t-26 47.5t-44 32t-57 12t-60 -12t-52 -32t-38.5 -47.5t-19.5 -58.5z" />
<glyph unicode="7" d="M14 0q88 148 174 294t174 294h-311l8 62h409q-96 -164 -191.5 -325t-191.5 -325h-71z" />
<glyph unicode="8" horiz-adv-x="510" d="M23 205q9 62 48.5 111t94.5 74q-24 19 -35.5 48.5t-6.5 65.5q4 32 20 60t40 49t53.5 33t61.5 12t58.5 -12.5t44.5 -33.5t26 -49t4 -60q-5 -35 -25 -64.5t-49 -48.5q49 -25 75.5 -74t17.5 -111q-6 -44 -29 -82.5t-56 -67.5t-74.5 -46t-84.5 -17q-44 0 -80.5 17t-61.5 46 t-36.5 67.5t-5.5 82.5zM88 205q-4 -31 3.5 -58.5t24.5 -48.5t42 -33t56 -12t61 12t53.5 33t39.5 48.5t20 58.5q4 30 -3.5 57t-25 47t-43 32t-56.5 13q-32 0 -61.5 -12t-52.5 -32t-38.5 -47t-19.5 -58zM187 502q-5 -37 18 -61.5t61 -24.5q39 0 69 24.5t35 61.5 q3 19 -1.5 36.5t-15 30.5t-26.5 20.5t-35 7.5t-37 -7.5t-32 -20.5t-23.5 -30.5t-12.5 -36.5z" />
<glyph unicode="9" horiz-adv-x="525" d="M49 423q6 43 29 82t56 67.5t74.5 45.5t85.5 17t80.5 -17t61.5 -45.5t36 -67.5t5 -82q-10 -70 -50 -131.5t-96 -115t-121 -100t-125 -85.5q-8 12 -16.5 24.5t-16.5 24.5q94 57 154 107t95 90q-28 -25 -67 -25q-44 0 -80.5 16.5t-62 45t-37 67t-5.5 82.5zM112 423 q-5 -31 3.5 -58.5t26.5 -47.5t44 -32t57 -12t60 12t52 32t38.5 47.5t19.5 58.5t-3.5 58.5t-25 48t-43 32.5t-56.5 12t-60.5 -12t-53 -32.5t-39.5 -48t-20 -58.5z" />
<glyph unicode=":" horiz-adv-x="175" d="M25 42q2 19 16.5 31t31.5 12q16 0 27 -12t9 -31q-3 -19 -17.5 -30.5t-30.5 -11.5t-27.5 11.5t-8.5 30.5zM60 292q2 19 16.5 31t31.5 12q16 0 27 -12t9 -31t-17 -30.5t-31 -11.5t-27.5 11.5t-8.5 30.5z" />
<glyph unicode=";" horiz-adv-x="201" d="M-36 -120q26 52 52 103t53 103h65q-29 -52 -57 -103t-57 -103h-56zM96 292q3 19 18 31t31 12t27 -12t9 -31q-3 -19 -17.5 -30.5t-30.5 -11.5t-27.5 11.5t-9.5 30.5z" />
<glyph unicode="&#x3c;" horiz-adv-x="680" d="M116 238q118 63 235.5 126t236.5 126l-12 -84q-78 -42 -157.5 -84t-157.5 -84q66 -42 133 -84t135 -84l-12 -84q-101 63 -200.5 126t-200.5 126z" />
<glyph unicode="=" horiz-adv-x="708" d="M81 123l9 61h506l-9 -61h-506zM108 317l9 61h506l-9 -61h-506z" />
<glyph unicode="&#x3e;" horiz-adv-x="650" d="M80 -14l11 84l158 84t159 84q-68 42 -135 84l-134 84l12 84q101 -63 200.5 -126t201.5 -126q-119 -63 -236.5 -126t-236.5 -126z" />
<glyph unicode="?" horiz-adv-x="452" d="M67 585q12 24 30 50t44.5 47.5t62 35.5t80.5 14q41 0 75 -15.5t56.5 -42t33 -62t4.5 -75.5q-8 -55 -40 -96.5t-83 -74.5q-17 -12 -35 -22t-33 -23t-26 -32t-15 -47l-11 -78h-63l14 97q4 31 17.5 51t33 35t43 28.5t49.5 33.5q38 27 59 59t26 69q4 29 -2.5 53.5t-21.5 42.5 t-38 28t-51 10q-57 0 -95 -27.5t-61 -78.5l-26 10t-27 10zM120 50q2 18 17 30.5t31 12.5q15 0 26.5 -12.5t8.5 -30.5q-2 -19 -17 -30.5t-30 -11.5q-16 0 -27.5 11.5t-8.5 30.5z" />
<glyph unicode="@" horiz-adv-x="990" d="M74 189q12 86 55 161t107.5 131t144.5 88.5t166 32.5t156.5 -32.5t118.5 -88.5t69.5 -131.5t9.5 -161.5q-11 -54 -33.5 -90.5t-51 -58t-59 -30.5t-57.5 -9h-97l4 30q1 8 2 16.5t3 16.5q-6 -10 -19.5 -22.5t-33.5 -23t-45.5 -18t-55.5 -7.5q-42 0 -76 15.5t-57 42 t-33.5 62t-4.5 75.5t26 75.5t51 62t69 42t80 15.5q27 0 50.5 -8t40.5 -19t28 -24t14 -23q2 16 6 33l8 34h51l-45 -314h45q44 0 79.5 28.5t47.5 98.5q10 73 -8 137.5t-59 112.5t-101 76t-132 28q-73 0 -141 -28t-122.5 -76t-91.5 -112.5t-47 -137.5t8.5 -137t59.5 -112 t101.5 -75.5t133.5 -27.5q60 0 116 18t105 50q8 -12 16 -23l16 -22q-55 -41 -125.5 -62.5t-136.5 -21.5q-86 0 -157 32.5t-119.5 88.5t-70 131.5t-9.5 161.5zM350 188q-4 -29 2.5 -53.5t22 -42.5t39 -28.5t53.5 -10.5q29 0 55.5 10.5t47 28.5t34.5 42.5t18 53.5 q4 28 -2.5 53t-22.5 43t-39.5 28.5t-52.5 10.5t-55.5 -10.5t-47 -28.5t-34.5 -43t-18 -53z" />
<glyph unicode="A" horiz-adv-x="740" d="M9 0q103 184 206.5 366t206.5 366l207 -732h-63q-20 72 -40.5 144.5t-41.5 144.5h-250q-41 -72 -81 -144.5t-82 -144.5h-62zM268 348h199q-14 54 -29.5 107.5t-30.5 107.5q-2 8 -2.5 15.5t-2.5 15.5q-2 -5 -7 -16t-7 -15q-16 -29 -30.5 -55.5t-29.5 -52.5t-29.5 -52.5 t-30.5 -54.5z" />
<glyph unicode="B" horiz-adv-x="535" d="M16 0l99 700h171q48 0 86 -10t63.5 -31t36.5 -55q7 -20 7 -45q0 -16 -3 -34q-8 -62 -45 -109t-101 -64q28 -6 52.5 -20t42 -36t25.5 -51q5 -18 5 -38q0 -13 -2 -27q-6 -45 -29.5 -78.5t-58 -56t-76 -34t-84.5 -11.5h-189zM86 59h122q34 0 65 8t56 24t41.5 40.5t20.5 56.5 q2 11 2 22q0 26 -11 44q-15 26 -40 41t-55.5 21t-56.5 6h-106zM132 382h120q32 0 59.5 10t48.5 27.5t34.5 42.5t17.5 55q2 13 2 25q0 48 -28 70q-36 28 -100 28h-117z" />
<glyph unicode="C" horiz-adv-x="670" d="M61 349q10 74 47.5 139.5t93 114t124.5 77t143 28.5q51 0 94.5 -13t81.5 -37l-42 -51q-61 41 -142 41q-61 0 -118 -23.5t-103 -64.5t-77 -95.5t-40 -115.5q-3 -21 -2 -41q-1 -39 9 -75q16 -54 50.5 -94.5t84.5 -64t110 -23.5q42 0 80.5 10.5t74.5 30.5l27 -50 q-43 -23 -90.5 -36.5t-98.5 -13.5q-74 0 -135 28t-102.5 76.5t-60.5 113.5q-12 43 -12 89q0 24 3 50z" />
<glyph unicode="D" horiz-adv-x="652" d="M18 0l99 700h155q72 0 132.5 -24.5t101.5 -70.5q42 -47 61 -111q12 -40 11 -85q0 -29 -4 -60q-8 -62 -36 -124.5t-80.5 -112.5t-131 -81t-187.5 -31h-121zM89 60h78q73 0 133.5 22t104.5 61t71.5 92t36.5 115q3 24 3 47q0 39 -10 73q-16 54 -50.5 91.5t-85.5 58 t-112 20.5h-87q-21 -146 -41.5 -290t-40.5 -290z" />
<glyph unicode="E" horiz-adv-x="601" d="M27 0l99 700h423l-8 -60h-361l-37 -258h322l-9 -59h-321l-38 -264h375l-8 -59h-437z" />
<glyph unicode="F" horiz-adv-x="587" d="M27 0l99 700h423l-8 -60h-361l-37 -258h322l-9 -59h-321l-46 -323h-62z" />
<glyph unicode="G" horiz-adv-x="687" d="M61 349q10 74 47.5 139.5t93 114t124.5 77t143 28.5q51 0 94.5 -13t81.5 -37l-42 -51q-61 41 -142 41q-61 0 -118 -23.5t-103 -64.5t-77 -95.5t-40 -115.5q-3 -21 -3 -41q0 -39 10 -75q16 -54 50.5 -94.5t84.5 -64t110 -23.5q65 0 125 27l16 113l3 22q2 14 -1.5 20.5 t-19.5 6.5h-99l8 60h135q29 0 38 -12q7 -9 7 -27q0 -8 -1 -17l-29 -202q-43 -23 -90.5 -36.5t-98.5 -13.5q-74 0 -135 28t-102.5 76.5t-60.5 113.5q-12 43 -12 89q0 24 3 50z" />
<glyph unicode="H" horiz-adv-x="700" d="M36 0l99 700h62l-45 -318h404l45 318h63q-25 -176 -50 -350t-50 -350h-62l45 323h-403l-46 -323h-62z" />
<glyph unicode="I" horiz-adv-x="263" d="M51 0l99 700h63l-99 -700h-63z" />
<glyph unicode="J" horiz-adv-x="327" d="M-42 -143l9 59q35 2 66 14.5t55.5 35t41 54.5t22.5 73l86 607h62l-86 -610q-8 -56 -31 -99t-57.5 -72t-77.5 -45t-90 -17z" />
<glyph unicode="K" horiz-adv-x="600" d="M9 0l99 700h62l-42 -294q-1 -8 -2.5 -15.5t-3.5 -15.5q5 6 10.5 11t10.5 11q91 76 180.5 151.5t180.5 151.5h78l-336 -282q69 -105 136.5 -208.5t136.5 -209.5h-76q-61 95 -122 189t-123 189q-20 -18 -41 -35.5t-43 -34.5q-11 -78 -21.5 -154.5t-21.5 -153.5h-62z" />
<glyph unicode="L" horiz-adv-x="593" d="M27 0l99 700h62l-91 -641h375l-8 -59h-437z" />
<glyph unicode="M" horiz-adv-x="937" d="M48 0l103 732q75 -119 149.5 -237.5t149.5 -237.5q109 119 216.5 237.5t216.5 237.5l-103 -732h-62l64 458l9 64q2 10 4 18.5t4 17.5q-88 -103 -180 -202t-183 -200q-55 89 -110 176.5t-110 176.5l-17 27q-4 5 -7 11t-5 11q-2 -9 -2 -17.5t-1 -18.5l-74 -522h-62z" />
<glyph unicode="N" horiz-adv-x="813" d="M50 0l103 732q113 -151 224.5 -300t223.5 -300q4 -7 8 -13t8 -13q0 8 0.5 16t0.5 16l80 562h62l-103 -732q-114 149 -225.5 295.5t-224.5 295.5q-3 7 -7 13t-8 13q-1 -8 -1 -16t-1 -16l-78 -553h-62z" />
<glyph unicode="O" horiz-adv-x="840" d="M61 349q10 74 47.5 139.5t93 114t124.5 77t143 28.5t135 -28.5t103 -77t61 -114.5q12 -43 12 -89q0 -25 -3 -50q-10 -74 -47.5 -139t-93 -113.5t-125 -76.5t-143.5 -28t-135 28t-102.5 76.5t-60.5 113.5q-12 43 -12 89q0 24 3 50zM123 349q-3 -21 -2 -41q-1 -39 9 -75 q16 -54 50.5 -94.5t84.5 -64t111 -23.5t118.5 23.5t103.5 64t77 94.5t40 116q3 22 3 43q0 38 -10 72q-16 54 -50.5 95.5t-85 65t-111.5 23.5t-118 -23.5t-103 -64.5t-77 -95.5t-40 -115.5z" />
<glyph unicode="P" horiz-adv-x="476" d="M16 0l99 700h157q33 0 70.5 -10.5t68.5 -33t49 -57.5q13 -25 14 -59q0 -13 -2 -26q-13 -88 -74.5 -140.5t-164.5 -52.5h-110l-45 -321h-62zM132 381h95q48 0 81.5 12.5t55 32t32 43t13.5 45.5q1 8 1 15q0 17 -6 33q-9 23 -28.5 40.5t-48 28t-62.5 10.5h-96z" />
<glyph unicode="Q" horiz-adv-x="842" d="M61 349q10 74 47.5 139.5t93 114t124.5 77t143 28.5t135.5 -28.5t103.5 -77t60 -114.5q13 -42 13 -88q0 -25 -4 -51q-6 -46 -23.5 -88.5t-43.5 -79.5t-59.5 -68t-72.5 -54h180l-8 -59h-307q-38 -8 -75 -8q-74 0 -135 28t-102.5 76.5t-60.5 113.5q-12 43 -12 89q0 24 3 50 zM123 349q-3 -21 -3 -41q0 -39 10 -75q16 -54 50.5 -94.5t84.5 -64t110 -23.5q61 0 118.5 23.5t104 64t77.5 94.5t40 116q3 22 3 43q0 38 -10 72q-16 55 -50.5 96t-85 64.5t-111.5 23.5t-118 -23.5t-103 -64.5t-77 -95.5t-40 -115.5z" />
<glyph unicode="R" horiz-adv-x="512" d="M16 0l99 700h157q33 0 70.5 -10.5t68.5 -33t49 -57.5q13 -25 14 -59q0 -13 -2 -26q-11 -74 -55.5 -123t-119.5 -65q27 -81 54 -162.5t54 -163.5h-68q-26 81 -53 161t-53 161q-7 -1 -13.5 -1h-13.5h-81l-45 -321h-62zM132 381h95q48 0 81.5 12.5t55 32t32 43t13.5 45.5 q1 8 1 15q0 17 -6 33q-9 23 -28.5 40.5t-48 28t-62.5 10.5h-96z" />
<glyph unicode="S" horiz-adv-x="557" d="M20 98l46 39q12 -15 27.5 -30t35 -27.5t44 -20.5t54.5 -8t58.5 9t52 26.5t39.5 42.5t21 57q2 11 2 22q0 28 -12 47q-16 27 -42.5 44t-58 27.5t-56.5 20.5q-19 8 -43 19.5t-44 31t-32 48.5q-8 20 -8 47q0 11 1 24q3 33 17.5 66.5t41 60t65.5 43.5t92 17q39 0 78 -13.5 t81 -54.5q-11 -11 -20.5 -22.5t-20.5 -23.5q-8 8 -19.5 17.5t-27 17.5t-35.5 13.5t-45 5.5q-32 0 -57 -10.5t-43.5 -27.5t-29.5 -40t-14 -47q-2 -11 -1 -21q0 -14 3 -25q6 -18 20 -30.5t34.5 -21.5t44.5 -18q31 -11 67.5 -26.5t66.5 -40.5q29 -24 47 -60q12 -26 13 -60 q0 -14 -2 -29q-6 -45 -28 -81t-54 -61.5t-72 -39t-83 -13.5q-39 0 -71.5 10.5t-59 26t-45 34t-28.5 35.5z" />
<glyph unicode="T" horiz-adv-x="553" d="M41 640l8 60h553l-8 -60h-245l-91 -640h-62l91 640h-246z" />
<glyph unicode="U" horiz-adv-x="652" d="M67 226l66 474h62l-66 -471q-2 -17 -2 -33q0 -23 5 -43q9 -33 30 -55.5t52.5 -34.5t71.5 -12q39 0 74 12t62.5 34.5t46 55.5t24.5 76l66 471h62l-66 -474q-8 -57 -33 -101t-62 -73.5t-83.5 -44.5t-98.5 -15q-53 0 -95.5 15t-71 44.5t-40.5 73.5q-7 26 -7 57q0 21 3 44z " />
<glyph unicode="V" horiz-adv-x="722" d="M105 700h63q40 -142 79.5 -281.5t79.5 -281.5q1 -8 2 -15.5t3 -15.5q3 8 6 15.5t7 15.5q80 142 158.5 281.5t158.5 281.5h63q-103 -184 -206.5 -366t-206.5 -366z" />
<glyph unicode="W" horiz-adv-x="1108" d="M105 700h63q39 -142 78.5 -281.5t80.5 -281.5q1 -8 2 -15.5t3 -15.5q42 96 99 189.5t108 186.5q-15 55 -30.5 109t-30.5 109h62q40 -142 79.5 -281.5t80.5 -281.5q1 -8 1.5 -15.5t2.5 -15.5q6 15 14 31q80 142 158.5 281.5t158.5 281.5h63q-103 -184 -206.5 -366 t-206.5 -366l-118 417q-2 8 -3 15.5t-3 15.5q-24 -56 -54.5 -112.5t-63.5 -113t-66.5 -112.5t-64.5 -110z" />
<glyph unicode="X" horiz-adv-x="700" d="M43 0q72 90 141.5 179t140.5 179q-43 86 -86 171t-87 171h76q35 -69 69 -136t69 -135q2 -6 4.5 -12t4.5 -11q3 5 6.5 11t7.5 12q54 68 107 135t107 136h76q-69 -88 -137 -174t-137 -174q45 -88 90 -175.5t90 -176.5h-77l-135 264q-5 10 -8.5 20.5t-8.5 20.5l-15 -24 q-56 -71 -110.5 -140.5t-110.5 -140.5h-77z" />
<glyph unicode="Y" horiz-adv-x="638" d="M72 700h76q40 -88 79.5 -173.5t78.5 -173.5q2 -7 3.5 -14.5t3.5 -14.5h1q4 7 8 14.5t8 14.5q64 88 127.5 173.5t127.5 173.5h76q-80 -109 -159 -216.5t-159 -216.5l-37 -267h-76l38 268q-50 108 -98.5 215.5t-97.5 216.5z" />
<glyph unicode="Z" horiz-adv-x="700" d="M81 0l8 60q134 146 266.5 290t267.5 290h-366q-31 0 -49 15q-14 12 -14 34q0 5 1 10l5 36h63l-2 -12q-2 -14 4 -18.5t23 -4.5h421l-8 -60q-135 -146 -267.5 -290t-267.5 -290h482l-8 -60h-559z" />
<glyph unicode="[" horiz-adv-x="338" d="M20 -149l125 895h183l-8 -61h-120l-109 -773h121l-9 -61h-183z" />
<glyph unicode="\" horiz-adv-x="365" d="M58 736h70q43 -190 85.5 -377.5t85.5 -377.5h-70q-43 190 -85.5 377.5t-85.5 377.5z" />
<glyph unicode="]" horiz-adv-x="342" d="M5 -149l8 61h120l109 773h-121l9 61h183l-125 -895h-183z" />
<glyph unicode="^" horiz-adv-x="470" d="M99 479q36 45 72.5 90.5t72.5 90.5q24 -45 47.5 -90.5t47.5 -90.5h-46l-30 48t-31 49q-21 -25 -43 -49l-44 -48h-46z" />
<glyph unicode="_" horiz-adv-x="600" d="M95 0l8 61h400l-8 -61h-400z" />
<glyph unicode="`" horiz-adv-x="200" d="M-30 612h63q18 -33 35.5 -66.5t35.5 -66.5h-46q-23 33 -44.5 66.5t-43.5 66.5z" />
<glyph unicode="a" horiz-adv-x="506" d="M75 187q6 43 26 79t51 62.5t69 41t80 14.5q28 0 51.5 -8t40.5 -20t28 -25t13 -23q2 16 6.5 33t6.5 34h51l-52 -375h-55l5 39l2 12t2 13q-5 -10 -18 -22.5t-33.5 -23.5t-46.5 -18.5t-56 -7.5q-42 0 -76 15.5t-57 42t-33 62.5q-7 23 -7 47q0 13 2 28zM138 188 q-2 -11 -1 -21q-1 -17 3 -33q6 -24 22.5 -42t40 -28.5t52.5 -10.5t55.5 10.5t47.5 28.5t34.5 42.5t17.5 53.5q2 11 2 21q0 17 -4 32q-6 25 -22.5 43t-40 28.5t-52.5 10.5q-30 0 -56.5 -10.5t-47 -28.5t-34 -43t-17.5 -53z" />
<glyph unicode="b" horiz-adv-x="531" d="M82 0l105 750h62l-57 -402q-2 -11 -5.5 -20t-6.5 -19q5 10 19 23t34.5 24.5t46 19.5t53.5 8q42 0 76 -15.5t57 -42.5q24 -26 34 -62q7 -23 8 -48q0 -14 -3 -28q-6 -43 -26 -79t-50.5 -62t-69 -40.5t-80.5 -14.5q-30 0 -54 7.5t-41 18.5t-27 23.5t-12 22.5q-1 -7 -1.5 -13 t-1.5 -12l-5 -39h-55zM170 188q-1 -11 -1 -20q0 -18 4 -34q7 -24 22.5 -42t39 -28.5t53.5 -10.5q29 0 55.5 10.5t47 28.5t34 42.5t17.5 53.5q2 11 2 21q0 17 -4 32q-6 25 -22.5 43t-40 28.5t-52.5 10.5t-55.5 -10.5t-47 -28.5t-34.5 -43t-18 -53z" />
<glyph unicode="c" horiz-adv-x="391" d="M62 188q6 44 26 80t50 62t68.5 40t80.5 14q37 0 67 -11.5t53 -31.5q-11 -12 -22.5 -23.5t-22.5 -23.5q-16 14 -37 21.5t-46 7.5q-29 0 -55.5 -10.5t-47 -28.5t-34.5 -43t-18 -53q-1 -11 -1 -20q0 -18 4 -34q7 -24 22.5 -42t39 -28.5t52.5 -10.5q26 0 48.5 7.5t41.5 21.5 l16 -24t16 -23q-29 -20 -62 -31.5t-69 -11.5q-41 0 -75 15.5t-57 42.5q-24 26 -34 62q-7 23 -6 47q0 14 2 29z" />
<glyph unicode="d" horiz-adv-x="526" d="M77 188q6 40 26 76t50.5 62.5t69 42t80.5 15.5q28 0 51.5 -8t40.5 -19.5t28 -24.5t13 -23q-1 10 -1 19t-1 20l57 402h62l-105 -750h-55l5 39l2 12t1 13q-5 -10 -18 -22.5t-33 -23.5t-46 -18.5t-56 -7.5q-42 0 -76 15.5t-57 42.5q-23 26 -33 62q-7 23 -7 48q0 13 2 28z M140 188q-2 -11 -1 -21q-1 -17 3 -33q6 -24 22.5 -42t40 -28.5t52.5 -10.5t55.5 10.5t47 28.5t34.5 42.5t18 53.5q1 10 1 20q0 17 -4 33q-7 25 -22.5 43t-39 28.5t-53.5 10.5q-29 0 -55.5 -10.5t-47 -28.5t-34 -43t-17.5 -53z" />
<glyph unicode="e" horiz-adv-x="451" d="M62 188q6 45 25.5 81.5t49.5 62t68.5 39t81.5 13.5q62 0 103 -43.5t50 -110.5q-77 -28 -153.5 -55.5t-152.5 -55.5q12 -30 40.5 -48t66.5 -18q27 0 51.5 10t44.5 27q8 -11 16 -22.5t16 -22.5q-29 -25 -64 -39t-73 -14q-41 0 -75 15.5t-57 42.5q-24 26 -34 62q-7 23 -6 47 q0 14 2 29zM125 178q60 22 120 43.5t120 43.5q-12 26 -34.5 42t-51.5 16q-52 0 -91.5 -28.5t-54.5 -76.5q-4 -10 -5.5 -20t-2.5 -20z" />
<glyph unicode="f" horiz-adv-x="311" d="M66 319l9 61h64l19 137q8 56 31 99t57.5 72.5t77.5 45t91 17.5l-8 -60q-35 -1 -66 -13.5t-56 -35t-41.5 -54.5t-22.5 -72l-20 -136h121l-8 -61h-121l-44 -319h-63l45 319h-65z" />
<glyph unicode="g" horiz-adv-x="518" d="M68 -190q12 13 24.5 25t24.5 25q19 -20 46.5 -33t59.5 -13q28 0 54.5 11t47 30.5t34.5 46t19 58.5l10 70q2 8 5 16l6 16q-7 -11 -21 -23t-33.5 -22.5t-44.5 -17t-54 -6.5q-42 0 -76 15.5t-57 42t-33 61.5q-7 22 -7 47q0 13 2 28q6 44 26 80t50.5 62t69 40.5t80.5 14.5 q28 0 51.5 -8t40.5 -20t28 -25t13 -23q2 16 6.5 33t6.5 34h51l-55 -392l-4 -30q-6 -45 -26.5 -82t-50.5 -64t-67.5 -42t-78.5 -15q-44 1 -83 18t-65 42zM138 188q-2 -11 -2 -21q0 -17 4 -33q7 -24 23 -42t39.5 -28.5t52.5 -10.5t55.5 10.5t47.5 28.5t34.5 42.5t17.5 53.5 q2 11 2 21q0 17 -4 32q-7 25 -23 43t-39.5 28.5t-52.5 10.5q-30 0 -56.5 -10.5t-47 -28.5t-34 -43t-17.5 -53z" />
<glyph unicode="h" horiz-adv-x="512" d="M92 0l105 750h63l-60 -427l-10 -45q29 48 75 75.5t103 29.5q57 0 86 -31q25 -26 24 -67v-14l-38 -271h-62l34 247v9q0 24 -14 42q-16 22 -56 24q-28 0 -55 -10t-49.5 -27t-37.5 -40.5t-19 -51.5l-26 -193h-63z" />
<glyph unicode="i" horiz-adv-x="194" d="M66 0l52 375h63l-52 -375h-63zM128 514q2 18 17 30.5t31 12.5q16 -1 27 -13q9 -11 9 -25v-5q-3 -19 -17.5 -30.5t-30.5 -11.5t-28 12q-9 9 -9 22q0 4 1 8z" />
<glyph unicode="j" horiz-adv-x="225" d="M12 -135q29 23 48 56t25 78l53 377q16 0 31 -0.5t31 -0.5l-52 -377q-9 -60 -35 -105t-64 -74q-9 12 -18.5 23.5t-18.5 22.5zM149 514q2 18 17 30.5t31 12.5t27 -13q9 -10 9 -25v-5q-3 -19 -17.5 -30.5t-30.5 -11.5q-17 0 -28 12q-9 9 -9 22q0 4 1 8z" />
<glyph unicode="k" horiz-adv-x="449" d="M68 0l105 750h62l-78 -550q58 48 112 92t111 92q8 -9 16 -18.5t16 -18.5q-40 -33 -75.5 -63.5t-75.5 -63.5q33 -55 65 -110t65 -110h-72q-27 45 -54 89.5t-54 89.5q-16 -13 -31.5 -26t-32.5 -27l-17 -126h-62z" />
<glyph unicode="l" horiz-adv-x="191" d="M66 0l105 750h63l-105 -750h-63z" />
<glyph unicode="m" horiz-adv-x="796" d="M92 0l52 375h56l-3 -22q-2 -20 -3.5 -37.5t-3.5 -37.5q28 48 74.5 76t103.5 29q54 0 82.5 -27.5t27.5 -72.5q29 46 75 72.5t101 27.5q57 0 86 -31q25 -26 25 -67q0 -7 -1 -14l-38 -271h-62l34 247v6q0 25 -14 45q-16 22 -56 24q-28 0 -55 -9.5t-49 -26.5t-37.5 -40.5 t-19.5 -50.5l-27 -195h-62l34 247v9q0 24 -14 42q-16 22 -56 24q-28 0 -55 -10t-49.5 -27t-37.5 -40.5t-19 -51.5l-26 -193h-63z" />
<glyph unicode="n" horiz-adv-x="495" d="M92 0l52 375h56l-3 -22q-2 -20 -3.5 -37.5t-3.5 -37.5q27 48 75 76.5t103 28.5q57 0 86 -31q25 -26 24 -67v-14l-38 -271h-62l34 247v9q0 24 -14 42q-16 22 -56 24q-28 0 -55 -10t-49.5 -27t-37.5 -40.5t-19 -51.5l-26 -193h-63z" />
<glyph unicode="o" horiz-adv-x="473" d="M62 188q6 46 26 82.5t50 61.5t68.5 38.5t80.5 13.5t76.5 -15.5t57.5 -42t34 -62.5q7 -23 7 -48q0 -14 -2 -28q-6 -45 -26.5 -81t-51 -61.5t-69.5 -39.5t-81 -14q-41 0 -75 15.5t-57 42.5q-24 26 -34 62q-7 23 -6 47q0 14 2 29zM124 187q-1 -10 -1 -20q0 -17 4 -33 q7 -24 23 -42t39 -28.5t51 -10.5t54 10t47 28t35 42.5t18 53.5q1 10 1 20q0 17 -4 33q-7 25 -23 43.5t-39.5 29t-51.5 10.5q-29 0 -54.5 -10.5t-46 -28.5t-34.5 -43t-18 -54z" />
<glyph unicode="p" horiz-adv-x="525" d="M31 -250l88 625h52q-2 -17 -3 -34t-3 -34q5 10 19 23t34.5 25t46 20t53.5 8q42 0 76 -15.5t57.5 -42t34.5 -61.5q6 -23 6 -48q0 -13 -2 -28q-6 -44 -26 -80t-51 -62t-69.5 -40.5t-80.5 -14.5q-30 0 -53.5 8t-40.5 19t-26.5 23t-11.5 22q0 -8 1 -15.5t1 -15.5l-39 -282 h-63zM155 188q-1 -11 -1 -20q0 -18 4 -34q7 -24 22.5 -42.5t39 -29t52.5 -10.5q30 0 56.5 10.5t47 29t34 43t17.5 53.5q2 11 2 21q0 16 -5 31q-6 25 -22 43t-39.5 28.5t-52.5 10.5t-55.5 -10.5t-47 -28.5t-34.5 -42.5t-18 -52.5z" />
<glyph unicode="q" horiz-adv-x="512" d="M76 188q6 43 26 79t51 61.5t69 40t80 14.5q28 0 51.5 -8t41 -20t28.5 -25t13 -23q2 17 5.5 34t5.5 34h53l-88 -625h-63l40 282q2 8 5.5 15.5t6.5 15.5q-5 -10 -18.5 -22.5t-33.5 -23.5t-46 -18.5t-56 -7.5q-42 0 -76 15.5t-57 42.5t-34 63q-6 22 -6 47q0 14 2 29z M139 188q-1 -11 -1 -20q0 -18 4 -34q7 -24 22.5 -42.5t39 -29t52.5 -10.5t55.5 10.5t47.5 29t34.5 43t17.5 53.5q2 11 2 21q0 16 -5 31q-6 25 -22 43t-39.5 28.5t-52.5 10.5q-30 0 -56 -10.5t-47 -28.5t-34.5 -42.5t-17.5 -52.5z" />
<glyph unicode="r" horiz-adv-x="331" d="M92 0l52 375h56l-3 -22q-2 -20 -3.5 -37.5t-3.5 -37.5q15 25 36 44.5t43.5 33t45 20.5t40.5 7l-12 -61q-31 0 -58.5 -10t-49.5 -27t-36 -40.5t-18 -51.5l-26 -193h-63z" />
<glyph unicode="s" horiz-adv-x="399" d="M80 39l45 45q34 -31 80 -31q5 0 15.5 2t21 8t19.5 16t12 27q1 6 1 11q0 15 -8 23q-10 12 -28 19t-39.5 13.5t-39.5 17.5q-19 10 -29 30q-7 13 -7 34q0 9 2 20q4 29 18 49.5t32.5 33.5t39.5 19t39 6q10 0 23.5 -2t27.5 -7t27 -13t22 -20q-10 -11 -20.5 -23t-21.5 -23 q-7 9 -24 18.5t-40 9.5t-40.5 -12t-19.5 -37q-1 -17 11 -27t30 -18t38.5 -16t37.5 -21t26 -33q6 -14 6 -33q0 -8 -1 -18q-2 -15 -10.5 -35t-25.5 -38t-43 -30t-62 -12q-34 0 -66 12t-49 35z" />
<glyph unicode="t" horiz-adv-x="293" d="M75 318l8 61h85l34 240h62l-33 -240h106l-8 -61h-107l-44 -318h-62l44 318h-85z" />
<glyph unicode="u" horiz-adv-x="529" d="M106 104l38 271h63l-35 -247v-6q0 -26 14 -46q16 -22 57 -23q28 0 55 9.5t49 27t37 41t19 51.5l27 193h62l-53 -381h-62l8 58l9 45q-27 -48 -75.5 -76.5t-102.5 -28.5q-57 0 -86 31q-25 26 -25 67q0 7 1 14z" />
<glyph unicode="v" horiz-adv-x="500" d="M106 375h63q27 -70 58 -143.5t49 -145.5q19 36 42.5 72.5t48 73t50 72.5t48.5 71h62q-66 -100 -132.5 -199t-133.5 -199q-39 100 -77.5 199t-77.5 199z" />
<glyph unicode="w" horiz-adv-x="772" d="M107 375h62q25 -72 51.5 -144t45.5 -145q31 57 66.5 112.5t69.5 110.5q-6 17 -11.5 33t-11.5 33h62q25 -72 51.5 -144t45.5 -145q40 73 87 145t91 144h63q-64 -100 -127.5 -199t-128.5 -199q-24 68 -49 135t-49 135l-174 -270q-36 100 -71.5 199t-72.5 199z" />
<glyph unicode="x" horiz-adv-x="448" d="M28 0q43 49 85.5 98.5t86.5 98.5q-26 45 -53 89t-53 89h77q22 -37 44 -73.5t44 -72.5q65 74 125 146h77l-171 -198q27 -45 53.5 -88.5t53.5 -88.5h-79q-22 36 -43.5 72.5t-44.5 73.5q-60 -72 -125 -146h-77z" />
<glyph unicode="y" horiz-adv-x="496" d="M60 -250q41 63 80.5 124.5t80.5 124.5q-35 94 -68.5 188t-68.5 188h63q3 -8 11.5 -32.5t20 -57t24.5 -69t24.5 -69t20.5 -57.5t12 -34q6 9 21.5 34t36.5 57.5t44 69.5t43.5 69.5t36 56.5t20.5 32h63q-100 -157 -200 -312.5t-201 -312.5h-64z" />
<glyph unicode="z" horiz-adv-x="451" d="M42 0l8 61q78 64 145 126.5t145 127.5h-169q-31 0 -49 15q-14 12 -14 34q0 5 1 10l5 36h63l-2 -12q-2 -14 4 -18.5t23 -4.5h234l-8 -61q-39 -33 -75 -64.5t-71 -62.5t-70.5 -62.5t-74.5 -63.5h276l-8 -61h-363z" />
<glyph unicode="{" horiz-adv-x="306" d="M25 265l9 64q24 1 41.5 14.5t29 33.5t18 43.5t9.5 43.5l23 164q6 46 18.5 70.5t28.5 35t36 11.5t41 1h56l-9 -61h-48q-15 0 -25.5 -4.5t-18 -16.5t-13 -32.5t-9.5 -52.5l-20 -135q-5 -36 -14.5 -60.5t-21.5 -41.5t-24.5 -27t-24.5 -17q10 -6 20 -16.5t17 -27.5t10 -42 t-2 -59l-19 -135q-9 -63 -1.5 -84.5t38.5 -21.5h48l-8 -61h-56q-22 0 -41.5 1t-33 12.5t-18.5 38t2 77.5l22 150q3 20 3 43.5t-6 43.5t-19.5 33.5t-37.5 14.5z" />
<glyph unicode="|" horiz-adv-x="255" d="M27 -232l131 932h63l-131 -932h-63z" />
<glyph unicode="}" horiz-adv-x="320" d="M-15 -149l8 61h48q15 0 25.5 4.5t18 16.5t12.5 32.5t10 52.5l21 146q4 31 14 54t22 39t25 25.5t23 15.5q-10 7 -20 17t-17 27t-10 41.5t2 60.5l19 135q4 32 5 52.5t-3.5 32.5t-14 16.5t-24.5 4.5h-48l8 61h56q21 0 40.5 -1t33 -11.5t19 -35t-0.5 -70.5l-22 -153 q-3 -20 -4 -44.5t4.5 -47t19 -38t39.5 -16.5l-10 -64q-26 -1 -44 -16.5t-29 -38t-17 -47.5t-9 -44l-21 -150q-6 -46 -18.5 -70.5t-28.5 -35t-36 -11.5t-41 -1h-55z" />
<glyph unicode="~" horiz-adv-x="489" d="M119 467q4 19 14.5 34.5t25 26t30 16t30.5 5.5q22 0 38.5 -9.5t30.5 -25.5q13 -17 24 -22t25 -5q7 0 16.5 2t19 7.5t17 15t11.5 24.5q9 -1 18 -1.5t17 -1.5q-4 -20 -14.5 -35t-24.5 -25.5t-30 -15.5t-31 -5q-22 0 -38.5 9.5t-30.5 24.5q-13 17 -24.5 22t-25.5 5 t-34.5 -9.5t-28.5 -39.5q-8 1 -17 1.5t-18 1.5z" />
<glyph unicode="&#xa1;" horiz-adv-x="200" d="M15 -210l82 584h62l-82 -584h-62zM102 486q4 19 18 31t30 12t27.5 -12t8.5 -31q-2 -19 -17 -30.5t-31 -11.5t-27 11.5t-9 30.5z" />
<glyph unicode="&#xa2;" horiz-adv-x="385" d="M36 188q5 34 21 65.5t40 57t54.5 43t64.5 24.5l9 60h63l-8 -56q29 -2 55.5 -13t45.5 -28q-11 -12 -22.5 -23.5t-22.5 -23.5q-14 11 -30 18t-35 9l-37 -267q40 5 71 28l16 -24t16 -23q-51 -37 -111 -42l-9 -61h-63l9 66q-32 7 -58 24.5t-43 42.5t-24 56.5t-2 66.5zM98 188 q-6 -45 14.5 -79.5t59.5 -46.5l35 251q-42 -12 -72.5 -46t-36.5 -79z" />
<glyph unicode="&#xa3;" horiz-adv-x="574" d="M-16 0l8 61h43q16 0 27 4.5t18.5 17.5t12.5 35.5t10 57.5l16 108h-65l9 61h65l21 155q10 69 68.5 101.5t152.5 32.5q33 0 58.5 -7.5t43.5 -21t30 -31t19 -37.5q-27 -14 -51 -27q-6 12 -13 23t-18.5 20t-30 14.5t-46.5 5.5q-73 0 -109 -20t-43 -67l-19 -141h120l-9 -61 h-120l-18 -125l-1 -12q-4 -29 -10.5 -50.5t-23.5 -35.5h182h12q31 0 52 2.5t34 8.5t19.5 16t8.5 25l6 48h63l-10 -76q-3 -18 -8.5 -33.5t-19 -27t-38 -18t-64.5 -6.5h-382z" />
<glyph unicode="&#xa4;" horiz-adv-x="500" d="M76 247l33 29q-9 18 -13 39.5t-1 45.5q4 23 13 43t23 38q-6 7 -11.5 13.5t-12.5 14.5l51 44l24 -28q20 11 41.5 18t44.5 7q46 0 79 -25l32 28l38 -44l-30 -27q20 -37 14 -82q-8 -48 -39 -84l25 -29l-50 -44l-27 30q-38 -24 -85 -24q-45 0 -77 23l-34 -30zM158 360 q-5 -37 17.5 -63t59.5 -26q18 0 35.5 7t31.5 19t23.5 28.5t12.5 34.5q5 38 -17.5 64.5t-60.5 26.5q-18 0 -35 -7t-31 -19.5t-23.5 -29t-12.5 -35.5z" />
<glyph unicode="&#xa5;" horiz-adv-x="638" d="M72 700h76q40 -88 79 -173.5t79 -173.5q2 -7 3.5 -14.5t3.5 -14.5h1q4 7 8 14.5t8 14.5q64 88 127.5 173.5t127.5 173.5h76q-69 -95 -138 -188.5t-138 -187.5h94l-9 -61h-127l-14 -102h127l-9 -61h-127l-14 -100h-76l14 100h-130l9 61h130l14 102h-130l9 61h97 q-44 94 -86.5 187.5t-84.5 188.5z" />
<glyph unicode="&#xa6;" horiz-adv-x="215" d="M13 -233l49 350h63l-49 -350h-63zM95 350l49 350h63l-49 -350h-63z" />
<glyph unicode="&#xa7;" horiz-adv-x="500" d="M124.5 336q-0.5 25 7.5 49.5t23.5 46.5t38.5 37q39 24 86 18q-10 20 -18.5 40t-17.5 41q-13 30 -16.5 52t1 38t15 28t24.5 21q17 13 39 23.5t42 21.5q10 -25 23 -52l-45 -24q-26 -15 -30 -35.5t16 -64.5h1q17 -38 33.5 -75t33.5 -75q10 -22 10.5 -47t-7.5 -49t-24.5 -45 t-39.5 -36q-40 -26 -86 -20q9 -20 18.5 -41t18.5 -41q13 -30 16.5 -52.5t-1 -39t-15 -28t-24.5 -20.5q-17 -13 -38 -23.5t-41 -21.5q-5 13 -11.5 26t-12.5 27q11 6 22.5 12t23.5 12q13 7 20.5 16t8.5 21.5t-4.5 30t-17.5 43.5q-18 36 -29 60t-17.5 39t-10 24t-5.5 16 q-10 22 -10.5 47zM186 345q1 -27 19 -43.5t46 -15.5q31 1 54.5 24t26.5 53q2 31 -18 51.5t-50 19.5q-18 -1 -33 -9t-25.5 -20.5t-16 -28t-3.5 -31.5z" />
<glyph unicode="&#xa8;" horiz-adv-x="370" d="M58 514q3 18 17.5 30.5t31.5 12.5q16 0 27 -12.5t8 -30.5q-2 -19 -16.5 -30.5t-30.5 -11.5q-17 0 -28 11.5t-9 30.5zM224 514q3 18 17.5 30.5t30.5 12.5t27.5 -12.5t8.5 -30.5q-2 -19 -17 -30.5t-31 -11.5t-27.5 11.5t-8.5 30.5z" />
<glyph unicode="&#xa9;" horiz-adv-x="793" d="M138 372q8 56 35.5 104t68 82.5t90.5 54t104 19.5t98.5 -19.5t75 -54t44.5 -82.5t6 -104t-35 -103t-67.5 -82t-90.5 -54.5t-104 -19.5t-98.5 19.5t-75.5 54.5t-45 82t-6 103zM171 372q-7 -49 5 -91t38.5 -72.5t65.5 -48t87 -17.5t92 17.5t79 48t58.5 72.5t30.5 91 q7 50 -4.5 92t-38 73t-66 48t-87.5 17t-91.5 -17t-79 -48t-59 -73t-30.5 -92zM245 375q4 34 21 63.5t42 51.5t56.5 34.5t64.5 12.5q44 0 79 -22q-5 -6 -9.5 -12t-9.5 -11q-27 18 -64 18q-27 0 -53 -10.5t-46.5 -29t-34.5 -43t-18 -52.5t3 -52.5t22.5 -43t38 -29t49.5 -10.5 q37 0 70 19l13 -23q-20 -11 -41.5 -17t-44.5 -6q-33 0 -61 13t-46.5 35t-27 51.5t-3.5 62.5z" />
<glyph unicode="&#xaa;" horiz-adv-x="585" d="M96 356q4 31 18.5 57t37 45t50 29.5t57.5 10.5q20 0 37 -6t29.5 -14.5t20.5 -18t9 -16.5q2 12 5 24t4 24h37l-37 -270h-40l4 28q0 4 1 8.5t2 9.5q-4 -7 -13.5 -16t-24 -17t-33.5 -13.5t-41 -5.5q-30 0 -54.5 11.5t-41 30.5t-24 44.5t-3.5 54.5zM142 357q-3 -21 1.5 -39 t16 -31t28.5 -20.5t38 -7.5t40 7.5t34 20.5t25 31t13 39q3 20 -2 38t-16.5 31t-28.5 20.5t-38 7.5t-40.5 -7.5t-34 -20.5t-24.5 -31t-12 -38z" />
<glyph unicode="&#xab;" horiz-adv-x="601" d="M117 239q48 41 96.5 80.5t96.5 80.5l-10 -72l-50 -44t-50 -45q18 -23 36.5 -45.5t38.5 -45.5l-10 -71zM288 239q48 41 96.5 80.5t96.5 80.5l-10 -71q-25 -23 -50 -45t-50 -45q18 -23 36.5 -45.5t38.5 -45.5l-10 -71z" />
<glyph unicode="&#xac;" horiz-adv-x="559" d="M100 200l7 46h360l-15 -98h-63l8 52h-297z" />
<glyph unicode="&#xad;" horiz-adv-x="300" d="M48 158l8 61h184l-8 -61h-184z" />
<glyph unicode="&#xae;" horiz-adv-x="801" d="M138 372q8 56 35.5 104t68 82.5t90.5 54t104 19.5t98.5 -19.5t75 -54t44.5 -82.5t6 -104t-35 -103t-67.5 -82t-90.5 -54.5t-104 -19.5t-98.5 19.5t-75.5 54.5t-45 82t-6 103zM171 372q-7 -49 5 -91t38.5 -72.5t65.5 -48t87 -17.5t92 17.5t79 48t58.5 72.5t30.5 91 q7 50 -4.5 92t-38 73t-66 48t-87.5 17t-91.5 -17t-79 -48t-59 -73t-30.5 -92zM301 210l46 331h75q15 0 33 -5t32.5 -15.5t23 -27t5.5 -40.5q-5 -35 -26 -58t-56 -31q13 -38 25.5 -76.5t25.5 -77.5h-32q-13 38 -25.5 76t-25.5 76h-12h-39l-21 -152h-29zM355 390h45q23 0 39 6 t26 15.5t15 20.5t7 21q3 24 -16.5 42t-52.5 18h-45z" />
<glyph unicode="&#xaf;" horiz-adv-x="399" d="M82 482l5 41h230l-5 -41h-230z" />
<glyph unicode="&#xb0;" horiz-adv-x="282" d="M43 560q3 19 12.5 36t24 30t33 20t38.5 7q19 0 35 -7t26.5 -20t15.5 -30t2 -36q-3 -20 -12.5 -36.5t-23.5 -29.5t-32.5 -20t-37.5 -7q-40 0 -63 27t-18 66zM85 559q-3 -22 10 -37t35 -15t40 15t20 37q3 23 -10 38t-35 15q-23 0 -40 -15t-20 -38z" />
<glyph unicode="&#xb1;" horiz-adv-x="524" d="M53 111l9 61h360l-9 -61h-360zM89 360l8 61h148l22 150h63l-22 -150h149l-8 -61h-149l-21 -149h-63l21 149h-148z" />
<glyph unicode="&#xb2;" horiz-adv-x="398" d="M41 185q35 31 68.5 60t59.5 56.5t43.5 53t20.5 48.5q3 22 -1.5 36.5t-13 23.5t-19.5 13t-22 4q-20 0 -34 -7t-23 -17.5t-13.5 -22.5t-6.5 -21q-4 -33 13 -53q-6 -5 -11.5 -9.5t-10.5 -9.5q-7 6 -11.5 14t-7 18t-3.5 20t0 20q3 19 12 37t23.5 31.5t34 21.5t43.5 8 q21 0 38 -8t28 -21.5t15.5 -32t1.5 -39.5q-4 -25 -17.5 -50t-33.5 -49t-44.5 -47.5t-49.5 -47.5h137l-4 -30h-212z" />
<glyph unicode="&#xb3;" horiz-adv-x="419" d="M39 217q6 5 12.5 10.5t12.5 11.5q9 -12 21.5 -19t29.5 -7q15 0 29.5 6t26 16.5t19.5 24t10 28.5t-2 28.5t-12.5 23.5t-21.5 16t-29 6t-32 -10q24 32 48 63l48 62h-107l4 30h160q-24 -30 -47.5 -60t-47.5 -59q17 -4 31.5 -13t23.5 -22t13.5 -29.5t1.5 -35.5 q-3 -22 -14 -41t-27.5 -33t-37 -22.5t-41.5 -8.5q-23 0 -41.5 9t-30.5 25z" />
<glyph unicode="&#xb4;" horiz-adv-x="257" d="M90 479q27 33 54.5 66.5t54.5 66.5h64q-32 -33 -63.5 -66.5t-63.5 -66.5h-46z" />
<glyph unicode="&#xb5;" horiz-adv-x="545" d="M51 -201l81 576h63l-35 -247q-3 -30 14 -51.5t57 -23.5q28 0 55 9.5t49 27t37 41t19 51.5l27 193h62l-53 -381h-63l8 58l10 45q-28 -48 -75 -76t-103 -29q-41 0 -60 21l-30 -214h-63z" />
<glyph unicode="&#xb6;" horiz-adv-x="530" d="M67 586q5 34 22 64t42 52t56.5 35t65.5 13h225l-105 -750h-62l97 689h-101l-97 -689h-62l59 423q-34 0 -62 12.5t-47 34.5t-27.5 52t-3.5 64z" />
<glyph unicode="&#xb7;" horiz-adv-x="166" d="M42 281q3 19 17.5 31t31.5 12q16 0 27 -12t8 -31q-2 -19 -16.5 -30.5t-30.5 -11.5q-17 0 -28 11.5t-9 30.5z" />
<glyph unicode="&#xb8;" horiz-adv-x="452" d="M104 -172l39 18q3 -17 16 -28.5t34 -11.5q26 0 43.5 17t21.5 43q3 22 -7 35t-22.5 22.5t-22.5 19.5t-7 28l4 29h40l-1 -7q-2 -14 1 -22.5t8.5 -14t12 -9.5t12.5 -8q20 -16 26 -35.5t2 -41.5q-6 -45 -36 -74.5t-77 -29.5q-32 0 -56 17.5t-31 52.5z" />
<glyph unicode="&#xb9;" horiz-adv-x="266" d="M53 184l38 271h-37l3 28h66l-41 -299h-29z" />
<glyph unicode="&#xba;" d="M92 357q4 33 18.5 59t36 44t49.5 28t58 10t55 -11t41.5 -30.5t24.5 -45.5t4 -54q-5 -33 -19.5 -59t-36.5 -44.5t-50 -28.5t-59 -10q-29 0 -53.5 11.5t-41 30.5t-24.5 44.5t-3 55.5zM136 356q-2 -20 3 -38t16.5 -31t28 -20.5t36.5 -7.5t39 7.5t34 20.5t25 30.5t13 38.5 q3 20 -2 38t-16.5 31.5t-28.5 21t-37 7.5q-21 0 -39.5 -7.5t-33 -20.5t-25 -31t-13.5 -39z" />
<glyph unicode="&#xbb;" horiz-adv-x="601" d="M94 77l10 71q25 23 50 45.5t51 45.5q-20 23 -38 45t-38 45l10 71q38 -41 74.5 -80.5t74.5 -80.5zM265 77l10 71q25 23 50 45.5t51 45.5q-20 23 -38 45t-38 44l10 72q38 -41 74.5 -80.5t74.5 -80.5z" />
<glyph unicode="&#xbc;" horiz-adv-x="968" d="M121 166l59 418h-58l6 43h102l-64 -461h-45zM215 -19q97 190 192 377.5t192 377.5h63q-97 -190 -192.5 -377.5t-192.5 -377.5h-62zM364 136q81 89 161 177t161 177l-44 -308h72l-6 -46h-72l-19 -136h-47l19 136h-225zM464 182h131l24 171q-39 -43 -77.5 -85.5 t-77.5 -85.5z" />
<glyph unicode="&#xbd;" horiz-adv-x="1069" d="M118 166l59 418h-58l6 43h102l-64 -461h-45zM215 -19q97 190 192 377.5t192 377.5h63q-97 -190 -192.5 -377.5t-192.5 -377.5h-62zM374 0q51 44 98.5 86t85 81t62.5 76t30 70q4 31 -2.5 52t-19 34t-28.5 18.5t-30 5.5q-29 0 -49.5 -10t-33 -25t-19.5 -32t-9 -31 q-6 -46 18 -76q-8 -7 -15.5 -13t-15.5 -13q-9 7 -16 19t-11 26t-5.5 29t1.5 28q4 29 16.5 54.5t33 45t49 30.5t62.5 11q31 0 55 -11t39.5 -31t22 -46t2.5 -56q-5 -37 -25 -72.5t-48.5 -70t-63.5 -68.5l-70 -68h196l-6 -43h-304z" />
<glyph unicode="&#xbe;" horiz-adv-x="1276" d="M95 205q10 9 20 17.5t20 16.5q13 -18 33 -29t46 -11q24 0 47 9.5t41 25.5t30.5 37.5t16.5 44.5q3 24 -3 45.5t-20 37t-34.5 24.5t-44.5 9q-26 0 -51 -14q38 49 75.5 97.5t75.5 97.5h-169l7 47h252q-38 -47 -75.5 -93.5t-74.5 -93.5q27 -6 49.5 -20t37 -34.5t21 -46 t2.5 -56.5q-4 -34 -22 -63.5t-43.5 -52t-57.5 -35.5t-66 -13q-36 0 -65 14t-48 39zM397 -19q97 190 192 377.5t192 377.5h63q-97 -190 -192.5 -377.5t-192.5 -377.5h-62zM512 136q81 89 161 177t161 177l-44 -308h72l-6 -46h-72l-19 -136h-47l19 136h-225zM612 182h131 l25 171q-40 -43 -78.5 -85.5t-77.5 -85.5z" />
<glyph unicode="&#xbf;" horiz-adv-x="439" d="M9 2q8 55 40 96.5t83 74.5q17 12 35 22t33 23t26 32t15 47l11 78h63l-14 -97q-4 -31 -17.5 -51t-33 -35t-43 -28.5t-49.5 -33.5q-38 -27 -59 -59t-26 -69q-4 -29 2.5 -53.5t21.5 -42.5t38 -28t51 -10q57 0 95 27.5t61 78.5l26 -10t27 -10q-12 -24 -30 -50t-44.5 -47.5 t-62 -35.5t-80.5 -14q-41 0 -75 15.5t-56.5 42t-33 62t-4.5 75.5zM259 489q2 19 17 30.5t30 11.5q16 0 27.5 -11.5t8.5 -30.5q-2 -18 -17 -30.5t-31 -12.5q-15 0 -26.5 12.5t-8.5 30.5z" />
<glyph unicode="&#xc0;" horiz-adv-x="740" d="M9 0q103 184 206.5 366t206.5 366l207 -732h-63q-20 72 -40.5 144.5t-41.5 144.5h-250q-41 -72 -81 -144.5t-82 -144.5h-62zM268 348h199q-14 54 -29.5 107.5t-30.5 107.5q-2 8 -2.5 15.5t-2.5 15.5q-2 -5 -7 -16t-7 -15q-16 -29 -30.5 -55.5t-29.5 -52.5t-29.5 -52.5 t-30.5 -54.5zM313 883h63q18 -33 35.5 -66.5t35.5 -66.5h-46q-23 33 -44.5 66.5t-43.5 66.5z" />
<glyph unicode="&#xc1;" horiz-adv-x="740" d="M9 0q103 184 206.5 366t206.5 366l207 -732h-63q-20 72 -40.5 144.5t-41.5 144.5h-250q-41 -72 -81 -144.5t-82 -144.5h-62zM268 348h199q-14 54 -29.5 107.5t-30.5 107.5q-2 8 -2.5 15.5t-2.5 15.5q-2 -5 -7 -16t-7 -15q-16 -29 -30.5 -55.5t-29.5 -52.5t-29.5 -52.5 t-30.5 -54.5zM398 750q27 33 54.5 66.5t54.5 66.5h64q-32 -33 -63.5 -66.5t-63.5 -66.5h-46z" />
<glyph unicode="&#xc2;" horiz-adv-x="740" d="M9 0q103 184 206.5 366t206.5 366l207 -732h-63q-20 72 -40.5 144.5t-41.5 144.5h-250q-41 -72 -81 -144.5t-82 -144.5h-62zM268 348h199q-14 54 -29.5 107.5t-30.5 107.5q-2 8 -2.5 15.5t-2.5 15.5q-2 -5 -7 -16t-7 -15q-16 -29 -30.5 -55.5t-29.5 -52.5t-29.5 -52.5 t-30.5 -54.5zM303 750q36 45 72.5 90.5t72.5 90.5q24 -45 47.5 -90.5t47.5 -90.5h-46l-30 48t-31 49q-21 -25 -43 -49l-44 -48h-46z" />
<glyph unicode="&#xc3;" horiz-adv-x="740" d="M9 0q103 184 206.5 366t206.5 366l207 -732h-63q-20 72 -40.5 144.5t-41.5 144.5h-250q-41 -72 -81 -144.5t-82 -144.5h-62zM268 348h199q-14 54 -29.5 107.5t-30.5 107.5q-2 8 -2.5 15.5t-2.5 15.5q-2 -5 -7 -16t-7 -15q-16 -29 -30.5 -55.5t-29.5 -52.5t-29.5 -52.5 t-30.5 -54.5zM271 766q4 19 14.5 34.5t25 26t30 16t30.5 5.5q22 0 38.5 -9.5t30.5 -25.5q13 -17 24 -22t25 -5q7 0 16.5 2t19 7.5t17 15t11.5 24.5q9 -1 18 -1.5t17 -1.5q-4 -20 -14.5 -35t-24.5 -25.5t-30 -15.5t-31 -5q-22 0 -38.5 9.5t-30.5 24.5q-13 17 -24.5 22 t-25.5 5t-34.5 -9.5t-28.5 -39.5q-8 1 -17 1.5t-18 1.5z" />
<glyph unicode="&#xc4;" horiz-adv-x="740" d="M9 0q103 184 206.5 366t206.5 366l207 -732h-63q-20 72 -40.5 144.5t-41.5 144.5h-250q-41 -72 -81 -144.5t-82 -144.5h-62zM268 348h199q-14 54 -29.5 107.5t-30.5 107.5q-2 8 -2.5 15.5t-2.5 15.5q-2 -5 -7 -16t-7 -15q-16 -29 -30.5 -55.5t-29.5 -52.5t-29.5 -52.5 t-30.5 -54.5zM309 804q3 18 17.5 30.5t31.5 12.5q16 0 27 -12.5t8 -30.5q-2 -19 -16.5 -30.5t-30.5 -11.5q-17 0 -28 11.5t-9 30.5zM475 804q3 18 17.5 30.5t30.5 12.5t27.5 -12.5t8.5 -30.5q-2 -19 -17 -30.5t-31 -11.5t-27.5 11.5t-8.5 30.5z" />
<glyph unicode="&#xc5;" horiz-adv-x="740" d="M9 0q103 184 206.5 366t206.5 366l207 -732h-63q-20 72 -40.5 144.5t-41.5 144.5h-250q-41 -72 -81 -144.5t-82 -144.5h-62zM268 348h199q-14 54 -29.5 107.5t-30.5 107.5q-2 8 -2.5 15.5t-2.5 15.5q-2 -5 -7 -16t-7 -15q-16 -29 -30.5 -55.5t-29.5 -52.5t-29.5 -52.5 t-30.5 -54.5zM360 837q2 16 10.5 30.5t21 25.5t27.5 17.5t32 6.5q16 0 29.5 -6.5t23 -17.5t14 -25.5t2.5 -30.5q-3 -17 -11.5 -31.5t-21 -25t-28 -17t-31.5 -6.5q-33 0 -53 23.5t-15 56.5zM402 836q-2 -15 7.5 -26t24.5 -11q16 0 28.5 11t14.5 26q2 16 -7 27t-25 11 t-28.5 -11t-14.5 -27z" />
<glyph unicode="&#xc6;" horiz-adv-x="796" d="M10 0q100 176 197.5 350t197.5 350h342l-8 -60h-270l-37 -258h231l-8 -59h-231l-38 -264h284l-8 -59h-346l39 280h-124q-40 -71 -79 -140.5t-79 -139.5h-63zM264 339h100l34 244q-28 -62 -64 -122.5t-70 -121.5z" />
<glyph unicode="&#xc7;" horiz-adv-x="670" d="M77 349q10 74 47.5 139.5t93 114t124.5 77t143 28.5q51 0 94.5 -13t81.5 -37q-10 -13 -20.5 -25.5t-21.5 -25.5q-61 41 -142 41q-61 0 -118 -23.5t-102.5 -64.5t-76.5 -95.5t-40 -115.5q-9 -62 6.5 -116t50 -94.5t84.5 -64t111 -23.5q41 0 79.5 10.5t74.5 30.5l27 -50 q-42 -23 -86.5 -35.5t-92.5 -14.5q-2 -14 1.5 -22.5t9 -13.5t12 -9t12.5 -8q19 -16 25 -35.5t3 -41.5q-7 -45 -37 -74.5t-76 -29.5q-32 0 -56 17.5t-31 52.5q9 5 19 9t20 9q3 -17 15.5 -28.5t34.5 -11.5q26 0 43 17t21 43q3 22 -6.5 35t-22 22.5t-22.5 19.5t-7 28l2 23 q-68 5 -123.5 35t-93 77.5t-54 110t-6.5 132.5z" />
<glyph unicode="&#xc8;" horiz-adv-x="601" d="M27 0l99 700h423l-8 -60h-361l-37 -258h322l-9 -59h-321l-38 -264h375l-8 -59h-437zM229 883h63q18 -33 35.5 -66.5t35.5 -66.5h-46q-23 33 -44.5 66.5t-43.5 66.5z" />
<glyph unicode="&#xc9;" horiz-adv-x="601" d="M27 0l99 700h423l-8 -60h-361l-37 -258h322l-9 -59h-321l-38 -264h375l-8 -59h-437zM305 750q27 33 54.5 66.5t54.5 66.5h64q-32 -33 -63.5 -66.5t-63.5 -66.5h-46z" />
<glyph unicode="&#xca;" horiz-adv-x="601" d="M27 0l99 700h423l-8 -60h-361l-37 -258h322l-9 -59h-321l-38 -264h375l-8 -59h-437zM243 750q36 45 72.5 90.5t72.5 90.5q24 -45 47.5 -90.5t47.5 -90.5h-46l-30 48t-31 49q-21 -25 -43 -49l-44 -48h-46z" />
<glyph unicode="&#xcb;" horiz-adv-x="601" d="M27 0l99 700h423l-8 -60h-361l-37 -258h322l-9 -59h-321l-38 -264h375l-8 -59h-437zM235 804q3 18 17.5 30.5t31.5 12.5q16 0 27 -12.5t8 -30.5q-2 -19 -16.5 -30.5t-30.5 -11.5q-17 0 -28 11.5t-9 30.5zM401 804q3 18 17.5 30.5t30.5 12.5t27.5 -12.5t8.5 -30.5 q-2 -19 -17 -30.5t-31 -11.5t-27.5 11.5t-8.5 30.5z" />
<glyph unicode="&#xcc;" horiz-adv-x="236" d="M51 0l99 700h63l-99 -700h-63zM67 883h63q18 -33 35.5 -66.5t35.5 -66.5h-46q-23 33 -44.5 66.5t-43.5 66.5z" />
<glyph unicode="&#xcd;" horiz-adv-x="236" d="M51 0l99 700h63l-99 -700h-63zM156 750q27 33 54.5 66.5t54.5 66.5h64q-32 -33 -63.5 -66.5t-63.5 -66.5h-46z" />
<glyph unicode="&#xce;" horiz-adv-x="271" d="M51 0l99 700h63l-99 -700h-63zM74 750q36 45 72.5 90.5t72.5 90.5q24 -45 47.5 -90.5t47.5 -90.5h-46l-30 48t-31 49q-21 -25 -43 -49l-44 -48h-46z" />
<glyph unicode="&#xcf;" horiz-adv-x="236" d="M51 0l99 700h63l-99 -700h-63zM58 804q3 18 17.5 30.5t31.5 12.5q16 0 27 -12.5t8 -30.5q-2 -19 -16.5 -30.5t-30.5 -11.5q-17 0 -28 11.5t-9 30.5zM224 804q3 18 17.5 30.5t30.5 12.5t27.5 -12.5t8.5 -30.5q-2 -19 -17 -30.5t-31 -11.5t-27.5 11.5t-8.5 30.5z" />
<glyph unicode="&#xd0;" horiz-adv-x="646" d="M17 320l9 61h46l45 319h147q77 0 142.5 -24.5t111.5 -70t67 -110.5t10 -145q-9 -63 -39 -125.5t-86 -112.5t-140.5 -81t-201.5 -31h-110l45 320h-46zM88 59h83q70 0 131.5 19.5t109.5 57t79.5 91.5t41.5 123q9 67 -7.5 120.5t-54 91.5t-93 58.5t-125.5 20.5h-82l-37 -260 h194l-9 -61h-193z" />
<glyph unicode="&#xd1;" horiz-adv-x="813" d="M50 0l103 732q113 -151 224.5 -300t223.5 -300q4 -7 8 -13t8 -13q0 8 0.5 16t0.5 16l80 562h62l-103 -732q-114 149 -225.5 295.5t-224.5 295.5q-3 7 -7 13t-8 13q-1 -8 -1 -16t-1 -16l-78 -553h-62zM319 759q4 19 14.5 34.5t25 26t30 16t30.5 5.5q22 0 38.5 -9.5 t30.5 -25.5q13 -17 24 -22t25 -5q7 0 16.5 2t19 7.5t17 15t11.5 24.5q9 -1 18 -1.5t17 -1.5q-4 -20 -14.5 -35t-24.5 -25.5t-30 -15.5t-31 -5q-22 0 -38.5 9.5t-30.5 24.5q-13 17 -24.5 22t-25.5 5t-34.5 -9.5t-28.5 -39.5q-8 1 -17 1.5t-18 1.5z" />
<glyph unicode="&#xd2;" horiz-adv-x="839" d="M60 349q10 74 47.5 139.5t93 114t124.5 77t143 28.5t135 -28.5t103 -77t61 -114t9 -139.5t-47.5 -139t-93 -113.5t-125 -76.5t-143.5 -28t-135 28t-102.5 76.5t-60.5 113.5t-9 139zM122 349q-8 -62 7.5 -116t50 -94.5t84.5 -64t111 -23.5t118.5 23.5t103.5 64t77 94.5 t40 116q9 61 -7 115.5t-50.5 95.5t-85 64.5t-111.5 23.5t-118 -23.5t-103 -64.5t-77 -95.5t-40 -115.5zM357 883h63q18 -33 35.5 -66.5t35.5 -66.5h-46q-23 33 -44.5 66.5t-43.5 66.5z" />
<glyph unicode="&#xd3;" horiz-adv-x="840" d="M60 349q10 74 47.5 139.5t93 114t124.5 77t143 28.5t135 -28.5t103 -77t61 -114t9 -139.5t-47.5 -139t-93 -113.5t-125 -76.5t-143.5 -28t-135 28t-102.5 76.5t-60.5 113.5t-9 139zM122 349q-8 -62 7.5 -116t50 -94.5t84.5 -64t111 -23.5t118.5 23.5t103.5 64t77 94.5 t40 116q9 61 -7 115.5t-50.5 95.5t-85 64.5t-111.5 23.5t-118 -23.5t-103 -64.5t-77 -95.5t-40 -115.5zM455 750q27 33 54.5 66.5t54.5 66.5h64q-32 -33 -63.5 -66.5t-63.5 -66.5h-46z" />
<glyph unicode="&#xd4;" horiz-adv-x="839" d="M60 349q10 74 47.5 139.5t93 114t124.5 77t143 28.5t135 -28.5t103 -77t61 -114t9 -139.5t-47.5 -139t-93 -113.5t-125 -76.5t-143.5 -28t-135 28t-102.5 76.5t-60.5 113.5t-9 139zM122 349q-8 -62 7.5 -116t50 -94.5t84.5 -64t111 -23.5t118.5 23.5t103.5 64t77 94.5 t40 116q9 61 -7 115.5t-50.5 95.5t-85 64.5t-111.5 23.5t-118 -23.5t-103 -64.5t-77 -95.5t-40 -115.5zM358 750q36 45 72.5 90.5t72.5 90.5q24 -45 47.5 -90.5t47.5 -90.5h-46l-30 48t-31 49q-21 -25 -43 -49l-44 -48h-46z" />
<glyph unicode="&#xd5;" horiz-adv-x="839" d="M60 349q10 74 47.5 139.5t93 114t124.5 77t143 28.5t135 -28.5t103 -77t61 -114t9 -139.5t-47.5 -139t-93 -113.5t-125 -76.5t-143.5 -28t-135 28t-102.5 76.5t-60.5 113.5t-9 139zM122 349q-8 -62 7.5 -116t50 -94.5t84.5 -64t111 -23.5t118.5 23.5t103.5 64t77 94.5 t40 116q9 61 -7 115.5t-50.5 95.5t-85 64.5t-111.5 23.5t-118 -23.5t-103 -64.5t-77 -95.5t-40 -115.5zM313 794q4 19 14.5 34.5t25 26t30 16t30.5 5.5q22 0 38.5 -9.5t30.5 -25.5q13 -17 24 -22t25 -5q7 0 16.5 2t19 7.5t17 15t11.5 24.5q9 -1 18 -1.5t17 -1.5 q-4 -20 -14.5 -35t-24.5 -25.5t-30 -15.5t-31 -5q-22 0 -38.5 9.5t-30.5 24.5q-13 17 -24.5 22t-25.5 5t-34.5 -9.5t-28.5 -39.5q-8 1 -17 1.5t-18 1.5z" />
<glyph unicode="&#xd6;" horiz-adv-x="839" d="M60 349q10 74 47.5 139.5t93 114t124.5 77t143 28.5t135 -28.5t103 -77t61 -114t9 -139.5t-47.5 -139t-93 -113.5t-125 -76.5t-143.5 -28t-135 28t-102.5 76.5t-60.5 113.5t-9 139zM122 349q-8 -62 7.5 -116t50 -94.5t84.5 -64t111 -23.5t118.5 23.5t103.5 64t77 94.5 t40 116q9 61 -7 115.5t-50.5 95.5t-85 64.5t-111.5 23.5t-118 -23.5t-103 -64.5t-77 -95.5t-40 -115.5zM346 804q3 18 17.5 30.5t31.5 12.5q16 0 27 -12.5t8 -30.5q-2 -19 -16.5 -30.5t-30.5 -11.5q-17 0 -28 11.5t-9 30.5zM512 804q3 18 17.5 30.5t30.5 12.5t27.5 -12.5 t8.5 -30.5q-2 -19 -17 -30.5t-31 -11.5t-27.5 11.5t-8.5 30.5z" />
<glyph unicode="&#xd7;" horiz-adv-x="500" d="M101 44q30 26 59.5 52.5t59.5 52.5l-90 106l51 44l90 -106q30 27 60 53t60 53q10 -11 19 -22l18 -22q-29 -26 -59.5 -52.5t-59.5 -52.5q23 -26 45 -52.5t45 -53.5l-51 -44q-23 26 -45.5 52.5t-45.5 52.5q-29 -26 -59 -52l-60 -52q-9 11 -18.5 21.5t-18.5 21.5z" />
<glyph unicode="&#xd8;" horiz-adv-x="840" d="M56 24q18 18 36 36.5t37 37.5q-42 48 -60 112.5t-8 138.5t47.5 139.5t93 114t124.5 77t143 28.5q59 0 109 -17.5t90 -49.5q18 19 36.5 37.5l37.5 37.5q18 -20 38 -38q-19 -19 -37.5 -37t-36.5 -37q43 -49 62.5 -114.5t8.5 -140.5q-10 -74 -47.5 -139t-93 -113.5 t-125 -76.5t-143.5 -28q-60 0 -110.5 18t-89.5 50q-19 -18 -37.5 -37t-36.5 -37q-10 9 -19 18.5t-19 19.5zM123 349q-8 -60 6 -112t46 -92q112 113 223 224.5t223 224.5q-32 26 -72.5 40t-87.5 14q-61 0 -118 -23.5t-103 -64.5t-77 -95.5t-40 -115.5zM214 107 q32 -26 72.5 -41t88.5 -15q61 0 118.5 23.5t104 64t77.5 94.5t40 116q8 60 -7.5 113.5t-48.5 93.5q-112 -113 -222.5 -224.5t-222.5 -224.5z" />
<glyph unicode="&#xd9;" horiz-adv-x="652" d="M68 226l66 474h62l-66 -471q-6 -43 3 -76t30 -55.5t52.5 -34.5t71.5 -12q39 0 74 12t62.5 34.5t46 55.5t24.5 76l66 471h62l-66 -474q-8 -57 -33 -101t-62 -73.5t-83.5 -44.5t-98.5 -15q-53 0 -95.5 15t-71 44.5t-40.5 73.5t-4 101zM260 883h63q18 -33 35.5 -66.5 t35.5 -66.5h-46q-23 33 -44.5 66.5t-43.5 66.5z" />
<glyph unicode="&#xda;" horiz-adv-x="652" d="M68 226l66 474h62l-66 -471q-6 -43 3 -76t30 -55.5t52.5 -34.5t71.5 -12q39 0 74 12t62.5 34.5t46 55.5t24.5 76l66 471h62l-66 -474q-8 -57 -33 -101t-62 -73.5t-83.5 -44.5t-98.5 -15q-53 0 -95.5 15t-71 44.5t-40.5 73.5t-4 101zM356 750q27 33 54.5 66.5t54.5 66.5 h64q-32 -33 -63.5 -66.5t-63.5 -66.5h-46z" />
<glyph unicode="&#xdb;" horiz-adv-x="652" d="M68 226l66 474h62l-66 -471q-6 -43 3 -76t30 -55.5t52.5 -34.5t71.5 -12q39 0 74 12t62.5 34.5t46 55.5t24.5 76l66 471h62l-66 -474q-8 -57 -33 -101t-62 -73.5t-83.5 -44.5t-98.5 -15q-53 0 -95.5 15t-71 44.5t-40.5 73.5t-4 101zM266 751q36 45 72.5 90.5t72.5 90.5 q24 -45 47.5 -90.5t47.5 -90.5h-46l-30 48t-31 49q-21 -25 -43 -49l-44 -48h-46z" />
<glyph unicode="&#xdc;" horiz-adv-x="652" d="M68 226l66 474h62l-66 -471q-6 -43 3 -76t30 -55.5t52.5 -34.5t71.5 -12q39 0 74 12t62.5 34.5t46 55.5t24.5 76l66 471h62l-66 -474q-8 -57 -33 -101t-62 -73.5t-83.5 -44.5t-98.5 -15q-53 0 -95.5 15t-71 44.5t-40.5 73.5t-4 101zM271 804q3 18 17.5 30.5t31.5 12.5 q16 0 27 -12.5t8 -30.5q-2 -19 -16.5 -30.5t-30.5 -11.5q-17 0 -28 11.5t-9 30.5zM437 804q3 18 17.5 30.5t30.5 12.5t27.5 -12.5t8.5 -30.5q-2 -19 -17 -30.5t-31 -11.5t-27.5 11.5t-8.5 30.5z" />
<glyph unicode="&#xdd;" horiz-adv-x="638" d="M72 700h76q40 -88 79.5 -173.5t78.5 -173.5q2 -7 3.5 -14.5t3.5 -14.5h1q4 7 8 14.5t8 14.5q64 88 127.5 173.5t127.5 173.5h76q-80 -109 -159 -216.5t-159 -216.5l-37 -267h-76l38 268q-50 108 -98.5 215.5t-97.5 216.5zM348 750q27 33 54.5 66.5t54.5 66.5h64 q-32 -33 -63.5 -66.5t-63.5 -66.5h-46z" />
<glyph unicode="&#xde;" horiz-adv-x="501" d="M50 0l99 700h62l-23 -165h95q33 0 70.5 -10.5t68.5 -33t49.5 -57.5t11.5 -85q-13 -88 -74.5 -140.5t-164.5 -52.5h-110l-22 -156h-62zM143 216h95q48 0 81.5 12.5t55 32t32 43t13.5 45.5q4 25 -5 48t-28.5 40.5t-48 28t-62.5 10.5h-96z" />
<glyph unicode="&#xdf;" horiz-adv-x="573" d="M18 345l8 61h65l2 18q8 55 30.5 98t54.5 73t71 46t79 16q32 0 58.5 -12.5t44.5 -33.5t26 -49t4 -60q-5 -35 -25 -64.5t-49 -47.5q48 -25 74.5 -74.5t17.5 -111.5q-6 -44 -28.5 -82.5t-55.5 -67.5t-74.5 -46t-85.5 -17q-48 0 -89 22q8 14 16.5 27.5t16.5 27.5 q30 -16 64 -16q31 0 60.5 12t53.5 33t40 48.5t20 58.5t-4 58t-26 47.5t-44.5 32.5t-57.5 12h-1q2 7 2.5 14.5t1.5 15.5l4 31q39 0 70 23.5t37 62.5q3 19 -1.5 36t-15 30.5t-26.5 21t-35 7.5q-30 -1 -57.5 -13t-50 -34.5t-37.5 -54.5t-21 -72l-59 -422h-62l48 345h-64z" />
<glyph unicode="&#xe0;" horiz-adv-x="551" d="M75 187q6 43 26 79t51 62.5t69 41t80 14.5q28 0 51.5 -8t40.5 -20t28 -25t13 -23q2 16 6.5 33t6.5 34h51l-52 -375h-55l5 39l2 12t2 13q-5 -10 -18 -22.5t-33.5 -23.5t-46.5 -18.5t-56 -7.5q-42 0 -76 15.5t-57 42t-33.5 62t-4.5 75.5zM138 188q-4 -29 2.5 -53.5 t22.5 -42.5t39.5 -28.5t52.5 -10.5t55.5 10.5t47.5 28.5t34.5 42.5t17.5 53.5q4 28 -2.5 53t-22.5 43t-39.5 28.5t-52.5 10.5q-30 0 -56.5 -10.5t-47 -28.5t-34 -43t-17.5 -53zM199 612h63q18 -33 35.5 -66.5t35.5 -66.5h-46q-23 33 -44.5 66.5t-43.5 66.5z" />
<glyph unicode="&#xe1;" horiz-adv-x="551" d="M75 187q6 43 26 79t51 62.5t69 41t80 14.5q28 0 51.5 -8t40.5 -20t28 -25t13 -23q2 16 6.5 33t6.5 34h51l-52 -375h-55l5 39l2 12t2 13q-5 -10 -18 -22.5t-33.5 -23.5t-46.5 -18.5t-56 -7.5q-42 0 -76 15.5t-57 42t-33.5 62t-4.5 75.5zM138 188q-4 -29 2.5 -53.5 t22.5 -42.5t39.5 -28.5t52.5 -10.5t55.5 10.5t47.5 28.5t34.5 42.5t17.5 53.5q4 28 -2.5 53t-22.5 43t-39.5 28.5t-52.5 10.5q-30 0 -56.5 -10.5t-47 -28.5t-34 -43t-17.5 -53zM299 479q27 33 54.5 66.5t54.5 66.5h64q-32 -33 -63.5 -66.5t-63.5 -66.5h-46z" />
<glyph unicode="&#xe2;" horiz-adv-x="551" d="M75 187q6 43 26 79t51 62.5t69 41t80 14.5q28 0 51.5 -8t40.5 -20t28 -25t13 -23q2 16 6.5 33t6.5 34h51l-52 -375h-55l5 39l2 12t2 13q-5 -10 -18 -22.5t-33.5 -23.5t-46.5 -18.5t-56 -7.5q-42 0 -76 15.5t-57 42t-33.5 62t-4.5 75.5zM138 188q-4 -29 2.5 -53.5 t22.5 -42.5t39.5 -28.5t52.5 -10.5t55.5 10.5t47.5 28.5t34.5 42.5t17.5 53.5q4 28 -2.5 53t-22.5 43t-39.5 28.5t-52.5 10.5q-30 0 -56.5 -10.5t-47 -28.5t-34 -43t-17.5 -53zM205 479q36 45 72.5 90.5t72.5 90.5q24 -45 47.5 -90.5t47.5 -90.5h-46l-30 48t-31 49 q-21 -25 -43 -49l-44 -48h-46z" />
<glyph unicode="&#xe3;" horiz-adv-x="551" d="M75 187q6 43 26 79t51 62.5t69 41t80 14.5q28 0 51.5 -8t40.5 -20t28 -25t13 -23q2 16 6.5 33t6.5 34h51l-52 -375h-55l5 39l2 12t2 13q-5 -10 -18 -22.5t-33.5 -23.5t-46.5 -18.5t-56 -7.5q-42 0 -76 15.5t-57 42t-33.5 62t-4.5 75.5zM138 188q-4 -29 2.5 -53.5 t22.5 -42.5t39.5 -28.5t52.5 -10.5t55.5 10.5t47.5 28.5t34.5 42.5t17.5 53.5q4 28 -2.5 53t-22.5 43t-39.5 28.5t-52.5 10.5q-30 0 -56.5 -10.5t-47 -28.5t-34 -43t-17.5 -53zM167 467q4 19 14.5 34.5t25 26t30 16t30.5 5.5q22 0 38.5 -9.5t30.5 -25.5q13 -17 24 -22t25 -5 q7 0 16.5 2t19 7.5t17 15t11.5 24.5q9 -1 18 -1.5t17 -1.5q-4 -20 -14.5 -35t-24.5 -25.5t-30 -15.5t-31 -5q-22 0 -38.5 9.5t-30.5 24.5q-13 17 -24.5 22t-25.5 5t-34.5 -9.5t-28.5 -39.5q-8 1 -17 1.5t-18 1.5z" />
<glyph unicode="&#xe4;" horiz-adv-x="551" d="M75 187q6 43 26 79t51 62.5t69 41t80 14.5q28 0 51.5 -8t40.5 -20t28 -25t13 -23q2 16 6.5 33t6.5 34h51l-52 -375h-55l5 39l2 12t2 13q-5 -10 -18 -22.5t-33.5 -23.5t-46.5 -18.5t-56 -7.5q-42 0 -76 15.5t-57 42t-33.5 62t-4.5 75.5zM138 188q-4 -29 2.5 -53.5 t22.5 -42.5t39.5 -28.5t52.5 -10.5t55.5 10.5t47.5 28.5t34.5 42.5t17.5 53.5q4 28 -2.5 53t-22.5 43t-39.5 28.5t-52.5 10.5q-30 0 -56.5 -10.5t-47 -28.5t-34 -43t-17.5 -53zM200 514q3 18 17.5 30.5t31.5 12.5q16 0 27 -12.5t8 -30.5q-2 -19 -16.5 -30.5t-30.5 -11.5 q-17 0 -28 11.5t-9 30.5zM366 514q3 18 17.5 30.5t30.5 12.5t27.5 -12.5t8.5 -30.5q-2 -19 -17 -30.5t-31 -11.5t-27.5 11.5t-8.5 30.5z" />
<glyph unicode="&#xe5;" horiz-adv-x="551" d="M75 187q6 43 26 79t51 62.5t69 41t80 14.5q28 0 51.5 -8t40.5 -20t28 -25t13 -23q2 16 6.5 33t6.5 34h51l-52 -375h-55l5 39l2 12t2 13q-5 -10 -18 -22.5t-33.5 -23.5t-46.5 -18.5t-56 -7.5q-42 0 -76 15.5t-57 42t-33.5 62t-4.5 75.5zM138 188q-4 -29 2.5 -53.5 t22.5 -42.5t39.5 -28.5t52.5 -10.5t55.5 10.5t47.5 28.5t34.5 42.5t17.5 53.5q4 28 -2.5 53t-22.5 43t-39.5 28.5t-52.5 10.5q-30 0 -56.5 -10.5t-47 -28.5t-34 -43t-17.5 -53zM245 540q3 16 11.5 31t21 25.5t27.5 17t32 6.5q32 0 52.5 -23.5t15.5 -56.5q-2 -17 -10.5 -31.5 t-21 -25t-28 -17t-31.5 -6.5q-17 0 -30.5 6.5t-23 17t-13.5 25t-2 31.5zM288 539q-2 -15 7.5 -26t24.5 -11q16 0 28.5 11t14.5 26q2 16 -7 27t-25 11t-28.5 -11t-14.5 -27z" />
<glyph unicode="&#xe6;" horiz-adv-x="629" d="M33 108q4 30 19.5 50t37.5 32.5t49 17.5t55 5h106l5 33q3 19 1.5 33.5t-10 24.5t-26 14.5t-47.5 4.5q-13 0 -28.5 -2.5t-30.5 -7t-28.5 -9.5t-21.5 -11q-8 11 -14.5 20.5t-14.5 20.5q12 10 29.5 19t37.5 16t41 11t39 4q77 0 107 -20q45 20 92 20q62 0 102.5 -43 t50.5 -110q-58 -21 -115.5 -41.5t-114.5 -41.5l-2 -10l-1 -7q-3 -21 -8.5 -37t-16.5 -29q25 -12 58 -12q27 0 51.5 10.5t44.5 27.5q8 -12 16 -23.5t16 -22.5q-29 -24 -63.5 -38t-72.5 -14q-50 0 -91 22q-41 -23 -109 -23q-36 0 -64.5 5.5t-47.5 19t-27.5 35.5t-3.5 56z M95 105q-2 -16 5.5 -26t20.5 -16t30 -8t33 -2q15 0 32 1.5t31.5 7.5t24.5 17t13 30l6 40h-68q-15 0 -35.5 -0.5t-40.5 -4.5t-34.5 -13t-17.5 -26zM363 213q36 14 72.5 26.5t73.5 26.5q-12 26 -34.5 41.5t-51.5 15.5q-32 0 -59 -11q9 -22 3 -68z" />
<glyph unicode="&#xe7;" horiz-adv-x="391" d="M52 188q6 40 26 76t51 62.5t69 42t80 15.5q36 0 66.5 -11.5t52.5 -31.5q-11 -12 -23 -23.5t-23 -23.5q-16 14 -36.5 21.5t-45.5 7.5q-29 0 -55.5 -10.5t-47 -28.5t-34 -43t-17.5 -53q-5 -29 2 -53.5t22.5 -42.5t39 -28.5t52.5 -10.5q26 0 48.5 7.5t42.5 21.5 q8 -12 15.5 -24t15.5 -23q-57 -41 -128 -43q-2 -14 1.5 -22.5t8.5 -13.5t12 -9t13 -8q19 -16 25 -35.5t2 -41.5q-5 -38 -28 -65t-58 -35q-9 -2 -18 -2.5t-19 0.5q-28 2 -49.5 18.5t-27.5 49.5l39 18q3 -17 16 -28.5t34 -11.5q26 0 43.5 17t21.5 43q3 22 -6.5 35t-22 22.5 t-22.5 19.5t-8 28l4 26q-34 6 -61 23t-45 42.5t-25.5 57.5t-2.5 68z" />
<glyph unicode="&#xe8;" horiz-adv-x="451" d="M62 188q6 45 25.5 81.5t49.5 62t68.5 39t81.5 13.5q62 0 103 -43.5t50 -110.5q-77 -28 -153.5 -55.5t-152.5 -55.5q12 -30 40.5 -48t66.5 -18q27 0 51.5 10t44.5 27q8 -11 16 -22.5t16 -22.5q-29 -25 -64 -39t-73 -14q-41 0 -75 15.5t-57 42t-33.5 62t-4.5 76.5zM125 178 q60 22 120 43.5t120 43.5q-12 26 -34.5 42t-51.5 16q-52 0 -91.5 -28.5t-54.5 -76.5q-4 -10 -5.5 -20t-2.5 -20zM171 612h63q18 -33 35.5 -66.5t35.5 -66.5h-46q-23 33 -44.5 66.5t-43.5 66.5z" />
<glyph unicode="&#xe9;" horiz-adv-x="451" d="M62 188q6 45 25.5 81.5t49.5 62t68.5 39t81.5 13.5q62 0 103 -43.5t50 -110.5q-77 -28 -153.5 -55.5t-152.5 -55.5q12 -30 40.5 -48t66.5 -18q27 0 51.5 10t44.5 27q8 -11 16 -22.5t16 -22.5q-29 -25 -64 -39t-73 -14q-41 0 -75 15.5t-57 42t-33.5 62t-4.5 76.5zM125 178 q60 22 120 43.5t120 43.5q-12 26 -34.5 42t-51.5 16q-52 0 -91.5 -28.5t-54.5 -76.5q-4 -10 -5.5 -20t-2.5 -20zM272 479q27 33 54.5 66.5t54.5 66.5h64q-32 -33 -63.5 -66.5t-63.5 -66.5h-46z" />
<glyph unicode="&#xea;" horiz-adv-x="451" d="M62 188q6 45 25.5 81.5t49.5 62t68.5 39t81.5 13.5q62 0 103 -43.5t50 -110.5q-77 -28 -153.5 -55.5t-152.5 -55.5q12 -30 40.5 -48t66.5 -18q27 0 51.5 10t44.5 27q8 -11 16 -22.5t16 -22.5q-29 -25 -64 -39t-73 -14q-41 0 -75 15.5t-57 42t-33.5 62t-4.5 76.5zM125 178 q60 22 120 43.5t120 43.5q-12 26 -34.5 42t-51.5 16q-52 0 -91.5 -28.5t-54.5 -76.5q-4 -10 -5.5 -20t-2.5 -20zM179 479q36 45 72.5 90.5t72.5 90.5q24 -45 47.5 -90.5t47.5 -90.5h-46l-30 48t-31 49q-21 -25 -43 -49l-44 -48h-46z" />
<glyph unicode="&#xeb;" horiz-adv-x="451" d="M62 188q6 45 25.5 81.5t49.5 62t68.5 39t81.5 13.5q62 0 103 -43.5t50 -110.5q-77 -28 -153.5 -55.5t-152.5 -55.5q12 -30 40.5 -48t66.5 -18q27 0 51.5 10t44.5 27q8 -11 16 -22.5t16 -22.5q-29 -25 -64 -39t-73 -14q-41 0 -75 15.5t-57 42t-33.5 62t-4.5 76.5zM125 178 q60 22 120 43.5t120 43.5q-12 26 -34.5 42t-51.5 16q-52 0 -91.5 -28.5t-54.5 -76.5q-4 -10 -5.5 -20t-2.5 -20zM169 514q3 18 17.5 30.5t31.5 12.5q16 0 27 -12.5t8 -30.5q-2 -19 -16.5 -30.5t-30.5 -11.5q-17 0 -28 11.5t-9 30.5zM335 514q3 18 17.5 30.5t30.5 12.5 t27.5 -12.5t8.5 -30.5q-2 -19 -17 -30.5t-31 -11.5t-27.5 11.5t-8.5 30.5z" />
<glyph unicode="&#xec;" horiz-adv-x="174" d="M44 612h63q18 -33 35.5 -66.5t35.5 -66.5h-46q-23 33 -44.5 66.5t-43.5 66.5zM66 0l52 375h63l-52 -375h-63z" />
<glyph unicode="&#xed;" horiz-adv-x="196" d="M64 0l52 375h63l-52 -375h-63zM138 479q27 33 54.5 66.5t54.5 66.5h64q-32 -33 -63.5 -66.5t-63.5 -66.5h-46z" />
<glyph unicode="&#xee;" horiz-adv-x="239" d="M56 479q36 45 72.5 90.5t72.5 90.5q24 -45 47.5 -90.5t47.5 -90.5h-46l-30 48t-31 49q-21 -25 -43 -49l-44 -48h-46zM85 0l52 375h62l-52 -375h-62z" />
<glyph unicode="&#xef;" horiz-adv-x="271" d="M80 514q3 18 17.5 30.5t31.5 12.5q16 0 27 -12.5t8 -30.5q-2 -19 -16.5 -30.5t-30.5 -11.5q-17 0 -28 11.5t-9 30.5zM111 0l52 375h62l-52 -375h-62zM246 514q3 18 17.5 30.5t30.5 12.5t27.5 -12.5t8.5 -30.5q-2 -19 -17 -30.5t-31 -11.5t-27.5 11.5t-8.5 30.5z" />
<glyph unicode="&#xf0;" horiz-adv-x="493" d="M30 186q5 40 25 76t50 63t68 43t80 17q27 1 49.5 -8t39.5 -24q-7 45 -26.5 97t-54.5 106l-32 -30t-33 -30q-9 11 -18.5 20t-18.5 20q18 17 36 33t35 33q-36 50 -79 91q25 22 50 41q21 -18 41 -39.5t39 -44.5q15 14 30.5 28.5t29.5 29.5l38 -38q-17 -17 -34 -32.5 t-34 -32.5q28 -43 52 -93.5t40 -104.5t22.5 -108t-0.5 -105q-5 -41 -24 -76.5t-48.5 -62.5t-67 -43.5t-79.5 -17.5q-41 -1 -75.5 14t-58.5 41t-35.5 61t-6.5 76zM90 188q-4 -29 3 -53.5t23 -42.5t40 -28t53 -9q30 0 56 11t46.5 29.5t34 43.5t17.5 53q3 29 -4.5 53.5 t-23.5 42.5t-39.5 27.5t-52.5 9.5q-30 -1 -56 -11.5t-46.5 -29t-34 -43.5t-16.5 -53z" />
<glyph unicode="&#xf1;" horiz-adv-x="523" d="M92 0l52 375h56l-3 -22q-2 -20 -3.5 -37.5t-3.5 -37.5q27 48 75 76.5t103 28.5q57 0 86 -31t24 -81l-38 -271h-62l34 247q3 29 -13.5 51t-56.5 24q-28 0 -55 -10t-49.5 -27t-37.5 -40.5t-19 -51.5l-26 -193h-63zM189 459q4 19 14.5 34.5t25 26t30 16t30.5 5.5 q22 0 38.5 -9.5t30.5 -25.5q13 -17 24 -22t25 -5q7 0 16.5 2t19 7.5t17 15t11.5 24.5q9 -1 18 -1.5t17 -1.5q-4 -20 -14.5 -35t-24.5 -25.5t-30 -15.5t-31 -5q-22 0 -38.5 9.5t-30.5 24.5q-13 17 -24.5 22t-25.5 5t-34.5 -9.5t-28.5 -39.5q-8 1 -17 1.5t-18 1.5z" />
<glyph unicode="&#xf2;" d="M62 188q6 46 26 82.5t50 61.5t68.5 38.5t80.5 13.5t76.5 -15.5t57.5 -42t34 -62.5t5 -76q-6 -45 -26.5 -81t-51 -61.5t-69.5 -39.5t-81 -14q-41 0 -75 15.5t-57 42t-33.5 62t-4.5 76.5zM124 187q-4 -28 3 -52.5t23 -42.5t39 -28.5t51 -10.5t54 10t47 28t35 42.5t18 53.5 q4 28 -3 53t-23 43.5t-39.5 29t-51.5 10.5q-29 0 -54.5 -10.5t-46 -28.5t-34.5 -43t-18 -54zM182 612h63q18 -33 35.5 -66.5t35.5 -66.5h-46q-23 33 -44.5 66.5t-43.5 66.5z" />
<glyph unicode="&#xf3;" d="M62 188q6 46 26 82.5t50 61.5t68.5 38.5t80.5 13.5t76.5 -15.5t57.5 -42t34 -62.5t5 -76q-6 -45 -26.5 -81t-51 -61.5t-69.5 -39.5t-81 -14q-41 0 -75 15.5t-57 42t-33.5 62t-4.5 76.5zM124 187q-4 -28 3 -52.5t23 -42.5t39 -28.5t51 -10.5t54 10t47 28t35 42.5t18 53.5 q4 28 -3 53t-23 43.5t-39.5 29t-51.5 10.5q-29 0 -54.5 -10.5t-46 -28.5t-34.5 -43t-18 -54zM294 479q27 33 54.5 66.5t54.5 66.5h64q-32 -33 -63.5 -66.5t-63.5 -66.5h-46z" />
<glyph unicode="&#xf4;" d="M62 188q6 46 26 82.5t50 61.5t68.5 38.5t80.5 13.5t76.5 -15.5t57.5 -42t34 -62.5t5 -76q-6 -45 -26.5 -81t-51 -61.5t-69.5 -39.5t-81 -14q-41 0 -75 15.5t-57 42t-33.5 62t-4.5 76.5zM124 187q-4 -28 3 -52.5t23 -42.5t39 -28.5t51 -10.5t54 10t47 28t35 42.5t18 53.5 q4 28 -3 53t-23 43.5t-39.5 29t-51.5 10.5q-29 0 -54.5 -10.5t-46 -28.5t-34.5 -43t-18 -54zM174 479q36 45 72.5 90.5t72.5 90.5q24 -45 47.5 -90.5t47.5 -90.5h-46l-30 48t-31 49q-21 -25 -43 -49l-44 -48h-46z" />
<glyph unicode="&#xf5;" d="M62 188q6 46 26 82.5t50 61.5t68.5 38.5t80.5 13.5t76.5 -15.5t57.5 -42t34 -62.5t5 -76q-6 -45 -26.5 -81t-51 -61.5t-69.5 -39.5t-81 -14q-41 0 -75 15.5t-57 42t-33.5 62t-4.5 76.5zM124 187q-4 -28 3 -52.5t23 -42.5t39 -28.5t51 -10.5t54 10t47 28t35 42.5t18 53.5 q4 28 -3 53t-23 43.5t-39.5 29t-51.5 10.5q-29 0 -54.5 -10.5t-46 -28.5t-34.5 -43t-18 -54zM136 467q4 19 14.5 34.5t25 26t30 16t30.5 5.5q22 0 38.5 -9.5t30.5 -25.5q13 -17 24 -22t25 -5q7 0 16.5 2t19 7.5t17 15t11.5 24.5q9 -1 18 -1.5t17 -1.5q-4 -20 -14.5 -35 t-24.5 -25.5t-30 -15.5t-31 -5q-22 0 -38.5 9.5t-30.5 24.5q-13 17 -24.5 22t-25.5 5t-34.5 -9.5t-28.5 -39.5q-8 1 -17 1.5t-18 1.5z" />
<glyph unicode="&#xf6;" d="M62 188q6 46 26 82.5t50 61.5t68.5 38.5t80.5 13.5t76.5 -15.5t57.5 -42t34 -62.5t5 -76q-6 -45 -26.5 -81t-51 -61.5t-69.5 -39.5t-81 -14q-41 0 -75 15.5t-57 42t-33.5 62t-4.5 76.5zM124 187q-4 -28 3 -52.5t23 -42.5t39 -28.5t51 -10.5t54 10t47 28t35 42.5t18 53.5 q4 28 -3 53t-23 43.5t-39.5 29t-51.5 10.5q-29 0 -54.5 -10.5t-46 -28.5t-34.5 -43t-18 -54zM169 514q3 18 17.5 30.5t31.5 12.5q16 0 27 -12.5t8 -30.5q-2 -19 -16.5 -30.5t-30.5 -11.5q-17 0 -28 11.5t-9 30.5zM335 514q3 18 17.5 30.5t30.5 12.5t27.5 -12.5t8.5 -30.5 q-2 -19 -17 -30.5t-31 -11.5t-27.5 11.5t-8.5 30.5z" />
<glyph unicode="&#xf7;" horiz-adv-x="501" d="M63 207l8 61h360l-8 -61h-360zM191 113q2 19 16.5 31t31.5 12q16 0 27 -12t9 -31q-3 -19 -17.5 -30.5t-30.5 -11.5t-27.5 11.5t-8.5 30.5zM226 363q2 19 16.5 31t31.5 12q16 0 27 -12t9 -31t-17 -30.5t-31 -11.5t-27.5 11.5t-8.5 30.5z" />
<glyph unicode="&#xf8;" d="M18 8q12 13 24.5 25t24.5 24q-20 26 -28 59.5t-3 71.5q6 40 26 76t50.5 62.5t69 42t79.5 15.5q29 0 54.5 -8t45.5 -22q10 11 21 21t21 21q8 -8 15 -15.5t15 -15.5q-10 -10 -20 -19.5t-19 -19.5q23 -26 34 -61.5t5 -76.5t-26.5 -76.5t-51 -62t-69 -42t-80.5 -15.5 q-64 0 -109 36q-12 -12 -24 -24.5t-24 -24.5q-8 8 -15.5 14.5t-15.5 14.5zM98 188q-4 -24 0.5 -45t15.5 -38q51 51 100 101t100 101q-27 16 -61 16q-29 0 -55.5 -10.5t-47 -28.5t-34.5 -43t-18 -53zM143 74q14 -10 32 -15.5t39 -5.5q30 0 56.5 10.5t47 28.5t34.5 42.5 t18 53.5q4 27 -2.5 50.5t-20.5 40.5l-102 -102t-102 -103z" />
<glyph unicode="&#xf9;" horiz-adv-x="529" d="M106 104l38 271h63l-35 -247q-2 -30 14.5 -51.5t56.5 -23.5q28 0 55 9.5t49 27t37 41t19 51.5l27 193h62l-53 -381h-62l8 58l9 45q-27 -48 -75.5 -76.5t-102.5 -28.5q-57 0 -86 31t-24 81zM211 612h63q18 -33 35.5 -66.5t35.5 -66.5h-46q-23 33 -44.5 66.5t-43.5 66.5z " />
<glyph unicode="&#xfa;" horiz-adv-x="529" d="M106 104l38 271h63l-35 -247q-2 -30 14.5 -51.5t56.5 -23.5q28 0 55 9.5t49 27t37 41t19 51.5l27 193h62l-53 -381h-62l8 58l9 45q-27 -48 -75.5 -76.5t-102.5 -28.5q-57 0 -86 31t-24 81zM294 479q27 33 54.5 66.5t54.5 66.5h64q-32 -33 -63.5 -66.5t-63.5 -66.5h-46z " />
<glyph unicode="&#xfb;" horiz-adv-x="529" d="M106 104l38 271h63l-35 -247q-2 -30 14.5 -51.5t56.5 -23.5q28 0 55 9.5t49 27t37 41t19 51.5l27 193h62l-53 -381h-62l8 58l9 45q-27 -48 -75.5 -76.5t-102.5 -28.5q-57 0 -86 31t-24 81zM205 479q36 45 72.5 90.5t72.5 90.5q24 -45 47.5 -90.5t47.5 -90.5h-46l-30 48 t-31 49q-21 -25 -43 -49l-44 -48h-46z" />
<glyph unicode="&#xfc;" horiz-adv-x="529" d="M106 104l38 271h63l-35 -247q-2 -30 14.5 -51.5t56.5 -23.5q28 0 55 9.5t49 27t37 41t19 51.5l27 193h62l-53 -381h-62l8 58l9 45q-27 -48 -75.5 -76.5t-102.5 -28.5q-57 0 -86 31t-24 81zM202 514q3 18 17.5 30.5t31.5 12.5q16 0 27 -12.5t8 -30.5q-2 -19 -16.5 -30.5 t-30.5 -11.5q-17 0 -28 11.5t-9 30.5zM368 514q3 18 17.5 30.5t30.5 12.5t27.5 -12.5t8.5 -30.5q-2 -19 -17 -30.5t-31 -11.5t-27.5 11.5t-8.5 30.5z" />
<glyph unicode="&#xfd;" horiz-adv-x="488" d="M60 -250q41 63 80.5 124.5t80.5 124.5q-35 94 -68.5 188t-68.5 188h63q3 -8 11.5 -32.5t20 -57t24.5 -69t24.5 -69t20.5 -57.5t12 -34q6 9 21.5 34t36.5 57.5t44 69.5t43.5 69.5t36 56.5t20.5 32h63q-100 -157 -200 -312.5t-201 -312.5h-64zM294 479q27 33 54.5 66.5 t54.5 66.5h64q-32 -33 -63.5 -66.5t-63.5 -66.5h-46z" />
<glyph unicode="&#xfe;" horiz-adv-x="557" d="M-3 -250l140 1000h62l-57 -402q-3 -11 -6.5 -20.5t-6.5 -20.5q5 10 19 23t35 24.5t46.5 19.5t53.5 8q42 0 76 -15.5t57.5 -42t34 -62t4.5 -75.5t-26 -75.5t-51 -62.5t-69.5 -42.5t-80.5 -15.5q-30 0 -53.5 8t-40.5 19t-26.5 23t-11.5 22q0 -8 1 -15.5t1 -15.5l-39 -282 h-62zM120 188q-4 -29 3 -53.5t22.5 -43t38.5 -29t53 -10.5q29 0 55.5 10.5t47.5 29t34.5 43t17.5 53.5q4 28 -2.5 52.5t-22.5 42.5t-39.5 28.5t-52.5 10.5t-55.5 -10.5t-47 -28.5t-34.5 -42.5t-18 -52.5z" />
<glyph unicode="&#xff;" horiz-adv-x="488" d="M60 -250q41 63 80.5 124.5t80.5 124.5q-35 94 -68.5 188t-68.5 188h63q3 -8 11.5 -32.5t20 -57t24.5 -69t24.5 -69t20.5 -57.5t12 -34q6 9 21.5 34t36.5 57.5t44 69.5t43.5 69.5t36 56.5t20.5 32h63q-100 -157 -200 -312.5t-201 -312.5h-64zM195 514q3 18 17.5 30.5 t31.5 12.5q16 0 27 -12.5t8 -30.5q-2 -19 -16.5 -30.5t-30.5 -11.5q-17 0 -28 11.5t-9 30.5zM361 514q3 18 17.5 30.5t30.5 12.5t27.5 -12.5t8.5 -30.5q-2 -19 -17 -30.5t-31 -11.5t-27.5 11.5t-8.5 30.5z" />
<glyph unicode="&#x2000;" horiz-adv-x="466" />
<glyph unicode="&#x2001;" horiz-adv-x="932" />
<glyph unicode="&#x2002;" horiz-adv-x="466" />
<glyph unicode="&#x2003;" horiz-adv-x="932" />
<glyph unicode="&#x2004;" horiz-adv-x="310" />
<glyph unicode="&#x2005;" horiz-adv-x="233" />
<glyph unicode="&#x2006;" horiz-adv-x="155" />
<glyph unicode="&#x2007;" horiz-adv-x="155" />
<glyph unicode="&#x2008;" horiz-adv-x="116" />
<glyph unicode="&#x2009;" horiz-adv-x="186" />
<glyph unicode="&#x200a;" horiz-adv-x="51" />
<glyph unicode="&#x2010;" horiz-adv-x="300" d="M48 158l8 61h184l-8 -61h-184z" />
<glyph unicode="&#x2011;" horiz-adv-x="300" d="M48 158l8 61h184l-8 -61h-184z" />
<glyph unicode="&#x2012;" horiz-adv-x="300" d="M48 158l8 61h184l-8 -61h-184z" />
<glyph unicode="&#x2013;" horiz-adv-x="509" d="M95 175l8 61h301l-8 -61h-301z" />
<glyph unicode="&#x2014;" horiz-adv-x="700" d="M94 175l8 61h502l-8 -61h-502z" />
<glyph unicode="&#x2018;" horiz-adv-x="164" d="M36.5 632.5q-7.5 37.5 6.5 78.5q10 -2 20.5 -3.5t20.5 -3.5q-11 -35 -6 -64.5t23 -49.5q-8 -5 -16.5 -11t-16.5 -11q-24 27 -31.5 64.5z" />
<glyph unicode="&#x2019;" horiz-adv-x="164" d="M35 590q23 20 37 49.5t12 64.5q11 2 21.5 3.5t21.5 3.5q2 -41 -15.5 -78.5t-49.5 -64.5q-7 5 -13.5 11t-13.5 11z" />
<glyph unicode="&#x201a;" horiz-adv-x="146" d="M12 -29q23 20 37 49.5t12 64.5q11 2 21.5 3.5t21.5 3.5q2 -41 -15.5 -78.5t-49.5 -64.5q-7 5 -13.5 11t-13.5 11z" />
<glyph unicode="&#x201c;" horiz-adv-x="249" d="M34 632.5q-7 37.5 7 78.5q10 -2 20 -3.5t21 -3.5q-12 -35 -7 -64.5t24 -49.5q-9 -5 -17.5 -11t-16.5 -11q-24 27 -31 64.5zM138 632.5q-7 37.5 7 78.5q10 -2 20 -3.5t21 -3.5q-12 -35 -7 -64.5t24 -49.5q-9 -5 -17.5 -11t-16.5 -11q-24 27 -31 64.5z" />
<glyph unicode="&#x201d;" horiz-adv-x="248" d="M14 590q23 20 37 49.5t12 64.5q11 2 21.5 3.5t21.5 3.5q2 -41 -15.5 -78.5t-49.5 -64.5q-8 5 -14 11t-13 11zM118 590q23 20 37 49.5t12 64.5q11 2 21.5 3.5t21.5 3.5q2 -41 -15.5 -78.5t-49.5 -64.5q-8 5 -14 11t-13 11z" />
<glyph unicode="&#x201e;" horiz-adv-x="309" d="M12 -29q23 20 37 49.5t12 64.5q11 2 21.5 3.5t21.5 3.5q2 -41 -15.5 -78.5t-49.5 -64.5q-7 5 -13.5 11t-13.5 11zM116 -29q23 20 37 49.5t12 64.5q11 2 21.5 3.5t21.5 3.5q2 -41 -15.5 -78.5t-49.5 -64.5q-7 5 -13.5 11t-13.5 11z" />
<glyph unicode="&#x2022;" horiz-adv-x="479" d="M130 300q3 23 14.5 43t28.5 34.5t37.5 23t43.5 8.5q22 0 41 -8.5t31.5 -23t18 -34.5t2.5 -43t-14 -42.5t-28 -34t-38 -23t-44 -8.5q-22 0 -40.5 8.5t-31 23t-18.5 34t-3 42.5z" />
<glyph unicode="&#x202f;" horiz-adv-x="186" />
<glyph unicode="&#x2039;" horiz-adv-x="392" d="M117 239q48 41 96.5 80.5t96.5 80.5l-10 -72l-50 -44t-50 -45q18 -23 36.5 -45.5t38.5 -45.5l-10 -71z" />
<glyph unicode="&#x203a;" horiz-adv-x="392" d="M94 77l10 71q25 23 50 45.5t51 45.5q-20 23 -38 45t-38 44l10 72q38 -41 74.5 -80.5t74.5 -80.5z" />
<glyph unicode="&#x205f;" horiz-adv-x="233" />
<glyph unicode="&#xe000;" horiz-adv-x="375" d="M0 0v375h375v-375h-375z" />
</font>
</defs>
</svg>
