<?xml version="1.0" standalone="no"?>
<!DOCTYPE svg PUBLIC "-//W3C//DTD SVG 1.1//EN" "http://www.w3.org/Graphics/SVG/1.1/DTD/svg11.dtd" >
<svg xmlns="http://www.w3.org/2000/svg">
<metadata></metadata>
<defs>
<font id="josefin_sanssemibold" horiz-adv-x="469" >
<font-face units-per-em="1000" ascent="750" descent="-250" />
<missing-glyph horiz-adv-x="300" />
<glyph horiz-adv-x="1000" />
<glyph horiz-adv-x="1000" />
<glyph unicode="&#xd;" horiz-adv-x="300" />
<glyph unicode=" "  horiz-adv-x="300" />
<glyph unicode="&#x09;" horiz-adv-x="300" />
<glyph unicode="&#xa0;" horiz-adv-x="300" />
<glyph unicode="!" horiz-adv-x="201" d="M58 54q0 19 13 30.5t29 11.5t29 -11.5t13 -30.5t-13 -31t-29 -12t-29 12t-13 31zM68 166v584h63v-584h-63z" />
<glyph unicode="&#x22;" horiz-adv-x="322" d="M63 472v248h63q-1 -63 -2 -124t-2 -124h-59zM196 472v248h63q-1 -63 -2 -124t-2 -124h-59z" />
<glyph unicode="#" horiz-adv-x="571" d="M26 199q2 15 3.5 30.5t3.5 30.5h100q4 31 7.5 61t7.5 61h-99q2 15 3 30t3 31h100q6 51 12 100t12 100h63q-6 -51 -12 -100t-12 -100h121q6 51 12 100t12 100h63q-6 -51 -12 -100t-12 -100h112q-2 -16 -3 -31t-3 -30h-113q-4 -31 -7.5 -61t-7.5 -61h112q-2 -15 -3.5 -30.5 t-3.5 -30.5h-112q-6 -51 -12 -99.5t-12 -99.5h-63q6 51 12 99.5t12 99.5h-121q-6 -51 -12 -99.5t-12 -99.5h-63q6 51 12 99.5t12 99.5h-100zM196 260h121q4 31 7.5 61t7.5 61h-121q-4 -31 -7.5 -61t-7.5 -61z" />
<glyph unicode="$" horiz-adv-x="567" d="M56 98l40 40q24 -26 60 -51.5t86 -32.5v289q-5 2 -10.5 4t-10.5 5q-19 7 -43 19t-45 31t-35.5 47t-15.5 68q-1 30 7 61t27 57t50 44t76 23v62h63v-63q31 -5 64.5 -19t70.5 -46q-9 -11 -17.5 -23t-17.5 -23q-14 13 -39.5 28.5t-60.5 21.5v-253q30 -12 62 -28t58 -39 t42.5 -55.5t16.5 -77.5q0 -41 -14 -74.5t-38 -58.5t-57 -40.5t-70 -19.5v-62h-63v63q-34 4 -63 15t-53 25.5t-42 31t-28 31.5zM144 519q0 -42 20.5 -64t55.5 -36q5 -3 10.5 -5t11.5 -4v231q-25 -4 -43.5 -15.5t-30.5 -28t-18 -36.5t-6 -42zM305 56q24 4 45 15t37 27.5 t25.5 38.5t9.5 49q0 30 -10 51t-26.5 37t-37.5 26.5t-43 19.5v-264z" />
<glyph unicode="%" horiz-adv-x="726" d="M95 389q0 25 10 47t26.5 38.5t39 26t47.5 9.5t47 -9.5t39 -26t27 -38.5t10 -47q0 -26 -10 -48t-27 -38.5t-39 -26t-47 -9.5t-47.5 9.5t-39 26t-26.5 38.5t-10 48zM158 389q0 -26 17 -43.5t43 -17.5t43 17.5t17 43.5q0 25 -17 42.5t-43 17.5t-43 -17.5t-17 -42.5zM184 0 q75 126 149 250t149 250h69q-75 -126 -149 -250t-149 -250h-69zM399 112q0 25 10 47t26.5 38t39 25.5t47.5 9.5t47 -9.5t39 -25.5t27 -38t10 -47q0 -26 -10 -48t-27 -38.5t-39 -26t-47 -9.5t-47.5 9.5t-39 26t-26.5 38.5t-10 48zM462 111q0 -26 17 -43t43 -17t43 17t17 43 t-17 43t-43 17t-43 -17t-17 -43z" />
<glyph unicode="&#x26;" horiz-adv-x="700" d="M105 188q0 36 12.5 68t34 57.5t51 43t64.5 23.5q-17 29 -35 58l-36 58q-18 30 -25.5 62t-2.5 62.5t23.5 58t51.5 47.5q28 17 57.5 20.5t57.5 -2t52.5 -16.5t43.5 -23q-6 -12 -12.5 -24.5t-12.5 -24.5q-14 8 -32 16.5t-37 13t-38.5 3t-36.5 -12.5q-48 -30 -53 -75t21 -89 q45 -74 89.5 -146t89.5 -146q5 18 8 34t5 30v21q5 29 16.5 43.5t26.5 20.5t33 6h37h44v-61h-48q-15 0 -25 -4.5t-16 -16t-8 -31.5t-2 -52v-23q0 -31 -13 -60q18 -29 35.5 -57t35.5 -57q-13 -8 -25 -16l-24 -16q-14 21 -26.5 42.5t-25.5 42.5q-28 -35 -68.5 -54.5 t-88.5 -19.5q-41 0 -77 15.5t-63 42t-42.5 62t-15.5 76.5zM168 188q0 -29 10 -53.5t28 -43t43 -29t54 -10.5q42 0 73 20t48 52q-30 50 -60.5 99t-60.5 99q-60 -2 -97.5 -38.5t-37.5 -95.5z" />
<glyph unicode="'" horiz-adv-x="158" d="M49 472v248h65q-1 -63 -2 -124t-2 -124h-61z" />
<glyph unicode="(" horiz-adv-x="415" d="M125 291q0 75 14 143t37 126t52.5 105.5t61.5 80.5q13 -6 25.5 -11.5t26.5 -11.5q-29 -33 -56.5 -78t-49.5 -100t-35 -119t-13 -135t13 -135t35 -119t49.5 -100t56.5 -78q-14 -6 -26.5 -11.5t-25.5 -11.5q-32 33 -61.5 80.5t-52.5 105.5t-37 126t-14 143z" />
<glyph unicode=")" horiz-adv-x="400" d="M85 -144q29 33 56.5 78t49.5 100t35 119t13 135t-13 135t-35 119t-49.5 100t-56.5 78l26 12l26 12q31 -33 61 -80.5t53 -105.5t37 -126t14 -143t-14 -143t-37 -126t-53 -105.5t-61 -80.5q-13 5 -26 10.5t-26 11.5z" />
<glyph unicode="*" horiz-adv-x="335" d="M29 533q20 11 38.5 21.5t38.5 21.5q-19 11 -38 23t-38 23q8 13 15 25.5t14 26.5q20 -11 39 -23t39 -23v92h64q0 -23 -0.5 -46t-0.5 -46q20 11 39.5 22.5t39.5 22.5q8 -14 15 -26.5t15 -25.5q-20 -11 -39.5 -23t-39.5 -23l38 -22t39 -22l-16 -28l-16 -28q-20 11 -38.5 23 t-38.5 23q0 -22 -0.5 -43.5t-0.5 -43.5h-60v87q-19 -11 -38 -21.5t-38 -21.5q-16 29 -32 55z" />
<glyph unicode="+" horiz-adv-x="543" d="M86 200v61h148v150h63v-150h149v-61h-149v-149h-63v149h-148z" />
<glyph unicode="," horiz-adv-x="200" d="M10 -120q19 52 37.5 103t38.5 103h66q-22 -52 -43 -103t-43 -103h-56z" />
<glyph unicode="-" horiz-adv-x="300" d="M53 158v61h184v-61h-184z" />
<glyph unicode="." horiz-adv-x="163" d="M43 42q0 19 13 31t29 12t29 -12t13 -31t-13 -30.5t-29 -11.5t-29 11.5t-13 30.5z" />
<glyph unicode="/" horiz-adv-x="363" d="M17 -19q70 190 139 377.5t139 377.5h63q-70 -190 -139 -377.5t-139 -377.5h-63z" />
<glyph unicode="0" horiz-adv-x="616" d="M37 327q0 68 19 128.5t54.5 105.5t85 71t111.5 26t111.5 -27t84 -73t52.5 -106.5t18 -128.5q0 -74 -23 -135t-60.5 -104.5t-86.5 -67.5t-101 -24t-100 25t-85 69t-58.5 105.5t-21.5 135.5zM100 327q0 -59 16 -109t44 -86.5t65 -57.5t78 -21q40 0 77.5 20t66 56t46 86 t17.5 109q0 47 -12 95.5t-37.5 88t-63.5 64.5t-90 25t-91 -24t-64.5 -63t-38.5 -87.5t-13 -95.5z" />
<glyph unicode="1" horiz-adv-x="266" d="M34 589v61h144v-650h-63v589h-81z" />
<glyph unicode="2" horiz-adv-x="512" d="M46 459q0 40 13 76t38 63.5t62.5 43.5t85.5 16q44 0 80.5 -16t62.5 -44t40 -65t14 -79q0 -52 -21 -102t-54.5 -99t-76.5 -96.5t-86 -95.5h278v-61h-429q63 62 121.5 121t104 114.5t73 107.5t27.5 99q0 43 -13 72.5t-33 48t-43.5 26.5t-44.5 8q-41 0 -67.5 -14.5 t-41.5 -35.5t-21 -45t-6 -43q0 -65 39 -107l-38 -38q-15 11 -27 28t-20 36.5t-12.5 40.5t-4.5 40z" />
<glyph unicode="3" horiz-adv-x="515" d="M69 61q11 11 23 22t23 22q20 -23 48 -37.5t62 -14.5q31 0 59 12t49 33t33 48.5t12 58.5t-12 58.5t-33 47.5t-49 32t-59 12q-34 0 -64 -19q41 64 81 126.5t80 125.5h-219v62h326q-40 -61 -79.5 -121.5t-80.5 -120.5q36 -8 67.5 -26t54.5 -44.5t36 -60t13 -72.5 q0 -44 -17 -82.5t-46 -67.5t-68 -46t-83 -17q-47 0 -87.5 18.5t-69.5 50.5z" />
<glyph unicode="4" horiz-adv-x="522" d="M37 183q92 119 183 237.5t183 237.5v-414h97v-61h-97v-183h-63v183h-303zM164 244h176v230q-45 -58 -88.5 -115t-87.5 -115z" />
<glyph unicode="5" horiz-adv-x="543" d="M107 51q11 11 22.5 21.5t23.5 21.5q39 -41 100 -41q31 0 59 12t49 33t33 48.5t12 58.5t-12 58t-33 47t-49 32t-59 12q-35 0 -64 -11.5t-46 -35.5v343h287v-61h-224v-182q24 8 48 8q43 0 82 -16.5t68.5 -45t46.5 -66.5t17 -82t-17 -82.5t-46.5 -67.5t-68.5 -46t-82 -17 t-80.5 15.5t-66.5 43.5z" />
<glyph unicode="6" horiz-adv-x="520" d="M49 196q0 72 30.5 134.5t78.5 116.5t107 101t115 88q10 -12 19.5 -24.5t19.5 -24.5q-85 -57 -138.5 -107.5t-82.5 -89.5q12 11 28.5 18t35.5 7q44 0 83 -16.5t68 -45t46 -67t17 -82.5t-17 -82.5t-46 -67t-68 -45.5t-83 -17q-43 0 -81.5 16t-67 43.5t-46 65t-18.5 79.5z M113 204q0 -31 11.5 -58.5t31.5 -48t47 -32.5t58 -12t59 12t49 32.5t33 48t12 58.5t-12 58.5t-33 47.5t-49 32t-59 12t-58 -12t-47 -32t-31.5 -47.5t-11.5 -58.5z" />
<glyph unicode="7" d="M14 588v62h409q-73 -164 -146 -325t-146 -325h-72q67 148 133 294t133 294h-311z" />
<glyph unicode="8" horiz-adv-x="510" d="M41 205q0 62 32.5 111t84.5 74q-27 19 -43 48.5t-16 65.5q0 32 12 60t33 49t49 33t60 12t60 -12.5t49 -33.5t33.5 -49t12.5 -60q0 -35 -16 -64.5t-43 -48.5q53 -25 86 -74t33 -111q0 -44 -17 -82.5t-46.5 -67.5t-68.5 -46t-82 -17q-44 0 -82.5 17t-67.5 46t-46 67.5 t-17 82.5zM105 205q0 -31 11.5 -58.5t31.5 -48.5t47 -33t58 -12t59 12t49 33t33 48.5t12 58.5q0 30 -12 57t-32 47t-47.5 32t-58.5 13q-32 0 -59.5 -12t-48 -32t-32 -47t-11.5 -58zM163 502q0 -18 7 -34t19.5 -27.5t29.5 -18t36 -6.5q39 0 65 24.5t26 61.5q0 19 -7 36.5 t-19 30.5t-29 20.5t-36 7.5t-36 -7.5t-29.5 -20.5t-19.5 -30.5t-7 -36.5z" />
<glyph unicode="9" horiz-adv-x="525" d="M35 423q0 43 17 82t46 67.5t68 45.5t83 17t82.5 -17t67.5 -45.5t46 -67.5t17 -82q0 -70 -31.5 -131.5t-80 -115t-107 -100t-112.5 -85.5q-10 12 -20 24.5t-19 24.5q85 57 138.5 107t82.5 90q-25 -25 -64 -25q-44 0 -83 16.5t-68 45t-46 67t-17 82.5zM97 423 q0 -31 12 -58.5t33 -47.5t48.5 -32t58.5 -12t58 12t47.5 32t32 47.5t11.5 58.5t-11.5 58.5t-32 48t-47.5 32.5t-58 12t-58.5 -12t-48.5 -32.5t-33 -48t-12 -58.5z" />
<glyph unicode=":" horiz-adv-x="175" d="M43 42q0 19 12.5 31t29.5 12q16 0 29 -12t13 -31t-13 -30.5t-29 -11.5q-17 0 -29.5 11.5t-12.5 30.5zM43 292q0 19 12.5 31t29.5 12q16 0 29 -12t13 -31t-13 -30.5t-29 -11.5q-17 0 -29.5 11.5t-12.5 30.5z" />
<glyph unicode=";" horiz-adv-x="201" d="M-5 -120q20 52 38.5 103t38.5 103h66q-22 -52 -43 -103t-43 -103h-57zM71 292q0 19 13 31t30 12q15 0 28 -12t13 -31t-13 -30.5t-28 -11.5q-17 0 -30 11.5t-13 30.5z" />
<glyph unicode="&#x3c;" horiz-adv-x="680" d="M116 238q110 63 218.5 126t218.5 126v-84l-146 -84l-146 -84l146 -84l146 -84v-84q-110 63 -218.5 126t-218.5 126z" />
<glyph unicode="=" horiz-adv-x="708" d="M100 123v61h506v-61h-506zM100 317v61h506v-61h-506z" />
<glyph unicode="&#x3e;" horiz-adv-x="650" d="M116 -14v84l146 84l146 84l-146 84l-146 84v84q110 -63 218.5 -126t218.5 -126q-110 -63 -218.5 -126t-218.5 -126z" />
<glyph unicode="?" horiz-adv-x="452" d="M38 585q8 24 22.5 50t37.5 47.5t56.5 35.5t78.5 14q41 0 77 -15.5t62.5 -42t41.5 -62t15 -75.5q0 -55 -26.5 -96.5t-71.5 -74.5q-15 -12 -31.5 -22t-30 -23t-22 -32t-8.5 -47v-78h-63v97q0 31 10.5 51t28 35t39.5 28.5t45 33.5q35 27 51 59t16 69q0 29 -10 53.5 t-27.5 42.5t-42 28t-53.5 10q-57 0 -90.5 -27.5t-49.5 -78.5q-14 5 -27.5 10t-27.5 10zM165 50q0 18 13 30.5t29 12.5t29 -12.5t13 -30.5q0 -19 -13 -30.5t-29 -11.5t-29 11.5t-13 30.5z" />
<glyph unicode="@" horiz-adv-x="990" d="M74 189q0 86 32.5 161t89 131t132 88.5t161.5 32.5t161 -32.5t131 -88.5t88.5 -131.5t32.5 -161.5q-3 -54 -21 -90.5t-43.5 -58t-54.5 -30.5t-56 -9h-97v30v33q-4 -10 -16 -22.5t-30.5 -23t-43 -18t-54.5 -7.5q-42 0 -78 15.5t-62.5 42t-42 62t-15.5 75.5t15.5 75.5 t42 62t62.5 42t78 15.5q27 0 51.5 -8t43.5 -19t31.5 -24t17.5 -23q0 16 1.5 33t2.5 34h51v-314h44q22 0 41.5 7t34.5 22t24 39t10 59q0 73 -27.5 137.5t-75 112.5t-111.5 76t-136 28q-73 0 -137 -28t-112 -76t-75.5 -112.5t-27.5 -137.5t27.5 -137t75.5 -112t112 -75.5 t137 -27.5q60 0 113.5 18t98.5 50q10 -12 19 -23t19 -22q-50 -41 -117 -62.5t-133 -21.5q-86 0 -161.5 32.5t-132 88.5t-89 131.5t-32.5 161.5zM351 188q0 -29 10 -53.5t28 -42.5t43 -28.5t54 -10.5q30 0 55 10.5t43 28.5t28.5 42.5t10.5 53.5q0 28 -10.5 53t-28.5 43 t-43 28.5t-55 10.5q-29 0 -54 -10.5t-43 -28.5t-28 -43t-10 -53z" />
<glyph unicode="A" horiz-adv-x="740" d="M61 0q78 184 155 366t155 366q78 -184 155 -366t155 -366h-63q-31 72 -61 144.5t-61 144.5h-251q-30 -72 -60.5 -144.5t-61.5 -144.5h-62zM271 348h199q-23 54 -45 107.5t-45 107.5q-2 8 -4.5 15.5t-4.5 15.5q-20 -63 -47 -124t-53 -122z" />
<glyph unicode="B" horiz-adv-x="535" d="M66 0v700h171q48 0 87.5 -10t68 -31t44 -54.5t15.5 -79.5q0 -62 -30 -109t-92 -64q29 -6 55.5 -20t47 -36t32.5 -51t12 -65q0 -45 -18.5 -78.5t-49.5 -56t-71 -34t-83 -11.5h-189zM128 59h122q34 0 64 8t52.5 24t35.5 40.5t13 56.5q0 35 -15 60.5t-40.5 42t-58 24 t-66.5 7.5h-107v-263zM128 382h120q65 0 103 37.5t38 97.5q0 66 -40 94.5t-104 28.5h-117v-258z" />
<glyph unicode="C" horiz-adv-x="670" d="M62 349q0 74 28 139.5t76.5 114t113.5 77t139 28.5q51 0 96.5 -13t86.5 -37q-8 -13 -17 -25.5t-18 -25.5q-67 41 -148 41q-61 0 -114.5 -23.5t-93.5 -64.5t-63.5 -95.5t-23.5 -115.5q0 -62 23 -116t63 -94.5t93.5 -64t114.5 -23.5q41 0 78 10.5t71 30.5l34 -50 q-40 -23 -85.5 -36.5t-96.5 -13.5q-74 0 -139 28t-113.5 76.5t-76.5 113.5t-28 139z" />
<glyph unicode="D" horiz-adv-x="652" d="M68 0v700h155q72 0 136 -24.5t112 -70.5t76 -110.5t28 -145.5q0 -59 -20.5 -121t-66.5 -112.5t-119.5 -83t-179.5 -32.5h-121zM130 60h78q71 0 127.5 23t96 62t60.5 92t21 113q0 66 -23 120t-63 91.5t-94 58t-115 20.5h-88v-580z" />
<glyph unicode="E" horiz-adv-x="601" d="M77 0v700h423v-60h-361v-258h322v-59h-322v-264h375v-59h-437z" />
<glyph unicode="F" horiz-adv-x="587" d="M77 0v700h423v-60h-361v-258h322v-59h-322v-323h-62z" />
<glyph unicode="G" horiz-adv-x="687" d="M62 349q0 74 28 139.5t76.5 114t113.5 77t139 28.5q51 0 96.5 -13t86.5 -37q-8 -13 -17 -25.5t-18 -25.5q-67 41 -148 41q-61 0 -114.5 -23.5t-93.5 -64.5t-63.5 -95.5t-23.5 -115.5q0 -62 23 -116t63 -94.5t93.5 -64t114.5 -23.5q65 0 121 27v113v22q0 14 -4.5 20.5 t-20.5 6.5h-99v60h135q29 0 40 -12.5t11 -43.5v-202q-40 -23 -85.5 -36.5t-96.5 -13.5q-74 0 -139 28t-113.5 76.5t-76.5 113.5t-28 139z" />
<glyph unicode="H" horiz-adv-x="700" d="M86 0v700h62v-318h404v318h63q0 -176 -0.5 -350t-0.5 -350h-62v323h-404v-323h-62z" />
<glyph unicode="I" horiz-adv-x="263" d="M101 0v700h63v-700h-63z" />
<glyph unicode="J" horiz-adv-x="327" d="M17 -84q35 2 65 14.5t51.5 35t33.5 54.5t12 73v607h62v-610q0 -56 -17.5 -99t-47.5 -72t-71 -45t-88 -17v59z" />
<glyph unicode="K" horiz-adv-x="600" d="M59 0v700h62v-294q-1 -8 -1.5 -15.5t-0.5 -15.5q5 6 9 11t9 11l318 303h78q-75 -71 -148 -141t-148 -141q84 -105 166 -208.5t166 -209.5h-76q-75 95 -149 189t-149 189q-19 -18 -37 -35.5t-37 -34.5v-308h-62z" />
<glyph unicode="L" horiz-adv-x="593" d="M77 0v700h62v-641h375v-59h-437z" />
<glyph unicode="M" horiz-adv-x="937" d="M100 0v732q92 -119 183 -237.5t183 -237.5q92 119 183 237.5t183 237.5v-732h-62v458v64q0 10 0.5 18.5t1.5 17.5q-72 -103 -150.5 -202t-155.5 -200q-68 89 -135 176.5t-135 176.5l-21 27q-4 5 -7.5 11t-7.5 11q1 -9 1.5 -17.5t0.5 -18.5v-522h-62z" />
<glyph unicode="N" horiz-adv-x="813" d="M100 0v732q134 -151 266.5 -300t266.5 -300q5 -7 9.5 -13t9.5 -13q-1 8 -1.5 16t-1.5 16v562h62v-732q-134 149 -266.5 295.5t-266.5 295.5q-5 7 -9.5 13t-9.5 13q1 -8 1.5 -16t1.5 -16v-553h-62z" />
<glyph unicode="O" horiz-adv-x="840" d="M62 349q0 74 28 139.5t76.5 114t113.5 77t139 28.5t139.5 -28.5t114 -77t77 -114t28.5 -139.5t-28.5 -139t-77 -113.5t-114 -76.5t-139.5 -28t-139 28t-113.5 76.5t-76.5 113.5t-28 139zM124 349q0 -62 23 -116t63 -94.5t94 -64t115 -23.5t115 23.5t94.5 64t64 94.5 t23.5 116q0 61 -23.5 115.5t-64 95.5t-94 64.5t-114.5 23.5t-115 -23.5t-94 -64.5t-63.5 -95.5t-23.5 -115.5z" />
<glyph unicode="P" horiz-adv-x="476" d="M66 0v700h157q33 0 72 -10.5t73.5 -33t57.5 -57.5t23 -85q0 -88 -54 -140.5t-157 -52.5h-110v-321h-62zM128 381h95q48 0 80 12.5t50.5 32t26 43t7.5 45.5q0 25 -12.5 48t-34 40.5t-51.5 28t-65 10.5h-96v-260z" />
<glyph unicode="Q" horiz-adv-x="842" d="M62 349q0 74 28 139.5t76.5 114t113.5 77t139 28.5t139.5 -28.5t114 -77t77 -114t28.5 -139.5q0 -92 -43.5 -168t-114.5 -122h180v-59h-307q-38 -8 -74 -8q-74 0 -139 28t-113.5 76.5t-76.5 113.5t-28 139zM124 349q0 -62 23 -116t63 -94.5t93.5 -64t114.5 -23.5 t115.5 23.5t95 64t64 94.5t23.5 116q0 61 -23.5 115.5t-64 95.5t-94.5 64.5t-115 23.5t-114.5 -23.5t-93.5 -64.5t-63.5 -95.5t-23.5 -115.5z" />
<glyph unicode="R" horiz-adv-x="512" d="M66 0v700h157q33 0 72 -10.5t73.5 -33t57.5 -57.5t23 -85q0 -74 -38 -123t-110 -65q38 -81 76.5 -162.5t77.5 -163.5h-68q-38 81 -76 161t-76 161q-6 -1 -12.5 -1h-13.5h-81v-321h-62zM128 381h95q48 0 80 12.5t50.5 32t26 43t7.5 45.5q0 25 -12.5 48t-34 40.5t-51.5 28 t-65 10.5h-96v-260z" />
<glyph unicode="S" horiz-adv-x="557" d="M56 98l40 40q14 -15 31.5 -30t39 -28t47 -21t55.5 -8t57.5 9t48.5 26t34 42.5t13 57.5q0 42 -20 69.5t-49 45t-62 28t-60 20.5q-18 7 -43.5 18t-48.5 30t-39.5 48t-17.5 72v6q0 31 8 61q10 34 32.5 60t59 43t89.5 17q39 0 80 -13.5t89 -54.5q-9 -11 -17.5 -23t-17.5 -23 q-9 8 -22 17.5t-30 17.5t-37.5 13.5t-44.5 5.5q-32 0 -56 -10.5t-39.5 -27.5t-23.5 -39.5t-8 -47.5q0 -27 9.5 -45.5t25.5 -31.5t37.5 -22t45.5 -17q32 -11 71 -26.5t72.5 -40t56 -60.5t22.5 -89q0 -45 -16.5 -81t-45 -61.5t-66.5 -39t-81 -13.5q-39 0 -73 10.5t-62.5 26 t-50 34t-33.5 35.5z" />
<glyph unicode="T" horiz-adv-x="553" d="M0 640v60h553v-60h-245v-640h-62v640h-246z" />
<glyph unicode="U" horiz-adv-x="652" d="M84 226v474h62v-471q0 -43 13.5 -76t37.5 -55.5t57.5 -34.5t73.5 -12q39 0 72.5 12t58 34.5t38 55.5t13.5 76v471h62v-474q0 -57 -18.5 -101t-51.5 -73.5t-77.5 -44.5t-96.5 -15q-53 0 -97.5 15t-77 44.5t-51 73.5t-18.5 101z" />
<glyph unicode="V" horiz-adv-x="722" d="M54 700h63q60 -142 119 -281.5t119 -281.5q2 -8 4.5 -15.5t4.5 -15.5q2 8 4.5 15.5t4.5 15.5q60 142 119 281.5t119 281.5h63q-78 -184 -155 -366t-155 -366q-78 184 -155 366t-155 366z" />
<glyph unicode="W" horiz-adv-x="1108" d="M54 700h63q60 -142 118.5 -281.5t119.5 -281.5q2 -8 4.5 -15.5t4.5 -15.5q14 48 33 95t39.5 94.5t42 94t40.5 92.5q-23 55 -46 109t-46 109h62q60 -142 119 -281.5t120 -281.5q2 -8 4.5 -15.5t4.5 -15.5q2 8 4.5 15.5t4.5 15.5q60 142 119 281.5t119 281.5h63 q-78 -184 -155 -366t-155 -366l-177 417q-2 8 -5 15.5t-5 15.5q-17 -56 -39.5 -112.5t-47.5 -113t-50.5 -112.5t-48.5 -110q-78 184 -155 366t-155 366z" />
<glyph unicode="X" horiz-adv-x="700" d="M93 0q59 90 116 179t116 179l-222 342h76q45 -69 88.5 -136t88.5 -135q4 -11 11 -23q3 5 6 11l6 12q44 68 87.5 135t87.5 136h76l-225 -348q58 -88 115.5 -175.5t114.5 -176.5h-77l-173 264q-6 10 -11 20.5t-12 20.5q-2 -6 -5 -12l-6 -12q-46 -71 -91 -140.5t-90 -140.5 h-77z" />
<glyph unicode="Y" horiz-adv-x="638" d="M23 700h76q52 -88 104 -173.5t103 -173.5q3 -7 5.5 -14.5t5.5 -14.5h1q3 7 6 14.5t6 14.5q52 88 103 173.5t103 173.5h76q-64 -109 -128 -216.5t-128 -216.5v-267h-76v268q-65 108 -128.5 215.5t-128.5 216.5z" />
<glyph unicode="Z" horiz-adv-x="700" d="M81 0v60q114 146 226 290t227 290h-367q-31 0 -50.5 15t-19.5 44v36h63v-12q0 -14 6.5 -18.5t23.5 -4.5h421v-60q-114 -146 -226.5 -290t-226.5 -290h482v-60h-559z" />
<glyph unicode="[" horiz-adv-x="338" d="M83 -149v895h183v-61h-120v-773h120v-61h-183z" />
<glyph unicode="\" horiz-adv-x="365" d="M5 736h70q70 -190 139 -377.5t139 -377.5h-70q-70 190 -139 377.5t-139 377.5z" />
<glyph unicode="]" horiz-adv-x="342" d="M68 -88h120v773h-120v61h183v-895h-183v61z" />
<glyph unicode="^" horiz-adv-x="470" d="M112 479q30 45 60 90.5t60 90.5q30 -45 60 -90.5t60 -90.5h-46q-19 24 -37.5 48t-36.5 49q-19 -25 -37 -49t-37 -48h-46z" />
<glyph unicode="_" horiz-adv-x="600" d="M100 0v61h400v-61h-400z" />
<glyph unicode="`" horiz-adv-x="200" d="M-40 612h64q23 -33 45 -66.5t45 -66.5h-46q-27 33 -54 66.5t-54 66.5z" />
<glyph unicode="a" horiz-adv-x="506" d="M49 187q0 40 15.5 75.5t42 62.5t63 43t78.5 16q28 0 52.5 -8t43.5 -20t31.5 -25t15.5 -23q0 16 1.5 33t2.5 34h51v-375h-55v39v25q-3 -10 -14.5 -22.5t-30 -23.5t-43.5 -18.5t-55 -7.5q-42 0 -78.5 15.5t-63 42t-42 62t-15.5 75.5zM112 188q0 -29 10.5 -53.5t28.5 -42.5 t43 -28.5t54 -10.5t54 10.5t43 28.5t28.5 42.5t10.5 53.5q0 28 -10.5 53t-28.5 43t-43 28.5t-54 10.5t-54 -10.5t-43 -28.5t-28.5 -43t-10.5 -53z" />
<glyph unicode="b" horiz-adv-x="531" d="M82 0v750h62v-402q-2 -11 -3.5 -20t-3.5 -19q3 10 15.5 23t31.5 24.5t43.5 19.5t52.5 8q42 0 78.5 -15.5t63 -42.5t42 -62.5t15.5 -75.5t-15.5 -75.5t-42 -62.5t-63 -42.5t-78.5 -15.5q-30 0 -55 7.5t-43.5 18.5t-30 23.5t-14.5 22.5v-25v-39h-55zM144 188 q0 -29 10.5 -53.5t28.5 -42.5t43 -28.5t54 -10.5q30 0 55 10.5t43 28.5t28 42.5t10 53.5q0 28 -10 53t-28 43t-43 28.5t-55 10.5q-29 0 -54 -10.5t-43 -28.5t-28.5 -43t-10.5 -53z" />
<glyph unicode="c" horiz-adv-x="391" d="M36 188q0 40 15.5 76t42.5 62.5t63 42t77 15.5q37 0 68.5 -11.5t57.5 -31.5q-10 -12 -20 -23.5t-19 -23.5q-18 14 -40 21.5t-47 7.5q-29 0 -54 -10.5t-43 -28.5t-28.5 -43t-10.5 -53q0 -29 10.5 -53.5t28.5 -42.5t43 -28.5t54 -10.5q26 0 47.5 7.5t39.5 21.5 q18 -23 38 -47q-26 -20 -57.5 -31.5t-67.5 -11.5q-41 0 -77 15.5t-63 42t-42.5 62t-15.5 76.5z" />
<glyph unicode="d" horiz-adv-x="526" d="M51 188q0 40 15.5 75.5t42 62.5t63 42.5t78.5 15.5q28 0 52.5 -8t43.5 -19.5t31.5 -24.5t15.5 -23q-2 10 -3.5 19t-3.5 20v402h62v-750h-55v39v25q-3 -10 -14.5 -22.5t-30 -23.5t-43.5 -18.5t-55 -7.5q-42 0 -78.5 15.5t-63 42.5t-42 62.5t-15.5 75.5zM114 188 q0 -29 10 -53.5t28 -42.5t43 -28.5t55 -10.5q29 0 54 10.5t43 28.5t28.5 42.5t10.5 53.5q0 28 -10.5 53t-28.5 43t-43 28.5t-54 10.5q-30 0 -55 -10.5t-43 -28.5t-28 -43t-10 -53z" />
<glyph unicode="e" horiz-adv-x="451" d="M36 188q0 40 15.5 76t42.5 62.5t63 42t77 15.5q31 0 58.5 -11.5t50 -32t39.5 -49t26 -61.5l-291 -111q17 -30 47.5 -48t69.5 -18q27 0 50.5 10t40.5 27q9 -11 18.5 -22.5t19.5 -22.5q-26 -25 -58.5 -39t-70.5 -14q-41 0 -77 15.5t-63 42t-42.5 62t-15.5 76.5zM100 178 q57 22 114 43.5t114 43.5q-15 26 -39.5 42t-54.5 16q-50 0 -86.5 -30t-44.5 -75q-2 -10 -2.5 -20t-0.5 -20z" />
<glyph unicode="f" horiz-adv-x="311" d="M22 319v61h64v137q0 56 17.5 99t47.5 72.5t71 45t88 17.5v-60q-34 -1 -63.5 -13.5t-51 -35t-34 -54.5t-12.5 -72v-136h120v-61h-120v-319h-63v319h-64z" />
<glyph unicode="g" horiz-adv-x="518" d="M49 187q0 40 15.5 75.5t42 62.5t63 43t78.5 16q28 0 52.5 -8t43.5 -20t31.5 -25t15.5 -23q0 16 1.5 33t2.5 34h51v-392v-30q0 -45 -15 -82t-41.5 -64t-62 -42t-75.5 -15q-45 1 -86.5 18t-70.5 42q11 13 21.5 25t20.5 25q21 -20 51 -33t62 -13q28 0 52.5 11t42.5 30.5 t28.5 46t10.5 58.5v70q2 8 3.5 16t3.5 16q-5 -11 -17.5 -23t-31 -22.5t-42.5 -17t-52 -6.5q-42 0 -78.5 15.5t-63 42t-42 61.5t-15.5 75zM112 188q0 -29 10.5 -53.5t28.5 -42.5t43 -28.5t54 -10.5t54 10.5t43 28.5t28.5 42.5t10.5 53.5q0 28 -10.5 53t-28.5 43t-43 28.5 t-54 10.5t-54 -10.5t-43 -28.5t-28.5 -43t-10.5 -53z" />
<glyph unicode="h" horiz-adv-x="512" d="M92 0v750h63v-427l-3 -45q21 48 63.5 75.5t99.5 29.5q57 0 90 -31t35 -81v-271h-62v247q-2 29 -21.5 51t-59.5 24q-28 0 -54 -10t-45.5 -27t-31 -40.5t-11.5 -51.5v-193h-63z" />
<glyph unicode="i" horiz-adv-x="194" d="M56 514q0 18 13 30.5t30 12.5q15 0 28 -12.5t13 -30.5q0 -19 -13 -30.5t-28 -11.5q-17 0 -30 11.5t-13 30.5zM66 0v375h63v-375h-63z" />
<glyph unicode="j" horiz-adv-x="225" d="M32 -135q25 23 39.5 56t14.5 78v377q16 0 31 -0.5t31 -0.5v-377q0 -60 -19.5 -105t-53.5 -74q-11 12 -21.5 23.5t-21.5 22.5zM77 514q0 18 13 30.5t29 12.5t29 -12.5t13 -30.5q0 -19 -13 -30.5t-29 -11.5t-29 11.5t-13 30.5z" />
<glyph unicode="k" horiz-adv-x="449" d="M68 0v750h62v-550q51 48 98.5 92t98.5 92l37 -37q-35 -33 -66.5 -63.5t-66.5 -63.5l80 -110l80 -110h-72q-33 45 -66.5 89.5t-66.5 89.5l-28 -26t-28 -27v-126h-62z" />
<glyph unicode="l" horiz-adv-x="191" d="M66 0v750h63v-750h-63z" />
<glyph unicode="m" horiz-adv-x="796" d="M92 0v375h56v-22q1 -20 2 -37.5t2 -37.5q20 48 63 76t100 29q54 0 86.5 -27.5t37.5 -72.5q22 46 64.5 72.5t97.5 27.5q57 0 90 -31t35 -81v-271h-62v247q-2 29 -21.5 51t-59.5 24q-28 0 -53.5 -9.5t-45 -26.5t-31.5 -40.5t-13 -50.5v-195h-62v247q-2 29 -21.5 51 t-59.5 24q-28 0 -54 -10t-45.5 -27t-31 -40.5t-11.5 -51.5v-193h-63z" />
<glyph unicode="n" horiz-adv-x="495" d="M92 0v375h56v-22q1 -20 2 -37.5t2 -37.5q20 48 64 76.5t99 28.5q57 0 90 -31t35 -81v-271h-62v247q-2 29 -21.5 51t-59.5 24q-28 0 -54 -10t-45.5 -27t-31 -40.5t-11.5 -51.5v-193h-63z" />
<glyph unicode="o" horiz-adv-x="473" d="M36 188q0 40 15.5 76t42.5 62.5t63 42t77 15.5q42 0 78.5 -15.5t63.5 -42t42.5 -62.5t15.5 -76q0 -41 -15.5 -76.5t-42.5 -62t-63.5 -42t-78.5 -15.5q-41 0 -77 15.5t-63 42t-42.5 62t-15.5 76.5zM98 187q0 -28 10.5 -52.5t29 -42.5t43 -28.5t52.5 -10.5t52.5 10.5 t43 28.5t29 42.5t10.5 52.5t-10.5 53t-29 43.5t-43 29t-52.5 10.5t-52.5 -10.5t-43 -29t-29 -43.5t-10.5 -53z" />
<glyph unicode="p" horiz-adv-x="525" d="M67 -250v625h52q0 -17 1 -34l2 -34q3 10 15.5 23t31.5 25t43.5 20t52.5 8q42 0 78.5 -15.5t63 -42t42 -62t15.5 -75.5q0 -41 -15.5 -76.5t-42 -62.5t-63 -42.5t-78.5 -15.5q-30 0 -55 8t-43.5 19t-30 23t-14.5 22q2 -8 4 -15.5t4 -15.5v-282h-63zM129 188 q0 -29 10.5 -53.5t28.5 -43t43 -29t54 -10.5q30 0 55 10.5t43 29t28 43t10 53.5q0 28 -10 52.5t-28 42.5t-43 28.5t-55 10.5q-29 0 -54 -10.5t-43 -28.5t-28.5 -42.5t-10.5 -52.5z" />
<glyph unicode="q" horiz-adv-x="512" d="M50 188q0 40 15.5 75.5t42.5 62t63 42t78 15.5q28 0 52.5 -8t43.5 -20t31.5 -25t16.5 -23q0 17 1 34t1 34h53v-625h-63v282q2 8 3.5 15.5t3.5 15.5q-3 -10 -14.5 -22t-30 -23t-43.5 -19t-55 -8q-42 0 -78 15.5t-63 42.5t-42.5 62.5t-15.5 76.5zM113 188q0 -29 10.5 -53.5 t28.5 -43t43 -29t54 -10.5t54 10.5t43 29t28.5 43t10.5 53.5q0 28 -10.5 52.5t-28.5 42.5t-43 28.5t-54 10.5t-54 -10.5t-43 -28.5t-28.5 -42.5t-10.5 -52.5z" />
<glyph unicode="r" horiz-adv-x="331" d="M92 0v375h56v-22q1 -20 2 -37.5t2 -37.5q12 25 30 44.5t38.5 33t42 20.5t39.5 7l-4 -61q-31 0 -57.5 -10t-45.5 -27t-29.5 -40.5t-10.5 -51.5v-193h-63z" />
<glyph unicode="s" horiz-adv-x="353" d="M57 39q10 11 19 22.5t19 22.5q20 -15 40.5 -23t44.5 -8q5 0 15 2t19.5 8t17.5 16t8 30q0 21 -11 31q-12 12 -31 19t-41.5 13.5t-42 17.5t-32.5 30.5t-13 53.5q0 29 11 49.5t28 33.5t36.5 19t37.5 6q10 0 24 -2t29 -7t28.5 -13t24.5 -20q-8 -11 -17 -23t-18 -23 q-8 9 -26.5 18.5t-41.5 9.5t-39 -12q-14 -11 -14 -32v-5q1 -17 14.5 -27t32.5 -18t40.5 -16t40.5 -21t31 -33t12 -51q0 -15 -6 -35t-20 -38t-38 -30t-61 -12q-33 0 -67 12t-54 35z" />
<glyph unicode="t" horiz-adv-x="293" d="M31 318v61h85v240h62v-240h107v-61h-107v-318h-62v318h-85z" />
<glyph unicode="u" horiz-adv-x="529" d="M92 104v271h63v-247q2 -30 21.5 -51.5t59.5 -23.5q28 0 54 9.5t45.5 27t31 41t11.5 51.5v193h62v-381h-62v58l3 45q-20 -48 -64.5 -76.5t-98.5 -28.5q-57 0 -90.5 31t-35.5 81z" />
<glyph unicode="v" horiz-adv-x="500" d="M54 375h63q37 -70 78 -143.5t70 -145.5q28 72 69 145.5t79 143.5h62q-53 -100 -105 -199t-105 -199q-54 100 -106 199t-105 199z" />
<glyph unicode="w" horiz-adv-x="772" d="M55 375h62q35 -72 72 -144t66 -145q23 57 50.5 112.5t53.5 110.5q-8 17 -16 33t-16 33h62q35 -72 72 -144t66 -145q29 73 66 145t71 144h63q-51 -100 -100 -199t-100 -199q-34 68 -68 135t-68 135q-34 -68 -68 -135t-68 -135q-51 100 -100 199t-100 199z" />
<glyph unicode="x" horiz-adv-x="448" d="M28 0q36 49 72 98.5t72 98.5q-32 45 -65 89t-65 89h77q27 -37 54 -73.5t54 -72.5q26 36 52.5 72.5t52.5 73.5h77q-36 -50 -72 -99t-71 -99q32 -45 65 -88.5t66 -88.5h-79q-27 36 -53.5 72.5t-53.5 73.5q-26 -37 -53 -73.5t-53 -72.5h-77z" />
<glyph unicode="y" horiz-adv-x="496" d="M32 375h63q40 -78 83 -158t75 -161q32 81 75 161t82 158h63q-78 -157 -156.5 -312.5t-156.5 -312.5h-64q32 63 62.5 124.5t62.5 124.5q-48 94 -94.5 188t-94.5 188z" />
<glyph unicode="z" horiz-adv-x="451" d="M42 0v61q69 64 127.5 126.5t127.5 127.5h-170q-31 0 -50.5 15t-19.5 44v36h63v-12q0 -14 6.5 -18.5t23.5 -4.5h234v-61q-69 -65 -127.5 -127t-127.5 -126h276v-61h-363z" />
<glyph unicode="{" horiz-adv-x="306" d="M30 265v64q24 1 39.5 14.5t24.5 33.5t12 43.5t3 43.5v164q0 46 9 70.5t24 35t34.5 11.5t40.5 1h56v-61h-48q-15 0 -25 -4.5t-16 -16.5t-8.5 -32.5t-2.5 -52.5v-135q0 -36 -6 -60.5t-16 -41.5t-21.5 -27t-22.5 -17q11 -6 22.5 -16.5t21.5 -27.5t16 -42t6 -59v-135 q0 -32 2.5 -52.5t8.5 -32.5t16 -16.5t25 -4.5h48v-61h-56q-22 0 -41.5 1t-34.5 12.5t-23.5 38t-8.5 77.5v150q0 20 -3 43.5t-12 43.5t-24.5 33.5t-39.5 14.5z" />
<glyph unicode="|" horiz-adv-x="255" d="M93 -232v932h63v-932h-63z" />
<glyph unicode="}" horiz-adv-x="320" d="M47 -88h48q15 0 25 4.5t16 16.5t8.5 32.5t2.5 52.5v146q0 31 7 54t17 39t21.5 25.5t20.5 15.5q-11 7 -22.5 17t-21.5 27t-16 41.5t-6 60.5v135q0 32 -2.5 52.5t-8.5 32.5t-16 16.5t-25 4.5h-48v61h56q21 0 40.5 -1t34.5 -11.5t24 -35t9 -70.5v-153q0 -20 2.5 -44.5 t10.5 -47t24 -38t42 -16.5v-64q-26 -1 -42 -16.5t-24 -38t-10.5 -47.5t-2.5 -44v-150q0 -46 -9 -70.5t-24 -35t-34.5 -11.5t-40.5 -1h-56v61z" />
<glyph unicode="~" horiz-adv-x="489" d="M124 467q1 19 9.5 34.5t21 26t28 16t30.5 5.5q22 0 39.5 -9.5t34.5 -25.5q15 -17 27 -22t26 -5q7 0 16 2t17.5 7.5t15 15t8.5 24.5q8 -1 17 -1.5t18 -1.5q-1 -20 -9.5 -35t-21 -25.5t-27.5 -15.5t-30 -5q-23 0 -40.5 9.5t-34.5 24.5q-15 17 -26.5 22t-25.5 5 q-7 0 -16.5 -2t-18 -7.5t-15 -15t-7.5 -24.5z" />
<glyph unicode="&#xa1;" horiz-adv-x="200" d="M58 486q0 -19 13 -30.5t29 -11.5t29 11.5t13 30.5t-13 31t-29 12t-29 -12t-13 -31zM68 -210h63v584h-63v-584z" />
<glyph unicode="&#xa2;" horiz-adv-x="385" d="M36 188q0 34 11.5 65.5t32 57t49 43t61.5 24.5v60h63v-56q29 -2 57 -13t50 -28q-10 -12 -20 -23.5t-19 -23.5q-15 11 -32 18t-36 9v-267q38 5 68 28q18 -23 38 -47q-47 -37 -106 -42v-61h-63v66q-33 7 -61.5 24.5t-49 42.5t-32 56.5t-11.5 66.5zM98 188q0 -45 25.5 -79.5 t66.5 -46.5v251q-41 -12 -66.5 -46t-25.5 -79z" />
<glyph unicode="&#xa3;" horiz-adv-x="574" d="M28 0v61h44q16 0 26.5 4.5t16 17.5t7.5 35.5t2 57.5v108h-65v61h65v155q0 69 54 101.5t148 32.5q67 0 105.5 -28.5t58.5 -68.5q-11 -7 -23 -13.5t-24 -13.5q-8 12 -16 23t-21 20t-32 14.5t-48 5.5q-73 0 -106 -20t-33 -67v-141h121v-61h-121v-125v-12q0 -29 -3 -50.5 t-19 -35.5h183h12q31 0 51.5 2.5t32.5 8.5t17 16t5 25v48h63v-76q0 -18 -3.5 -33.5t-15.5 -27t-35.5 -18t-63.5 -6.5h-383z" />
<glyph unicode="&#xa4;" horiz-adv-x="500" d="M92 247l29 29q-12 18 -19 39.5t-7 45.5q0 23 7 43t18 38q-8 7 -14 13.5t-14 14.5l44 44l29 -28q18 11 38.5 18t43.5 7q45 0 83 -25l28 28l44 -44l-26 -27q11 -18 18 -39t7 -43q0 -46 -27 -84l29 -29l-44 -44q-8 8 -15.5 15t-15.5 15q-35 -24 -81 -24t-81 23l-30 -30z M158 360q0 -37 26.5 -63t63.5 -26t63.5 26t26.5 63q0 38 -26.5 64.5t-63.5 26.5t-63.5 -26.5t-26.5 -64.5z" />
<glyph unicode="&#xa5;" horiz-adv-x="638" d="M23 700h76q52 -88 103.5 -173.5t103.5 -173.5q3 -7 5.5 -14.5t5.5 -14.5h1q3 7 6 14.5t6 14.5q52 88 103 173.5t103 173.5h76q-56 -95 -111.5 -188.5t-111.5 -187.5h94v-61h-127v-102h127v-61h-127v-100h-76v100h-130v61h130v102h-130v61h97q-57 94 -112.5 187.5 t-111.5 188.5z" />
<glyph unicode="&#xa6;" horiz-adv-x="215" d="M79 117h63v-350h-63v350zM79 350v350h63v-350h-63z" />
<glyph unicode="&#xa7;" horiz-adv-x="500" d="M128 336q-4 25 0.5 49.5t17 46.5t33.5 37q36 24 83 18q-13 20 -24 40t-23 41q-18 30 -24 52t-4 38t11 28t22 21q15 13 35.5 23.5t37.5 21.5q16 -28 32 -52q-11 -6 -21.5 -12t-21.5 -12q-24 -15 -24.5 -35.5t25.5 -64.5q23 -38 44.5 -75t44.5 -75q13 -22 17 -47t-1 -49 t-18.5 -45t-34.5 -36q-37 -26 -83 -20q13 -20 25 -41t24 -41q18 -30 24.5 -52.5t4.5 -39t-11 -28t-22 -20.5q-16 -13 -35.5 -23.5t-37.5 -21.5q-8 13 -15.5 26t-15.5 27l42 24q13 7 19 16t5 21.5t-9 30t-24 43.5q-23 36 -37 60t-22.5 39t-13.5 24t-8 16q-13 22 -17 47z M187 376.5q-3 -15.5 1 -31.5q5 -27 25.5 -43.5t48.5 -15.5q31 1 51 24t19 53q-1 16 -8 29t-17.5 23t-24 15t-28.5 4q-18 -1 -32 -9t-23 -20.5t-12 -28z" />
<glyph unicode="&#xa8;" horiz-adv-x="370" d="M59 514q0 18 13 30.5t29 12.5t29 -12.5t13 -30.5q0 -19 -13 -30.5t-29 -11.5t-29 11.5t-13 30.5zM225 514q0 18 12.5 30.5t29.5 12.5q16 0 29 -12.5t13 -30.5q0 -19 -13 -30.5t-29 -11.5q-17 0 -29.5 11.5t-12.5 30.5z" />
<glyph unicode="&#xa9;" horiz-adv-x="793" d="M139 372q0 56 20.5 104t56 82.5t83 54t101.5 19.5t101.5 -19.5t83 -54t56 -82.5t20.5 -104t-20.5 -103t-56 -82t-83 -54.5t-101.5 -19.5t-101.5 19.5t-83 54.5t-56 82t-20.5 103zM172 372q0 -49 17.5 -91t48.5 -72.5t72.5 -48t89.5 -17.5t89.5 17.5t72.5 48t48.5 72.5 t17.5 91q0 50 -17.5 92t-48.5 73t-72.5 48t-89.5 17t-89.5 -17t-72.5 -48t-48.5 -73t-17.5 -92zM245 375q0 34 12.5 63.5t34.5 51.5t51.5 34.5t62.5 12.5q45 0 83 -22q-4 -6 -7.5 -12t-8.5 -11q-30 18 -67 18q-27 0 -51.5 -10.5t-42.5 -29t-28.5 -43t-10.5 -52.5t10.5 -52.5 t28.5 -43t42.5 -29t51.5 -10.5q35 0 67 19l16 -23q-18 -11 -39 -17t-44 -6q-33 0 -62.5 13t-51.5 35t-34.5 51.5t-12.5 62.5z" />
<glyph unicode="&#xaa;" horiz-adv-x="585" d="M77 356q0 29 11.5 54.5t30.5 45t45.5 31t56.5 11.5q20 0 37.5 -6t31.5 -14.5t23 -18t11 -16.5q0 12 1 24l2 24h37v-270h-40v28v18q-2 -7 -10.5 -16t-21.5 -17t-31 -13.5t-40 -5.5q-30 0 -56.5 11.5t-45.5 30.5t-30.5 44.5t-11.5 54.5zM123 357q0 -21 7.5 -39t20.5 -31 t31 -20.5t39 -7.5t39 7.5t31 20.5t20.5 31t7.5 39q0 20 -7.5 38t-20.5 31t-31 20.5t-39 7.5t-39 -7.5t-31 -20.5t-20.5 -31t-7.5 -38z" />
<glyph unicode="&#xab;" horiz-adv-x="601" d="M117 239q43 41 85.5 80.5t85.5 80.5v-72q-23 -22 -44.5 -44t-43.5 -45q22 -23 43.5 -45.5t44.5 -45.5v-71zM288 239q43 41 85.5 80.5t85.5 80.5v-71q-23 -23 -44.5 -45t-43.5 -45q22 -23 43.5 -45.5t44.5 -45.5v-71z" />
<glyph unicode="&#xac;" horiz-adv-x="559" d="M100 200v46h360v-98h-63v52h-297z" />
<glyph unicode="&#xad;" horiz-adv-x="300" d="M53 158v61h184v-61h-184z" />
<glyph unicode="&#xae;" horiz-adv-x="801" d="M139 372q0 56 20.5 104t56 82.5t83 54t101.5 19.5t101.5 -19.5t83 -54t56 -82.5t20.5 -104t-20.5 -103t-56 -82t-83 -54.5t-101.5 -19.5t-101.5 19.5t-83 54.5t-56 82t-20.5 103zM172 372q0 -49 17.5 -91t48.5 -72.5t72.5 -48t89.5 -17.5t89.5 17.5t72.5 48t48.5 72.5 t17.5 91q0 50 -17.5 92t-48.5 73t-72.5 48t-89.5 17t-89.5 -17t-72.5 -48t-48.5 -73t-17.5 -92zM324 210v331h75q15 0 34 -5t35 -15.5t27 -27t11 -40.5q0 -35 -18 -58t-53 -31q19 -38 37 -76.5t36 -77.5h-32q-17 38 -35.5 76t-36.5 76h-12h-38v-152h-30zM354 390h45 q23 0 38 6t23.5 15.5t12 20.5t3.5 21q0 24 -22 42t-55 18h-45v-123z" />
<glyph unicode="&#xaf;" horiz-adv-x="399" d="M85 482v41h230v-41h-230z" />
<glyph unicode="&#xb0;" horiz-adv-x="282" d="M43 560q0 39 27.5 66t67.5 27q19 0 36 -7t29.5 -20t20 -30t7.5 -36q0 -20 -7.5 -36.5t-20 -29.5t-29.5 -20t-36 -7q-40 0 -67.5 27t-27.5 66zM85 559q0 -22 15.5 -37t37.5 -15t37.5 15t15.5 37q0 23 -15.5 38t-37.5 15t-37.5 -15t-15.5 -38z" />
<glyph unicode="&#xb1;" horiz-adv-x="524" d="M86 111v61h360v-61h-360zM86 360v61h148v150h63v-150h149v-61h-149v-149h-63v149h-148z" />
<glyph unicode="&#xb2;" horiz-adv-x="398" d="M61 412q0 19 6.5 37t18.5 31.5t30.5 21.5t42.5 8q22 0 40 -8t30.5 -21.5t19.5 -32t7 -39.5q0 -25 -10 -50t-27 -49t-38 -47.5t-42 -47.5h137v-30h-212l60 60t51.5 56.5t36 53t13.5 48.5q0 22 -6.5 36.5t-16 23.5t-21.5 13t-22 4q-20 0 -33 -7t-20.5 -17.5t-10.5 -22.5 t-3 -21q0 -32 19 -53l-19 -19q-7 6 -13 14t-10 18t-6 20t-2 20z" />
<glyph unicode="&#xb3;" horiz-adv-x="419" d="M58 217q5 5 11 10.5t12 11.5q10 -12 23.5 -19t30.5 -7q15 0 29 6t24.5 16.5t16 24t5.5 28.5t-5.5 28.5t-16 23.5t-24.5 16t-29 6q-17 0 -32 -10q21 32 40.5 63t39.5 62h-108v30h161q-20 -30 -39.5 -60t-39.5 -59q17 -4 33 -13t27 -22t17.5 -29.5t6.5 -35.5 q0 -22 -8.5 -41t-22.5 -33t-33.5 -22.5t-41.5 -8.5q-23 0 -43 9t-34 25z" />
<glyph unicode="&#xb4;" horiz-adv-x="257" d="M100 479q23 33 45 66.5t45 66.5h64q-27 -33 -54 -66.5t-54 -66.5h-46z" />
<glyph unicode="&#xb5;" horiz-adv-x="545" d="M92 -201v576h63v-247q2 -30 21.5 -51.5t59.5 -23.5q28 0 54 9.5t45.5 27t31 41t11.5 51.5v193h62v-381h-62v58l3 45q-21 -48 -64 -76t-99 -29q-41 0 -63 21v-214h-63z" />
<glyph unicode="&#xb6;" horiz-adv-x="530" d="M38 586q0 34 12.5 64t34.5 52t52 35t64 13h225v-750h-62v689h-101v-689h-62v423q-34 0 -64 12.5t-52 34.5t-34.5 52t-12.5 64z" />
<glyph unicode="&#xb7;" horiz-adv-x="166" d="M43 281q0 19 13 31t29 12t29 -12t13 -31t-13 -30.5t-29 -11.5t-29 11.5t-13 30.5z" />
<glyph unicode="&#xb8;" horiz-adv-x="452" d="M112 -172l36 18q6 -17 20.5 -28.5t35.5 -11.5q26 0 41 17t15 43q0 22 -11.5 35t-25 22.5t-25 19.5t-11.5 28v29h40v-7q0 -14 4 -22.5t10 -14t13.5 -9.5t13.5 -8q22 -16 30.5 -35.5t8.5 -41.5q0 -45 -26 -74.5t-72 -29.5q-32 0 -59 17.5t-38 52.5z" />
<glyph unicode="&#xb9;" horiz-adv-x="266" d="M37 455v28h66v-299h-29v271h-37z" />
<glyph unicode="&#xba;" d="M73 357q0 28 11 54t30.5 45.5t45.5 30.5t56 11t56.5 -11t46 -30.5t30.5 -45.5t11 -54q0 -30 -11 -55.5t-30.5 -44.5t-46 -30.5t-56.5 -11.5t-56 11.5t-45.5 30.5t-30.5 44.5t-11 55.5zM118 356q0 -20 7.5 -38t21 -31t31 -20.5t37.5 -7.5t38 7.5t31 20.5t20.5 31t7.5 38 t-7.5 38t-20.5 31.5t-31 21t-38 7.5t-37.5 -7.5t-31 -21t-21 -31.5t-7.5 -38z" />
<glyph unicode="&#xbb;" horiz-adv-x="601" d="M117 77l171 162q-43 41 -85.5 80.5t-85.5 80.5v-71q23 -23 44.5 -45t43.5 -45q-22 -23 -43.5 -45.5t-44.5 -45.5v-71zM288 77l171 162q-43 41 -85.5 80.5t-85.5 80.5v-72q23 -22 44.5 -44t43.5 -45q-22 -23 -43.5 -45.5t-44.5 -45.5v-71z" />
<glyph unicode="&#xbc;" horiz-adv-x="968" d="M96 584v43h102v-461h-44v418h-58zM268 -19q70 190 139 377.5t139 377.5h63q-70 -190 -139 -377.5t-139 -377.5h-63zM379 136q69 89 136.5 177t135.5 177v-308h72v-46h-72v-136h-46v136h-226zM474 182h131v171q-34 -43 -66 -85.5t-65 -85.5z" />
<glyph unicode="&#xbd;" horiz-adv-x="1069" d="M93 584v43h102v-461h-44v418h-58zM268 -19q70 190 139 377.5t139 377.5h63q-70 -190 -139 -377.5t-139 -377.5h-63zM403 325q0 29 9 54.5t26.5 45t44 30.5t60.5 11q32 0 57.5 -11t44 -31t28.5 -46t10 -56q0 -37 -15 -72.5t-38.5 -70t-54 -68.5t-61.5 -68h197v-43h-303 q44 44 85.5 86t73.5 81t51.5 76t19.5 70q0 31 -9 52t-23 34t-31 18.5t-32 5.5q-29 0 -47.5 -10t-29 -25t-15 -32t-4.5 -31q0 -46 28 -76l-27 -26q-11 7 -19.5 19t-14 26t-8.5 29t-3 28z" />
<glyph unicode="&#xbe;" horiz-adv-x="1276" d="M123 205q9 9 18 17.5t18 16.5q15 -18 37 -29t48 -11q24 0 45.5 9.5t37.5 25.5t25.5 37.5t9.5 44.5q0 24 -9.5 45.5t-25.5 37t-37.5 24.5t-45.5 9q-26 0 -50 -14q32 49 63 97.5t62 97.5h-169v47h251q-31 -47 -61.5 -93.5t-61.5 -93.5q28 -6 52 -20t42 -34.5t28 -46 t10 -56.5q0 -34 -13 -63.5t-35.5 -52t-52.5 -35.5t-64 -13q-37 0 -68 14t-54 39zM450 -19q70 190 139 377.5t139 377.5h63q-70 -190 -139 -377.5t-139 -377.5h-63zM528 136q68 89 135.5 177t136.5 177v-308h72v-46h-72v-136h-47v136h-225zM622 182h131v171 q-34 -43 -66 -85.5t-65 -85.5z" />
<glyph unicode="&#xbf;" horiz-adv-x="439" d="M33 2q0 55 26.5 96.5t71.5 74.5q15 12 31.5 22t30 23t22 32t8.5 47v78h63v-97q0 -31 -10.5 -51t-28 -35t-39.5 -28.5t-45 -33.5q-35 -27 -51 -59t-16 -69q0 -29 10 -53.5t27.5 -42.5t42 -28t53.5 -10q57 0 90.5 27.5t49.5 78.5q14 -5 27.5 -10t27.5 -10q-8 -24 -22.5 -50 t-37.5 -47.5t-56.5 -35.5t-78.5 -14q-41 0 -77 15.5t-62.5 42t-41.5 62t-15 75.5zM213 489q0 19 13 30.5t29 11.5t29 -11.5t13 -30.5q0 -18 -13 -30.5t-29 -12.5t-29 12.5t-13 30.5z" />
<glyph unicode="&#xc0;" horiz-adv-x="740" d="M61 0q78 184 155 366t155 366q78 -184 155 -366t155 -366h-63q-31 72 -61 144.5t-61 144.5h-251q-30 -72 -60.5 -144.5t-61.5 -144.5h-62zM235 883h64q23 -33 45 -66.5t45 -66.5h-46q-27 33 -54 66.5t-54 66.5zM271 348h199q-23 54 -45 107.5t-45 107.5q-2 8 -4.5 15.5 t-4.5 15.5q-20 -63 -47 -124t-53 -122z" />
<glyph unicode="&#xc1;" horiz-adv-x="740" d="M61 0q78 184 155 366t155 366q78 -184 155 -366t155 -366h-63q-31 72 -61 144.5t-61 144.5h-251q-30 -72 -60.5 -144.5t-61.5 -144.5h-62zM271 348h199q-23 54 -45 107.5t-45 107.5q-2 8 -4.5 15.5t-4.5 15.5q-20 -63 -47 -124t-53 -122zM346 750q23 33 45 66.5t45 66.5 h64q-27 -33 -54 -66.5t-54 -66.5h-46z" />
<glyph unicode="&#xc2;" horiz-adv-x="740" d="M61 0q78 184 155 366t155 366q78 -184 155 -366t155 -366h-63q-31 72 -61 144.5t-61 144.5h-251q-30 -72 -60.5 -144.5t-61.5 -144.5h-62zM251 750q30 45 60 90.5t60 90.5q30 -45 60 -90.5t60 -90.5h-46q-19 24 -37.5 48t-36.5 49q-19 -25 -37 -49t-37 -48h-46zM271 348 h199q-23 54 -45 107.5t-45 107.5q-2 8 -4.5 15.5t-4.5 15.5q-20 -63 -47 -124t-53 -122z" />
<glyph unicode="&#xc3;" horiz-adv-x="740" d="M61 0q78 184 155 366t155 366q78 -184 155 -366t155 -366h-63q-31 72 -61 144.5t-61 144.5h-251q-30 -72 -60.5 -144.5t-61.5 -144.5h-62zM215 766q1 19 9.5 34.5t21 26t28 16t30.5 5.5q22 0 39.5 -9.5t34.5 -25.5q15 -17 27 -22t26 -5q7 0 16 2t17.5 7.5t15 15t8.5 24.5 q8 -1 17 -1.5t18 -1.5q-1 -20 -9.5 -35t-21 -25.5t-27.5 -15.5t-30 -5q-23 0 -40.5 9.5t-34.5 24.5q-15 17 -26.5 22t-25.5 5q-7 0 -16.5 -2t-18 -7.5t-15 -15t-7.5 -24.5zM271 348h199q-23 54 -45 107.5t-45 107.5q-2 8 -4.5 15.5t-4.5 15.5q-20 -63 -47 -124t-53 -122z " />
<glyph unicode="&#xc4;" horiz-adv-x="740" d="M61 0q78 184 155 366t155 366q78 -184 155 -366t155 -366h-63q-31 72 -61 144.5t-61 144.5h-251q-30 -72 -60.5 -144.5t-61.5 -144.5h-62zM247 804q0 18 13 30.5t29 12.5t29 -12.5t13 -30.5q0 -19 -13 -30.5t-29 -11.5t-29 11.5t-13 30.5zM271 348h199q-23 54 -45 107.5 t-45 107.5q-2 8 -4.5 15.5t-4.5 15.5q-20 -63 -47 -124t-53 -122zM413 804q0 18 12.5 30.5t29.5 12.5q16 0 29 -12.5t13 -30.5q0 -19 -13 -30.5t-29 -11.5q-17 0 -29.5 11.5t-12.5 30.5z" />
<glyph unicode="&#xc5;" horiz-adv-x="740" d="M61 0q78 184 155 366t155 366q78 -184 155 -366t155 -366h-63q-31 72 -61 144.5t-61 144.5h-251q-30 -72 -60.5 -144.5t-61.5 -144.5h-62zM271 348h199q-23 54 -45 107.5t-45 107.5q-2 8 -4.5 15.5t-4.5 15.5q-20 -63 -47 -124t-53 -122zM291 837q0 16 6.5 30.5t17 25.5 t25 17.5t31.5 6.5q16 0 31 -6.5t25.5 -17.5t17 -25.5t6.5 -30.5q0 -33 -23.5 -56.5t-56.5 -23.5t-56.5 23.5t-23.5 56.5zM334 836q0 -15 11 -26t26 -11q16 0 27 11t11 26q0 16 -11 27t-27 11q-15 0 -26 -11t-11 -27z" />
<glyph unicode="&#xc6;" horiz-adv-x="796" d="M60 0q75 176 148 350t148 350h342v-60h-270v-258h231v-59h-231v-264h284v-59h-346v280h-125q-29 -71 -59 -140.5t-59 -139.5h-63zM266 339h100v244q-20 -62 -47 -122.5t-53 -121.5z" />
<glyph unicode="&#xc7;" horiz-adv-x="670" d="M62 349q0 74 28 139.5t76.5 114t113.5 77t139 28.5q51 0 96.5 -13t86.5 -37q-8 -13 -17 -25.5t-18 -25.5q-67 41 -148 41q-61 0 -114.5 -23.5t-93.5 -64.5t-63.5 -95.5t-23.5 -115.5q0 -62 23 -116t63 -94.5t93.5 -64t114.5 -23.5q41 0 78 10.5t71 30.5l34 -50 q-38 -23 -81 -35.5t-91 -14.5q0 -14 4 -22.5t10.5 -13.5t13.5 -9t13 -8q22 -16 31 -35.5t9 -41.5q0 -45 -26.5 -74.5t-72.5 -29.5q-32 0 -58.5 17.5t-38.5 52.5q9 5 18.5 9t18.5 9q5 -17 19.5 -28.5t35.5 -11.5q26 0 41 17t15 43q0 22 -11.5 35t-25 22.5t-25 19.5t-11.5 28 v23q-69 5 -128.5 35t-103.5 77.5t-69.5 110t-25.5 132.5z" />
<glyph unicode="&#xc8;" horiz-adv-x="601" d="M77 0v700h423v-60h-361v-258h322v-59h-322v-264h375v-59h-437zM161 883h64q23 -33 45 -66.5t45 -66.5h-46q-27 33 -54 66.5t-54 66.5z" />
<glyph unicode="&#xc9;" horiz-adv-x="601" d="M77 0v700h423v-60h-361v-258h322v-59h-322v-264h375v-59h-437zM267 750q23 33 45 66.5t45 66.5h64q-27 -33 -54 -66.5t-54 -66.5h-46z" />
<glyph unicode="&#xca;" horiz-adv-x="601" d="M77 0v700h423v-60h-361v-258h322v-59h-322v-264h375v-59h-437zM180 750q30 45 60 90.5t60 90.5q30 -45 60 -90.5t60 -90.5h-46q-19 24 -37.5 48t-36.5 49q-19 -25 -37 -49t-37 -48h-46z" />
<glyph unicode="&#xcb;" horiz-adv-x="601" d="M77 0v700h423v-60h-361v-258h322v-59h-322v-264h375v-59h-437zM167 804q0 18 13 30.5t29 12.5t29 -12.5t13 -30.5q0 -19 -13 -30.5t-29 -11.5t-29 11.5t-13 30.5zM333 804q0 18 12.5 30.5t29.5 12.5q16 0 29 -12.5t13 -30.5q0 -19 -13 -30.5t-29 -11.5q-17 0 -29.5 11.5 t-12.5 30.5z" />
<glyph unicode="&#xcc;" horiz-adv-x="236" d="M-4 883h64q23 -33 45 -66.5t45 -66.5h-46q-27 33 -54 66.5t-54 66.5zM101 0v700h63v-700h-63z" />
<glyph unicode="&#xcd;" horiz-adv-x="236" d="M101 0v700h63v-700h-63zM115 750q23 33 45 66.5t45 66.5h64q-27 -33 -54 -66.5t-54 -66.5h-46z" />
<glyph unicode="&#xce;" horiz-adv-x="271" d="M13 750q30 45 60 90.5t60 90.5q30 -45 60 -90.5t60 -90.5h-46q-19 24 -37.5 48t-36.5 49q-19 -25 -37 -49t-37 -48h-46zM101 0v700h63v-700h-63z" />
<glyph unicode="&#xcf;" horiz-adv-x="236" d="M6 804q0 18 13 30.5t29 12.5t29 -12.5t13 -30.5q0 -19 -13 -30.5t-29 -11.5t-29 11.5t-13 30.5zM101 0v700h63v-700h-63zM172 804q0 18 12.5 30.5t29.5 12.5q16 0 29 -12.5t13 -30.5q0 -19 -13 -30.5t-29 -11.5q-17 0 -29.5 11.5t-12.5 30.5z" />
<glyph unicode="&#xd0;" horiz-adv-x="646" d="M22 320v61h46v319h147q77 0 146 -24.5t121 -70t82.5 -110.5t30.5 -145q0 -59 -22.5 -121t-72 -113t-129 -83.5t-193.5 -32.5h-110v320h-46zM130 59h83q68 0 126.5 20.5t101.5 58.5t67.5 92t24.5 120q0 67 -24.5 120.5t-67 91.5t-101 58.5t-127.5 20.5h-83v-260h194v-61 h-194v-261z" />
<glyph unicode="&#xd1;" horiz-adv-x="813" d="M100 0v732q134 -151 266.5 -300t266.5 -300q5 -7 9.5 -13t9.5 -13q-1 8 -1.5 16t-1.5 16v562h62v-732q-134 149 -266.5 295.5t-266.5 295.5q-5 7 -9.5 13t-9.5 13q1 -8 1.5 -16t1.5 -16v-553h-62zM257 759q1 19 9.5 34.5t21 26t28 16t30.5 5.5q22 0 39.5 -9.5t34.5 -25.5 q15 -17 27 -22t26 -5q7 0 16 2t17.5 7.5t15 15t8.5 24.5q8 -1 17 -1.5t18 -1.5q-1 -20 -9.5 -35t-21 -25.5t-27.5 -15.5t-30 -5q-23 0 -40.5 9.5t-34.5 24.5q-15 17 -26.5 22t-25.5 5q-7 0 -16.5 -2t-18 -7.5t-15 -15t-7.5 -24.5z" />
<glyph unicode="&#xd2;" horiz-adv-x="839" d="M61 349q0 74 28 139.5t76.5 114t113.5 77t139 28.5t139.5 -28.5t114 -77t77 -114t28.5 -139.5t-28.5 -139t-77 -113.5t-114 -76.5t-139.5 -28t-139 28t-113.5 76.5t-76.5 113.5t-28 139zM123 349q0 -62 23 -116t63 -94.5t94 -64t115 -23.5t115 23.5t94.5 64t64 94.5 t23.5 116q0 61 -23.5 115.5t-64 95.5t-94 64.5t-114.5 23.5t-115 -23.5t-94 -64.5t-63.5 -95.5t-23.5 -115.5zM280 883h64q23 -33 45 -66.5t45 -66.5h-46q-27 33 -54 66.5t-54 66.5z" />
<glyph unicode="&#xd3;" horiz-adv-x="840" d="M61 349q0 74 28 139.5t76.5 114t113.5 77t139 28.5t139.5 -28.5t114 -77t77 -114t28.5 -139.5t-28.5 -139t-77 -113.5t-114 -76.5t-139.5 -28t-139 28t-113.5 76.5t-76.5 113.5t-28 139zM123 349q0 -62 23 -116t63 -94.5t94 -64t115 -23.5t115 23.5t94.5 64t64 94.5 t23.5 116q0 61 -23.5 115.5t-64 95.5t-94 64.5t-114.5 23.5t-115 -23.5t-94 -64.5t-63.5 -95.5t-23.5 -115.5zM400 750q23 33 45 66.5t45 66.5h64q-27 -33 -54 -66.5t-54 -66.5h-46z" />
<glyph unicode="&#xd4;" horiz-adv-x="839" d="M61 349q0 74 28 139.5t76.5 114t113.5 77t139 28.5t139.5 -28.5t114 -77t77 -114t28.5 -139.5t-28.5 -139t-77 -113.5t-114 -76.5t-139.5 -28t-139 28t-113.5 76.5t-76.5 113.5t-28 139zM123 349q0 -62 23 -116t63 -94.5t94 -64t115 -23.5t115 23.5t94.5 64t64 94.5 t23.5 116q0 61 -23.5 115.5t-64 95.5t-94 64.5t-114.5 23.5t-115 -23.5t-94 -64.5t-63.5 -95.5t-23.5 -115.5zM297 750q30 45 60 90.5t60 90.5q30 -45 60 -90.5t60 -90.5h-46q-19 24 -37.5 48t-36.5 49q-19 -25 -37 -49t-37 -48h-46z" />
<glyph unicode="&#xd5;" horiz-adv-x="839" d="M61 349q0 74 28 139.5t76.5 114t113.5 77t139 28.5t139.5 -28.5t114 -77t77 -114t28.5 -139.5t-28.5 -139t-77 -113.5t-114 -76.5t-139.5 -28t-139 28t-113.5 76.5t-76.5 113.5t-28 139zM123 349q0 -62 23 -116t63 -94.5t94 -64t115 -23.5t115 23.5t94.5 64t64 94.5 t23.5 116q0 61 -23.5 115.5t-64 95.5t-94 64.5t-114.5 23.5t-115 -23.5t-94 -64.5t-63.5 -95.5t-23.5 -115.5zM265 794q1 19 9.5 34.5t21 26t28 16t30.5 5.5q22 0 39.5 -9.5t34.5 -25.5q15 -17 27 -22t26 -5q7 0 16 2t17.5 7.5t15 15t8.5 24.5q8 -1 17 -1.5t18 -1.5 q-1 -20 -9.5 -35t-21 -25.5t-27.5 -15.5t-30 -5q-23 0 -40.5 9.5t-34.5 24.5q-15 17 -26.5 22t-25.5 5q-7 0 -16.5 -2t-18 -7.5t-15 -15t-7.5 -24.5z" />
<glyph unicode="&#xd6;" horiz-adv-x="839" d="M61 349q0 74 28 139.5t76.5 114t113.5 77t139 28.5t139.5 -28.5t114 -77t77 -114t28.5 -139.5t-28.5 -139t-77 -113.5t-114 -76.5t-139.5 -28t-139 28t-113.5 76.5t-76.5 113.5t-28 139zM123 349q0 -62 23 -116t63 -94.5t94 -64t115 -23.5t115 23.5t94.5 64t64 94.5 t23.5 116q0 61 -23.5 115.5t-64 95.5t-94 64.5t-114.5 23.5t-115 -23.5t-94 -64.5t-63.5 -95.5t-23.5 -115.5zM294 804q0 18 13 30.5t29 12.5t29 -12.5t13 -30.5q0 -19 -13 -30.5t-29 -11.5t-29 11.5t-13 30.5zM460 804q0 18 12.5 30.5t29.5 12.5q16 0 29 -12.5t13 -30.5 q0 -19 -13 -30.5t-29 -11.5q-17 0 -29.5 11.5t-12.5 30.5z" />
<glyph unicode="&#xd7;" horiz-adv-x="500" d="M116 44l105 105l-105 106l44 44l105 -106q27 27 53.5 53t52.5 53q11 -11 21.5 -22t21.5 -22l-105 -105l106 -106l-45 -44q-26 26 -53 52.5t-53 52.5l-52 -52l-52 -52q-11 11 -22 21.5t-22 21.5z" />
<glyph unicode="&#xd8;" horiz-adv-x="840" d="M62 349q0 74 28 139.5t76.5 114t113.5 77t139 28.5q59 0 111.5 -17.5t96.5 -49.5q16 19 32 37.5t32 37.5q11 -10 21.5 -19.5t21.5 -18.5q-16 -19 -31.5 -37t-31.5 -37q50 -49 78.5 -114.5t28.5 -140.5q0 -74 -28.5 -139t-77 -113.5t-114 -76.5t-139.5 -28q-60 0 -113 18 t-97 50q-16 -18 -31.5 -37t-31.5 -37q-11 9 -22 18.5t-22 19.5q17 18 32 36.5t31 37.5q-48 48 -75.5 112.5t-27.5 138.5zM124 349q0 -60 21.5 -112t59.5 -92q97 113 191.5 224.5t190.5 224.5q-36 26 -78.5 40t-89.5 14q-61 0 -114.5 -23.5t-93.5 -64.5t-63.5 -95.5 t-23.5 -115.5zM248 107q37 -26 79.5 -41t90.5 -15q61 0 115.5 23.5t95 64t64 94.5t23.5 116q0 60 -23.5 113.5t-62.5 93.5q-96 -113 -190.5 -224.5t-191.5 -224.5z" />
<glyph unicode="&#xd9;" horiz-adv-x="652" d="M85 226v474h62v-471q0 -43 13.5 -76t37.5 -55.5t57.5 -34.5t73.5 -12q39 0 72.5 12t58 34.5t38 55.5t13.5 76v471h62v-474q0 -57 -18.5 -101t-51.5 -73.5t-77.5 -44.5t-96.5 -15q-53 0 -97.5 15t-77 44.5t-51 73.5t-18.5 101zM200 883h64q23 -33 45 -66.5t45 -66.5h-46 q-27 33 -54 66.5t-54 66.5z" />
<glyph unicode="&#xda;" horiz-adv-x="652" d="M85 226v474h62v-471q0 -43 13.5 -76t37.5 -55.5t57.5 -34.5t73.5 -12q39 0 72.5 12t58 34.5t38 55.5t13.5 76v471h62v-474q0 -57 -18.5 -101t-51.5 -73.5t-77.5 -44.5t-96.5 -15q-53 0 -97.5 15t-77 44.5t-51 73.5t-18.5 101zM300 750q23 33 45 66.5t45 66.5h64 q-27 -33 -54 -66.5t-54 -66.5h-46z" />
<glyph unicode="&#xdb;" horiz-adv-x="652" d="M85 226v474h62v-471q0 -43 13.5 -76t37.5 -55.5t57.5 -34.5t73.5 -12q39 0 72.5 12t58 34.5t38 55.5t13.5 76v471h62v-474q0 -57 -18.5 -101t-51.5 -73.5t-77.5 -44.5t-96.5 -15q-53 0 -97.5 15t-77 44.5t-51 73.5t-18.5 101zM206 766q30 45 60 90.5t60 90.5 q30 -45 60 -90.5t60 -90.5h-46q-19 24 -37.5 48t-36.5 49q-19 -25 -37 -49t-37 -48h-46z" />
<glyph unicode="&#xdc;" horiz-adv-x="652" d="M85 226v474h62v-471q0 -43 13.5 -76t37.5 -55.5t57.5 -34.5t73.5 -12q39 0 72.5 12t58 34.5t38 55.5t13.5 76v471h62v-474q0 -57 -18.5 -101t-51.5 -73.5t-77.5 -44.5t-96.5 -15q-53 0 -97.5 15t-77 44.5t-51 73.5t-18.5 101zM205 804q0 18 13 30.5t29 12.5t29 -12.5 t13 -30.5q0 -19 -13 -30.5t-29 -11.5t-29 11.5t-13 30.5zM371 804q0 18 12.5 30.5t29.5 12.5q16 0 29 -12.5t13 -30.5q0 -19 -13 -30.5t-29 -11.5q-17 0 -29.5 11.5t-12.5 30.5z" />
<glyph unicode="&#xdd;" horiz-adv-x="638" d="M23 700h76q52 -88 104 -173.5t103 -173.5q3 -7 5.5 -14.5t5.5 -14.5h1q3 7 6 14.5t6 14.5q52 88 103 173.5t103 173.5h76q-64 -109 -128 -216.5t-128 -216.5v-267h-76v268q-65 108 -128.5 215.5t-128.5 216.5zM286 750q23 33 45 66.5t45 66.5h64q-27 -33 -54 -66.5 t-54 -66.5h-46z" />
<glyph unicode="&#xde;" horiz-adv-x="501" d="M100 0v700h62v-165h95q33 0 72 -10.5t73.5 -33t57.5 -57.5t23 -85q0 -88 -54 -140.5t-157 -52.5h-110v-156h-62zM162 216h96q48 0 79.5 12.5t50 32t26 43t7.5 45.5q0 25 -12.5 48t-34 40.5t-51.5 28t-64 10.5h-97v-260z" />
<glyph unicode="&#xdf;" horiz-adv-x="573" d="M16 345v61h64v18q0 55 16.5 98t44.5 73t64.5 46t76.5 16q32 0 60 -12.5t49 -33.5t33 -49t12 -60q0 -35 -16 -64.5t-42 -47.5q52 -25 85.5 -74.5t33.5 -111.5q0 -44 -17 -82.5t-46.5 -67.5t-68.5 -46t-83 -17q-48 0 -92 22q6 14 12.5 27.5t13.5 27.5q30 -16 65 -16 q31 0 59 12t49 33t33.5 48.5t12.5 58.5t-12 58t-33 47.5t-49 32.5t-59 12h-1q0 7 -0.5 14.5t-0.5 15.5v31q39 0 66.5 23.5t27.5 62.5q0 19 -7 36t-19 30.5t-29 21t-36 7.5q-30 -1 -55.5 -13t-44.5 -34.5t-30 -54.5t-11 -72v-422h-62v345h-64z" />
<glyph unicode="&#xe0;" horiz-adv-x="551" d="M49 187q0 40 15.5 75.5t42 62.5t63 43t78.5 16q28 0 52.5 -8t43.5 -20t31.5 -25t15.5 -23q0 16 1.5 33t2.5 34h51v-375h-55v39v25q-3 -10 -14.5 -22.5t-30 -23.5t-43.5 -18.5t-55 -7.5q-42 0 -78.5 15.5t-63 42t-42 62t-15.5 75.5zM112 188q0 -29 10.5 -53.5t28.5 -42.5 t43 -28.5t54 -10.5t54 10.5t43 28.5t28.5 42.5t10.5 53.5q0 28 -10.5 53t-28.5 43t-43 28.5t-54 10.5t-54 -10.5t-43 -28.5t-28.5 -43t-10.5 -53zM119 612h64q23 -33 45 -66.5t45 -66.5h-46q-27 33 -54 66.5t-54 66.5z" />
<glyph unicode="&#xe1;" horiz-adv-x="551" d="M49 187q0 40 15.5 75.5t42 62.5t63 43t78.5 16q28 0 52.5 -8t43.5 -20t31.5 -25t15.5 -23q0 16 1.5 33t2.5 34h51v-375h-55v39v25q-3 -10 -14.5 -22.5t-30 -23.5t-43.5 -18.5t-55 -7.5q-42 0 -78.5 15.5t-63 42t-42 62t-15.5 75.5zM112 188q0 -29 10.5 -53.5t28.5 -42.5 t43 -28.5t54 -10.5t54 10.5t43 28.5t28.5 42.5t10.5 53.5q0 28 -10.5 53t-28.5 43t-43 28.5t-54 10.5t-54 -10.5t-43 -28.5t-28.5 -43t-10.5 -53zM232 479q23 33 45 66.5t45 66.5h64q-27 -33 -54 -66.5t-54 -66.5h-46z" />
<glyph unicode="&#xe2;" horiz-adv-x="551" d="M49 187q0 40 15.5 75.5t42 62.5t63 43t78.5 16q28 0 52.5 -8t43.5 -20t31.5 -25t15.5 -23q0 16 1.5 33t2.5 34h51v-375h-55v39v25q-3 -10 -14.5 -22.5t-30 -23.5t-43.5 -18.5t-55 -7.5q-42 0 -78.5 15.5t-63 42t-42 62t-15.5 75.5zM112 188q0 -29 10.5 -53.5t28.5 -42.5 t43 -28.5t54 -10.5t54 10.5t43 28.5t28.5 42.5t10.5 53.5q0 28 -10.5 53t-28.5 43t-43 28.5t-54 10.5t-54 -10.5t-43 -28.5t-28.5 -43t-10.5 -53zM141 479q30 45 60 90.5t60 90.5q30 -45 60 -90.5t60 -90.5h-46q-19 24 -37.5 48t-36.5 49q-19 -25 -37 -49t-37 -48h-46z" />
<glyph unicode="&#xe3;" horiz-adv-x="551" d="M49 187q0 40 15.5 75.5t42 62.5t63 43t78.5 16q28 0 52.5 -8t43.5 -20t31.5 -25t15.5 -23q0 16 1.5 33t2.5 34h51v-375h-55v39v25q-3 -10 -14.5 -22.5t-30 -23.5t-43.5 -18.5t-55 -7.5q-42 0 -78.5 15.5t-63 42t-42 62t-15.5 75.5zM112 188q0 -29 10.5 -53.5t28.5 -42.5 t43 -28.5t54 -10.5t54 10.5t43 28.5t28.5 42.5t10.5 53.5q0 28 -10.5 53t-28.5 43t-43 28.5t-54 10.5t-54 -10.5t-43 -28.5t-28.5 -43t-10.5 -53zM119 467q1 19 9.5 34.5t21 26t28 16t30.5 5.5q22 0 39.5 -9.5t34.5 -25.5q15 -17 27 -22t26 -5q7 0 16 2t17.5 7.5t15 15 t8.5 24.5q8 -1 17 -1.5t18 -1.5q-1 -20 -9.5 -35t-21 -25.5t-27.5 -15.5t-30 -5q-23 0 -40.5 9.5t-34.5 24.5q-15 17 -26.5 22t-25.5 5q-7 0 -16.5 -2t-18 -7.5t-15 -15t-7.5 -24.5z" />
<glyph unicode="&#xe4;" horiz-adv-x="551" d="M49 187q0 40 15.5 75.5t42 62.5t63 43t78.5 16q28 0 52.5 -8t43.5 -20t31.5 -25t15.5 -23q0 16 1.5 33t2.5 34h51v-375h-55v39v25q-3 -10 -14.5 -22.5t-30 -23.5t-43.5 -18.5t-55 -7.5q-42 0 -78.5 15.5t-63 42t-42 62t-15.5 75.5zM112 188q0 -29 10.5 -53.5t28.5 -42.5 t43 -28.5t54 -10.5t54 10.5t43 28.5t28.5 42.5t10.5 53.5q0 28 -10.5 53t-28.5 43t-43 28.5t-54 10.5t-54 -10.5t-43 -28.5t-28.5 -43t-10.5 -53zM137 514q0 18 13 30.5t29 12.5t29 -12.5t13 -30.5q0 -19 -13 -30.5t-29 -11.5t-29 11.5t-13 30.5zM303 514q0 18 12.5 30.5 t29.5 12.5q16 0 29 -12.5t13 -30.5q0 -19 -13 -30.5t-29 -11.5q-17 0 -29.5 11.5t-12.5 30.5z" />
<glyph unicode="&#xe5;" horiz-adv-x="551" d="M49 187q0 40 15.5 75.5t42 62.5t63 43t78.5 16q28 0 52.5 -8t43.5 -20t31.5 -25t15.5 -23q0 16 1.5 33t2.5 34h51v-375h-55v39v25q-3 -10 -14.5 -22.5t-30 -23.5t-43.5 -18.5t-55 -7.5q-42 0 -78.5 15.5t-63 42t-42 62t-15.5 75.5zM112 188q0 -29 10.5 -53.5t28.5 -42.5 t43 -28.5t54 -10.5t54 10.5t43 28.5t28.5 42.5t10.5 53.5q0 28 -10.5 53t-28.5 43t-43 28.5t-54 10.5t-54 -10.5t-43 -28.5t-28.5 -43t-10.5 -53zM170 540q0 33 23.5 56.5t56.5 23.5t56.5 -23.5t23.5 -56.5t-23.5 -56.5t-56.5 -23.5t-56.5 23.5t-23.5 56.5zM213 539 q0 -15 11 -26t26 -11q16 0 27 11t11 26q0 16 -11 27t-27 11q-15 0 -26 -11t-11 -27z" />
<glyph unicode="&#xe6;" horiz-adv-x="629" d="M45 108q0 30 12.5 50t33 32.5t46.5 17.5t54 5h106v33q0 19 -3.5 33.5t-13 24.5t-28 14.5t-48.5 4.5q-13 0 -28 -2.5t-29.5 -7t-27 -9.5t-19.5 -11q-9 11 -17.5 20.5t-17.5 20.5q10 10 26.5 19t35.5 16t39.5 11t38.5 4q77 0 110 -20q42 20 89 20q62 0 108.5 -43t65.5 -110 q-54 -21 -109 -41.5t-109 -41.5v-10v-7q0 -21 -3.5 -37t-12.5 -29q27 -12 60 -12q26 0 49.5 10.5t40.5 27.5q10 -12 19.5 -23.5t19.5 -22.5q-26 -24 -58.5 -38t-70.5 -14q-50 0 -94 22q-38 -23 -106 -23q-36 0 -65.5 5.5t-50 19t-32 35.5t-11.5 56zM108 105q0 -16 9 -26 t22.5 -16t30.5 -8t34 -2q15 0 31.5 1.5t30 7.5t22.5 17t9 30v40h-67q-15 0 -36 -0.5t-40 -4.5t-32.5 -13t-13.5 -26zM347 312q8 -12 10.5 -29t2.5 -39v-31q35 14 69 26.5t69 26.5q-15 26 -40 41.5t-54 15.5q-30 0 -57 -11z" />
<glyph unicode="&#xe7;" horiz-adv-x="391" d="M36 188q0 40 15.5 76t42.5 62.5t63 42t77 15.5q37 0 68.5 -11.5t57.5 -31.5q-10 -12 -20 -23.5t-19 -23.5q-18 14 -40 21.5t-47 7.5q-29 0 -54 -10.5t-43 -28.5t-28.5 -43t-10.5 -53q0 -29 10.5 -53.5t28.5 -42.5t43 -28.5t54 -10.5q26 0 47.5 7.5t39.5 21.5 q18 -23 38 -47q-52 -41 -123 -43q0 -14 4.5 -22.5t11 -13.5t13.5 -9t13 -8q22 -16 30.5 -35.5t8.5 -41.5q0 -38 -19.5 -65t-52.5 -35q-9 -2 -17.5 -2.5t-19.5 0.5q-28 2 -51.5 18.5t-34.5 49.5l36 18q6 -17 20.5 -28.5t35.5 -11.5q26 0 41 17t15 43q0 22 -11.5 35t-25 22.5 t-25 19.5t-11.5 28v26q-35 6 -64 23t-51 42.5t-34 57.5t-12 68z" />
<glyph unicode="&#xe8;" horiz-adv-x="451" d="M36 188q0 40 15.5 76t42.5 62.5t63 42t77 15.5q31 0 58.5 -11.5t50 -32t39.5 -49t26 -61.5l-291 -111q17 -30 47.5 -48t69.5 -18q27 0 50.5 10t40.5 27q9 -11 18.5 -22.5t19.5 -22.5q-26 -25 -58.5 -39t-70.5 -14q-41 0 -77 15.5t-63 42t-42.5 62t-15.5 76.5zM78 612h64 q23 -33 45 -66.5t45 -66.5h-46q-27 33 -54 66.5t-54 66.5zM100 178q57 22 114 43.5t114 43.5q-15 26 -39.5 42t-54.5 16q-50 0 -86.5 -30t-44.5 -75q-2 -10 -2.5 -20t-0.5 -20z" />
<glyph unicode="&#xe9;" horiz-adv-x="451" d="M36 188q0 40 15.5 76t42.5 62.5t63 42t77 15.5q31 0 58.5 -11.5t50 -32t39.5 -49t26 -61.5l-291 -111q17 -30 47.5 -48t69.5 -18q27 0 50.5 10t40.5 27q9 -11 18.5 -22.5t19.5 -22.5q-26 -25 -58.5 -39t-70.5 -14q-41 0 -77 15.5t-63 42t-42.5 62t-15.5 76.5zM100 178 q57 22 114 43.5t114 43.5q-15 26 -39.5 42t-54.5 16q-50 0 -86.5 -30t-44.5 -75q-2 -10 -2.5 -20t-0.5 -20zM223 479q23 33 45 66.5t45 66.5h64q-27 -33 -54 -66.5t-54 -66.5h-46z" />
<glyph unicode="&#xea;" horiz-adv-x="451" d="M36 188q0 40 15.5 76t42.5 62.5t63 42t77 15.5q31 0 58.5 -11.5t50 -32t39.5 -49t26 -61.5l-291 -111q17 -30 47.5 -48t69.5 -18q27 0 50.5 10t40.5 27q9 -11 18.5 -22.5t19.5 -22.5q-26 -25 -58.5 -39t-70.5 -14q-41 0 -77 15.5t-63 42t-42.5 62t-15.5 76.5zM100 178 q57 22 114 43.5t114 43.5q-15 26 -39.5 42t-54.5 16q-50 0 -86.5 -30t-44.5 -75q-2 -10 -2.5 -20t-0.5 -20zM112 479q30 45 60 90.5t60 90.5q30 -45 60 -90.5t60 -90.5h-46q-19 24 -37.5 48t-36.5 49q-19 -25 -37 -49t-37 -48h-46z" />
<glyph unicode="&#xeb;" horiz-adv-x="451" d="M36 188q0 40 15.5 76t42.5 62.5t63 42t77 15.5q31 0 58.5 -11.5t50 -32t39.5 -49t26 -61.5l-291 -111q17 -30 47.5 -48t69.5 -18q27 0 50.5 10t40.5 27q9 -11 18.5 -22.5t19.5 -22.5q-26 -25 -58.5 -39t-70.5 -14q-41 0 -77 15.5t-63 42t-42.5 62t-15.5 76.5zM100 178 q57 22 114 43.5t114 43.5q-15 26 -39.5 42t-54.5 16q-50 0 -86.5 -30t-44.5 -75q-2 -10 -2.5 -20t-0.5 -20zM105 514q0 18 13 30.5t29 12.5t29 -12.5t13 -30.5q0 -19 -13 -30.5t-29 -11.5t-29 11.5t-13 30.5zM271 514q0 18 12.5 30.5t29.5 12.5q16 0 29 -12.5t13 -30.5 q0 -19 -13 -30.5t-29 -11.5q-17 0 -29.5 11.5t-12.5 30.5z" />
<glyph unicode="&#xec;" horiz-adv-x="174" d="M-41 612h64q23 -33 45 -66.5t45 -66.5h-46q-27 33 -54 66.5t-54 66.5zM66 0v375h63v-375h-63z" />
<glyph unicode="&#xed;" horiz-adv-x="196" d="M64 0v375h63v-375h-63zM80 479q23 33 45 66.5t45 66.5h64q-27 -33 -54 -66.5t-54 -66.5h-46z" />
<glyph unicode="&#xee;" horiz-adv-x="239" d="M-4 479q30 45 60 90.5t60 90.5q30 -45 60 -90.5t60 -90.5h-46q-19 24 -37.5 48t-36.5 49q-19 -25 -37 -49t-37 -48h-46zM85 0v375h62v-375h-62z" />
<glyph unicode="&#xef;" horiz-adv-x="271" d="M16 514q0 18 13 30.5t29 12.5t29 -12.5t13 -30.5q0 -19 -13 -30.5t-29 -11.5t-29 11.5t-13 30.5zM111 0v375h62v-375h-62zM182 514q0 18 12.5 30.5t29.5 12.5q16 0 29 -12.5t13 -30.5q0 -19 -13 -30.5t-29 -11.5q-17 0 -29.5 11.5t-12.5 30.5z" />
<glyph unicode="&#xf0;" horiz-adv-x="493" d="M52 186q-1 40 14 76t41.5 63t62.5 43t77 17q26 1 50.5 -8t42.5 -24q-13 45 -39 97t-68 106q-14 -15 -27.5 -30t-27.5 -30q-11 11 -21.5 20t-21.5 20q16 17 31.5 33t30.5 33q-22 25 -45 48t-47 43q11 11 22 21l22 20q24 -18 47 -39.5t45 -44.5q14 14 26.5 28.5t26.5 29.5 q11 -10 21.5 -19.5t21.5 -18.5q-15 -17 -30 -32.5t-29 -32.5q34 -43 65 -93.5t54.5 -104.5t37.5 -108t14 -105q1 -41 -13.5 -76.5t-41 -62.5t-62 -43.5t-77.5 -17.5q-41 -1 -77.5 14t-64 41t-44 61t-17.5 76zM115 188q0 -29 11 -53.5t29.5 -42.5t43.5 -28t54 -9q29 0 54 11 t43 29.5t27.5 43.5t9.5 53q-1 29 -11.5 53.5t-29 42.5t-43.5 27.5t-54 9.5q-30 -1 -54.5 -11.5t-42.5 -29t-27.5 -43.5t-9.5 -53z" />
<glyph unicode="&#xf1;" horiz-adv-x="523" d="M92 0v375h56v-22q1 -20 2 -37.5t2 -37.5q20 48 64 76.5t99 28.5q57 0 90 -31t35 -81v-271h-62v247q-2 29 -21.5 51t-59.5 24q-28 0 -54 -10t-45.5 -27t-31 -40.5t-11.5 -51.5v-193h-63zM130 459q1 19 9.5 34.5t21 26t28 16t30.5 5.5q22 0 39.5 -9.5t34.5 -25.5 q15 -17 27 -22t26 -5q7 0 16 2t17.5 7.5t15 15t8.5 24.5q8 -1 17 -1.5t18 -1.5q-1 -20 -9.5 -35t-21 -25.5t-27.5 -15.5t-30 -5q-23 0 -40.5 9.5t-34.5 24.5q-15 17 -26.5 22t-25.5 5q-7 0 -16.5 -2t-18 -7.5t-15 -15t-7.5 -24.5z" />
<glyph unicode="&#xf2;" d="M36 188q0 40 15.5 76t42.5 62.5t63 42t77 15.5q42 0 78.5 -15.5t63.5 -42t42.5 -62.5t15.5 -76q0 -41 -15.5 -76.5t-42.5 -62t-63.5 -42t-78.5 -15.5q-41 0 -77 15.5t-63 42t-42.5 62t-15.5 76.5zM85 612h64q23 -33 45 -66.5t45 -66.5h-46q-27 33 -54 66.5t-54 66.5z M98 187q0 -28 10.5 -52.5t29 -42.5t43 -28.5t52.5 -10.5t52.5 10.5t43 28.5t29 42.5t10.5 52.5t-10.5 53t-29 43.5t-43 29t-52.5 10.5t-52.5 -10.5t-43 -29t-29 -43.5t-10.5 -53z" />
<glyph unicode="&#xf3;" d="M36 188q0 40 15.5 76t42.5 62.5t63 42t77 15.5q42 0 78.5 -15.5t63.5 -42t42.5 -62.5t15.5 -76q0 -41 -15.5 -76.5t-42.5 -62t-63.5 -42t-78.5 -15.5q-41 0 -77 15.5t-63 42t-42.5 62t-15.5 76.5zM98 187q0 -28 10.5 -52.5t29 -42.5t43 -28.5t52.5 -10.5t52.5 10.5 t43 28.5t29 42.5t10.5 52.5t-10.5 53t-29 43.5t-43 29t-52.5 10.5t-52.5 -10.5t-43 -29t-29 -43.5t-10.5 -53zM231 479q23 33 45 66.5t45 66.5h64q-27 -33 -54 -66.5t-54 -66.5h-46z" />
<glyph unicode="&#xf4;" d="M36 188q0 40 15.5 76t42.5 62.5t63 42t77 15.5q42 0 78.5 -15.5t63.5 -42t42.5 -62.5t15.5 -76q0 -41 -15.5 -76.5t-42.5 -62t-63.5 -42t-78.5 -15.5q-41 0 -77 15.5t-63 42t-42.5 62t-15.5 76.5zM98 187q0 -28 10.5 -52.5t29 -42.5t43 -28.5t52.5 -10.5t52.5 10.5 t43 28.5t29 42.5t10.5 52.5t-10.5 53t-29 43.5t-43 29t-52.5 10.5t-52.5 -10.5t-43 -29t-29 -43.5t-10.5 -53zM112 479q30 45 60 90.5t60 90.5q30 -45 60 -90.5t60 -90.5h-46q-19 24 -37.5 48t-36.5 49q-19 -25 -37 -49t-37 -48h-46z" />
<glyph unicode="&#xf5;" d="M36 188q0 40 15.5 76t42.5 62.5t63 42t77 15.5q42 0 78.5 -15.5t63.5 -42t42.5 -62.5t15.5 -76q0 -41 -15.5 -76.5t-42.5 -62t-63.5 -42t-78.5 -15.5q-41 0 -77 15.5t-63 42t-42.5 62t-15.5 76.5zM84 467q1 19 9.5 34.5t21 26t28 16t30.5 5.5q22 0 39.5 -9.5t34.5 -25.5 q15 -17 27 -22t26 -5q7 0 16 2t17.5 7.5t15 15t8.5 24.5q8 -1 17 -1.5t18 -1.5q-1 -20 -9.5 -35t-21 -25.5t-27.5 -15.5t-30 -5q-23 0 -40.5 9.5t-34.5 24.5q-15 17 -26.5 22t-25.5 5q-7 0 -16.5 -2t-18 -7.5t-15 -15t-7.5 -24.5zM98 187q0 -28 10.5 -52.5t29 -42.5 t43 -28.5t52.5 -10.5t52.5 10.5t43 28.5t29 42.5t10.5 52.5t-10.5 53t-29 43.5t-43 29t-52.5 10.5t-52.5 -10.5t-43 -29t-29 -43.5t-10.5 -53z" />
<glyph unicode="&#xf6;" d="M36 188q0 40 15.5 76t42.5 62.5t63 42t77 15.5q42 0 78.5 -15.5t63.5 -42t42.5 -62.5t15.5 -76q0 -41 -15.5 -76.5t-42.5 -62t-63.5 -42t-78.5 -15.5q-41 0 -77 15.5t-63 42t-42.5 62t-15.5 76.5zM98 187q0 -28 10.5 -52.5t29 -42.5t43 -28.5t52.5 -10.5t52.5 10.5 t43 28.5t29 42.5t10.5 52.5t-10.5 53t-29 43.5t-43 29t-52.5 10.5t-52.5 -10.5t-43 -29t-29 -43.5t-10.5 -53zM110 514q0 18 13 30.5t29 12.5t29 -12.5t13 -30.5q0 -19 -13 -30.5t-29 -11.5t-29 11.5t-13 30.5zM276 514q0 18 12.5 30.5t29.5 12.5q16 0 29 -12.5t13 -30.5 q0 -19 -13 -30.5t-29 -11.5q-17 0 -29.5 11.5t-12.5 30.5z" />
<glyph unicode="&#xf7;" horiz-adv-x="501" d="M68 207v61h360v-61h-360zM209 113q0 19 12.5 31t29.5 12q16 0 29 -12t13 -31t-13 -30.5t-29 -11.5q-17 0 -29.5 11.5t-12.5 30.5zM209 363q0 19 12.5 31t29.5 12q16 0 29 -12t13 -31t-13 -30.5t-29 -11.5q-17 0 -29.5 11.5t-12.5 30.5z" />
<glyph unicode="&#xf8;" d="M36 188q0 40 15.5 76t42.5 62.5t63 42t77 15.5q58 0 105 -30q8 11 17 21t18 21q8 -8 17 -15.5t17 -15.5l-33 -39q27 -26 42.5 -61.5t15.5 -76.5t-15.5 -76.5t-42 -62t-63 -42t-78.5 -15.5q-64 0 -114 36q-11 -12 -20.5 -24.5t-20.5 -24.5q-8 8 -17.5 14.5t-17.5 14.5 q11 13 21 25t21 24q-24 26 -37 59.5t-13 71.5zM98 188q0 -24 7.5 -45t20.5 -38q44 51 86 101t86 101q-30 16 -64 16q-29 0 -54 -10.5t-43 -28.5t-28.5 -43t-10.5 -53zM160 74q16 -10 34.5 -15.5t39.5 -5.5q29 0 54 10.5t43 28.5t28.5 42.5t10.5 53.5q0 27 -9.5 50.5 t-26.5 40.5q-44 -51 -87 -102t-87 -103z" />
<glyph unicode="&#xf9;" horiz-adv-x="529" d="M92 104v271h63v-247q2 -30 21.5 -51.5t59.5 -23.5q28 0 54 9.5t45.5 27t31 41t11.5 51.5v193h62v-381h-62v58l3 45q-20 -48 -64.5 -76.5t-98.5 -28.5q-57 0 -90.5 31t-35.5 81zM141 612h64q23 -33 45 -66.5t45 -66.5h-46q-27 33 -54 66.5t-54 66.5z" />
<glyph unicode="&#xfa;" horiz-adv-x="529" d="M92 104v271h63v-247q2 -30 21.5 -51.5t59.5 -23.5q28 0 54 9.5t45.5 27t31 41t11.5 51.5v193h62v-381h-62v58l3 45q-20 -48 -64.5 -76.5t-98.5 -28.5q-57 0 -90.5 31t-35.5 81zM231 479q23 33 45 66.5t45 66.5h64q-27 -33 -54 -66.5t-54 -66.5h-46z" />
<glyph unicode="&#xfb;" horiz-adv-x="529" d="M92 104v271h63v-247q2 -30 21.5 -51.5t59.5 -23.5q28 0 54 9.5t45.5 27t31 41t11.5 51.5v193h62v-381h-62v58l3 45q-20 -48 -64.5 -76.5t-98.5 -28.5q-57 0 -90.5 31t-35.5 81zM146 479q30 45 60 90.5t60 90.5q30 -45 60 -90.5t60 -90.5h-46q-19 24 -37.5 48t-36.5 49 q-19 -25 -37 -49t-37 -48h-46z" />
<glyph unicode="&#xfc;" horiz-adv-x="529" d="M92 104v271h63v-247q2 -30 21.5 -51.5t59.5 -23.5q28 0 54 9.5t45.5 27t31 41t11.5 51.5v193h62v-381h-62v58l3 45q-20 -48 -64.5 -76.5t-98.5 -28.5q-57 0 -90.5 31t-35.5 81zM137 514q0 18 13 30.5t29 12.5t29 -12.5t13 -30.5q0 -19 -13 -30.5t-29 -11.5t-29 11.5 t-13 30.5zM303 514q0 18 12.5 30.5t29.5 12.5q16 0 29 -12.5t13 -30.5q0 -19 -13 -30.5t-29 -11.5q-17 0 -29.5 11.5t-12.5 30.5z" />
<glyph unicode="&#xfd;" horiz-adv-x="488" d="M32 375h63q40 -78 83 -158t75 -161q32 81 75 161t82 158h63q-78 -157 -156.5 -312.5t-156.5 -312.5h-64q32 63 62.5 124.5t62.5 124.5q-48 94 -94.5 188t-94.5 188zM241 479q23 33 45 66.5t45 66.5h64q-27 -33 -54 -66.5t-54 -66.5h-46z" />
<glyph unicode="&#xfe;" horiz-adv-x="557" d="M67 -250v1000h62v-402q-2 -11 -3.5 -20.5t-3.5 -20.5q3 10 15.5 23t31.5 24.5t43.5 19.5t52.5 8q42 0 78.5 -15.5t63 -42t42 -62t15.5 -75.5t-15.5 -75.5t-42 -62.5t-63 -42.5t-78.5 -15.5q-30 0 -55 8t-43.5 19t-30 23t-14.5 22q2 -8 4 -15.5t4 -15.5v-282h-63zM129 188 q0 -29 10.5 -53.5t28.5 -43t43 -29t54 -10.5q30 0 55 10.5t43 29t28 43t10 53.5q0 28 -10 52.5t-28 42.5t-43 28.5t-55 10.5q-29 0 -54 -10.5t-43 -28.5t-28.5 -42.5t-10.5 -52.5z" />
<glyph unicode="&#xff;" horiz-adv-x="488" d="M32 375h63q40 -78 83 -158t75 -161q32 81 75 161t82 158h63q-78 -157 -156.5 -312.5t-156.5 -312.5h-64q32 63 62.5 124.5t62.5 124.5q-48 94 -94.5 188t-94.5 188zM130 514q0 18 13 30.5t29 12.5t29 -12.5t13 -30.5q0 -19 -13 -30.5t-29 -11.5t-29 11.5t-13 30.5z M296 514q0 18 12.5 30.5t29.5 12.5q16 0 29 -12.5t13 -30.5q0 -19 -13 -30.5t-29 -11.5q-17 0 -29.5 11.5t-12.5 30.5z" />
<glyph unicode="&#x2000;" horiz-adv-x="473" />
<glyph unicode="&#x2001;" horiz-adv-x="947" />
<glyph unicode="&#x2002;" horiz-adv-x="473" />
<glyph unicode="&#x2003;" horiz-adv-x="947" />
<glyph unicode="&#x2004;" horiz-adv-x="315" />
<glyph unicode="&#x2005;" horiz-adv-x="236" />
<glyph unicode="&#x2006;" horiz-adv-x="157" />
<glyph unicode="&#x2007;" horiz-adv-x="157" />
<glyph unicode="&#x2008;" horiz-adv-x="118" />
<glyph unicode="&#x2009;" horiz-adv-x="189" />
<glyph unicode="&#x200a;" horiz-adv-x="52" />
<glyph unicode="&#x2010;" horiz-adv-x="300" d="M53 158v61h184v-61h-184z" />
<glyph unicode="&#x2011;" horiz-adv-x="300" d="M53 158v61h184v-61h-184z" />
<glyph unicode="&#x2012;" horiz-adv-x="300" d="M53 158v61h184v-61h-184z" />
<glyph unicode="&#x2013;" horiz-adv-x="509" d="M100 175v61h301v-61h-301z" />
<glyph unicode="&#x2014;" horiz-adv-x="700" d="M99 175v61h502v-61h-502z" />
<glyph unicode="&#x2018;" horiz-adv-x="164" d="M34 711q10 -2 20.5 -3.5t21.5 -3.5q-7 -35 2.5 -64.5t30.5 -49.5q-8 -5 -15.5 -11t-15.5 -11q-28 27 -40 64.5t-4 78.5z" />
<glyph unicode="&#x2019;" horiz-adv-x="164" d="M42 590q21 20 30.5 49.5t2.5 64.5q11 2 21.5 3.5t20.5 3.5q8 -41 -4 -78.5t-40 -64.5q-8 5 -15.5 11t-15.5 11z" />
<glyph unicode="&#x201a;" horiz-adv-x="146" d="M19 -29q21 20 30.5 49.5t2.5 64.5q11 2 21.5 3.5t20.5 3.5q8 -41 -4 -78.5t-40 -64.5q-8 5 -15.5 11t-15.5 11z" />
<glyph unicode="&#x201c;" horiz-adv-x="249" d="M31 711q11 -2 21 -3.5t21 -3.5q-7 -35 2.5 -64.5t30.5 -49.5q-8 -5 -15 -11t-15 -11q-29 27 -41 64.5t-4 78.5zM135 711q11 -2 21 -3.5t21 -3.5q-7 -35 2.5 -64.5t30.5 -49.5q-8 -5 -15 -11t-15 -11q-29 27 -41 64.5t-4 78.5z" />
<glyph unicode="&#x201d;" horiz-adv-x="248" d="M21 590q21 20 30.5 49.5t2.5 64.5q11 2 21 3.5t21 3.5q8 -41 -4 -78.5t-41 -64.5q-8 5 -15 11t-15 11zM125 590q21 20 30.5 49.5t2.5 64.5q11 2 21 3.5t21 3.5q8 -41 -4 -78.5t-41 -64.5q-8 5 -15 11t-15 11z" />
<glyph unicode="&#x201e;" horiz-adv-x="309" d="M19 -29q21 20 30.5 49.5t2.5 64.5q11 2 21.5 3.5t20.5 3.5q8 -41 -4 -78.5t-40 -64.5q-8 5 -15.5 11t-15.5 11zM123 -29q21 20 30.5 49.5t2.5 64.5q11 2 21.5 3.5t20.5 3.5q8 -41 -4 -78.5t-40 -64.5q-8 5 -15.5 11t-15.5 11z" />
<glyph unicode="&#x2022;" horiz-adv-x="479" d="M131 300q0 23 8.5 43t23 34.5t34 23t42.5 8.5t43 -8.5t34.5 -23t23 -34.5t8.5 -43t-8.5 -42.5t-23 -34t-34.5 -23t-43 -8.5t-42.5 8.5t-34 23t-23 34t-8.5 42.5z" />
<glyph unicode="&#x202f;" horiz-adv-x="189" />
<glyph unicode="&#x2039;" horiz-adv-x="392" d="M117 239q43 41 85.5 80.5t85.5 80.5v-72q-23 -22 -44.5 -44t-43.5 -45q22 -23 43.5 -45.5t44.5 -45.5v-71z" />
<glyph unicode="&#x203a;" horiz-adv-x="392" d="M117 77l171 162q-43 41 -85.5 80.5t-85.5 80.5v-72q23 -22 44.5 -44t43.5 -45q-22 -23 -43.5 -45.5t-44.5 -45.5v-71z" />
<glyph unicode="&#x205f;" horiz-adv-x="236" />
<glyph unicode="&#xe000;" horiz-adv-x="375" d="M0 0v375h375v-375h-375z" />
</font>
</defs>
</svg>
