<?xml version="1.0" standalone="no"?>
<!DOCTYPE svg PUBLIC "-//W3C//DTD SVG 1.1//EN" "http://www.w3.org/Graphics/SVG/1.1/DTD/svg11.dtd" >
<svg xmlns="http://www.w3.org/2000/svg">
<metadata></metadata>
<defs>
<font id="josefin_sansregular" horiz-adv-x="300" >
<font-face units-per-em="1000" ascent="750" descent="-250" />
<missing-glyph horiz-adv-x="500" />
<glyph horiz-adv-x="1000" />
<glyph horiz-adv-x="1000" />
<glyph unicode="&#xd;" />
<glyph unicode=" " />
<glyph unicode="!" horiz-adv-x="201" d="M68 55q0 14 10 23.5t22 9.5t22 -9.5t10 -23.5t-10 -23.5t-22 -9.5t-22 9.5t-10 23.5zM79 166v584h42v-584h-42z" />
<glyph unicode="&#x22;" horiz-adv-x="310" d="M63 472v248h44q-1 -63 -2 -124t-2 -124h-40zM196 472v248h44q-1 -63 -2 -124t-2 -124h-40z" />
<glyph unicode="#" horiz-adv-x="571" d="M27 210q2 11 3 20.5t2 20.5h108q4 35 8 70.5t8 71.5h-106q2 10 2.5 20t1.5 20h107q7 53 13 105t13 105h42q-7 -53 -13 -105t-13 -105h142q7 53 13 105t13 105h42q-7 -53 -13 -105t-13 -105h123q-2 -10 -2.5 -20t-1.5 -20h-124q-4 -36 -8 -71.5t-8 -70.5h121 q-1 -11 -2 -20.5t-2 -20.5h-123l-24 -210h-42l24 210h-142l-24 -210h-42l24 210h-107zM182 251h142q4 35 8 70.5t8 71.5h-142q-4 -36 -8 -71.5t-8 -70.5z" />
<glyph unicode="$" horiz-adv-x="567" d="M66 89l28 28q13 -13 29 -27t35.5 -26t42.5 -20.5t50 -10.5v321q-4 2 -14 6q-19 6 -44 16.5t-47.5 28.5t-38.5 45.5t-17 66.5q-2 31 6.5 63t28 58t51 44t75.5 21v61h42v-62q34 -2 68.5 -16t70.5 -45q-7 -8 -12.5 -16t-11.5 -16q-16 14 -45 31t-70 22v-279q31 -11 65 -25.5 t62 -37t46 -55t18 -79.5q0 -42 -15 -76t-41 -59t-60.5 -40t-74.5 -18v-61h-42v62q-35 3 -64.5 13.5t-53 24.5t-40.5 29.5t-27 27.5zM131 524q0 -51 27.5 -76.5t74.5 -41.5q9 -6 18 -7v263q-30 -3 -52.5 -15.5t-37.5 -31.5t-22.5 -42.5t-7.5 -48.5zM293 35q30 3 57 14.5 t47.5 30.5t32.5 45.5t12 58.5q0 36 -13 61.5t-34.5 43t-48 29.5t-53.5 21v-304z" />
<glyph unicode="%" horiz-adv-x="726" d="M101 389q0 24 9.5 45t25 36.5t37 24.5t45.5 9t45 -9t37 -24.5t25.5 -36.5t9.5 -45t-9.5 -45.5t-25.5 -37t-37 -24.5t-45 -9t-45.5 9t-37 24.5t-25 37t-9.5 45.5zM143 388q0 -31 21.5 -52.5t53.5 -21.5t53.5 21.5t21.5 52.5q0 32 -21.5 53.5t-53.5 21.5t-53.5 -21.5 t-21.5 -53.5zM194 0q75 126 149 250t149 250h46q-75 -126 -149 -250t-149 -250h-46zM405 112q0 24 9.5 45t25 36.5t37 24.5t45.5 9t45 -9t37 -24.5t25.5 -36.5t9.5 -45t-9.5 -45.5t-25.5 -37t-37 -24.5t-45 -9t-45.5 9t-37 24.5t-25 37t-9.5 45.5zM447 112q0 -32 21.5 -53.5 t53.5 -21.5t53.5 21.5t21.5 53.5q0 31 -21.5 53t-53.5 22t-53.5 -22t-21.5 -53z" />
<glyph unicode="&#x26;" horiz-adv-x="700" d="M106 187q0 36 12 68.5t34 58t51.5 42.5t64.5 23q-18 29 -36 58.5t-35 58.5q-18 30 -25.5 62t-2.5 63t23 58t51 47q28 17 57.5 20.5t57.5 -1.5t52.5 -16t43.5 -23q-5 -9 -8.5 -17.5t-8.5 -16.5q-18 10 -38.5 19.5t-42 14t-43.5 2.5t-43 -15q-54 -34 -60 -85t24 -100 q53 -85 104.5 -170t104.5 -170q7 18 11.5 36.5t6.5 38.5v42q3 36 12.5 54.5t23 26.5t30.5 8.5t35 0.5h41v-41h-52q-31 0 -41.5 -23t-10.5 -84v-40q0 -41 -19 -79q17 -26 32.5 -52.5t32.5 -52.5q-8 -5 -16 -11t-16 -11q-14 22 -27 44t-27 43q-27 -35 -68 -55.5t-89 -20.5 q-41 0 -76.5 15.5t-62 41.5t-42 61.5t-15.5 76.5zM147 187q0 -32 12 -60t32.5 -49t49 -33t61.5 -12q44 0 78.5 20.5t54.5 53.5q-36 59 -72 117t-71 117q-31 -3 -57.5 -15.5t-46 -32.5t-30.5 -47.5t-11 -58.5z" />
<glyph unicode="'" horiz-adv-x="153" d="M57 472v248h44q-1 -63 -2 -124t-2 -124h-40z" />
<glyph unicode="(" horiz-adv-x="406" d="M134 292q0 75 14 143t37 126t52.5 105.5t61.5 80.5q8 -6 15.5 -11.5t15.5 -11.5q-29 -33 -56.5 -78t-49.5 -100t-35 -119t-13 -135t13 -135t35 -119t49.5 -100t56.5 -78q-8 -6 -15.5 -11.5t-15.5 -11.5q-32 33 -61.5 80.5t-52.5 105.5t-37 126t-14 143z" />
<glyph unicode=")" horiz-adv-x="400" d="M96 -142q29 33 56.5 78t49.5 100t35 119t13 135t-13 135t-35 119t-49.5 100t-56.5 78q8 6 15.5 11.5t15.5 11.5q31 -33 61 -80.5t53 -105.5t37 -126t14 -143t-14 -143t-37 -126t-53 -105.5t-61 -80.5q-8 6 -15.5 11.5t-15.5 11.5z" />
<glyph unicode="*" horiz-adv-x="335" d="M33 525q23 13 46 25.5t46 25.5q-23 14 -45.5 27t-45.5 27q8 17 20 35q23 -14 46 -27t46 -27v109h44q0 -27 -0.5 -54t-0.5 -55q23 14 47 27t47 26q5 -8 10 -17l10 -18q-24 -14 -47 -27t-47 -27q23 -13 46.5 -26t46.5 -27q-6 -9 -11.5 -18.5t-11.5 -19.5q-23 14 -45.5 27 t-45.5 27q-1 -26 -1 -52t-1 -52h-40v104q-23 -13 -45 -25.5t-45 -26.5q-6 10 -11.5 19.5t-11.5 19.5z" />
<glyph unicode="+" horiz-adv-x="543" d="M86 211v41h159v159h42v-159h159v-41h-159v-160h-42v160h-159z" />
<glyph unicode="," horiz-adv-x="200" d="M17 -120q20 52 38.5 103t38.5 103h47q-22 -52 -43 -103t-43 -103h-38z" />
<glyph unicode="-" d="M53 169v41h184v-41h-184z" />
<glyph unicode="." horiz-adv-x="163" d="M53 33q0 14 10 23.5t23 9.5q12 0 22 -9.5t10 -23.5t-10 -23.5t-22 -9.5q-13 0 -23 9.5t-10 23.5z" />
<glyph unicode="/" horiz-adv-x="345" d="M17 -19q70 190 139 377.5t139 377.5h42q-70 -190 -139 -377.5t-139 -377.5h-42z" />
<glyph unicode="0" horiz-adv-x="616" d="M36 327q0 59 17.5 118.5t51 106.5t84.5 76.5t119 29.5q67 0 117 -30t83 -78t49 -107.5t16 -118.5q0 -72 -22.5 -133t-60 -105t-86.5 -68.5t-102 -24.5t-101.5 25.5t-85 70t-58 105.5t-21.5 133zM79 327q0 -65 18.5 -119t49.5 -92.5t71.5 -60.5t84.5 -22t85 21t72.5 59 t51 91.5t19.5 118.5q0 59 -15 112t-44 93.5t-71 64.5t-94 24q-53 0 -95 -23t-71.5 -63t-45.5 -93t-16 -111z" />
<glyph unicode="1" horiz-adv-x="259" d="M34 609v41h137v-650h-42v609h-95z" />
<glyph unicode="2" horiz-adv-x="505" d="M48 463q0 40 12.5 75.5t36.5 62t59.5 42t81.5 15.5q42 0 76.5 -15.5t59 -42.5t38 -63.5t13.5 -78.5q0 -54 -24.5 -107.5t-63.5 -105.5t-87 -103t-95 -101h313v-41h-415q63 62 122.5 121.5t105.5 116t74 109t28 99.5q0 49 -14.5 81.5t-36 52.5t-47 28.5t-47.5 8.5 q-45 0 -73.5 -16t-45 -39t-23 -50t-6.5 -49q0 -35 10 -62t29 -48q-6 -6 -12.5 -12t-12.5 -13q-26 23 -41 59.5t-15 75.5z" />
<glyph unicode="3" horiz-adv-x="515" d="M79 60l31 31q22 -26 53 -42t68 -16q35 0 66 13.5t54 36.5t36.5 53.5t13.5 64.5t-13.5 64.5t-36.5 53.5t-54 36t-66 13q-17 0 -33 -5.5t-30 -15.5q46 66 91.5 131t91.5 131h-248v41h323l-177 -246q40 -3 75.5 -19.5t62 -43.5t41.5 -62.5t15 -77.5q0 -43 -16.5 -81 t-45 -66.5t-67 -45t-81.5 -16.5q-46 0 -85.5 18.5t-68.5 49.5z" />
<glyph unicode="4" horiz-adv-x="515" d="M37 183q92 119 183 237.5t183 237.5v-434h97v-41h-97v-183h-42v183h-324zM122 224h239v311q-60 -78 -119.5 -155.5t-119.5 -155.5z" />
<glyph unicode="5" horiz-adv-x="543" d="M110 50q8 7 15.5 14t15.5 14q22 -21 50.5 -33t61.5 -12q35 0 66 13.5t54 36.5t36.5 53.5t13.5 64.5t-13.5 64t-36.5 52.5t-54 35.5t-66 13t-64 -12t-46 -33v329h287v-41h-245v-217q16 7 33.5 11t35.5 4q43 0 81.5 -16t67 -44t45.5 -65.5t17 -80.5t-17 -81t-45.5 -66.5 t-67 -45t-81.5 -16.5q-42 0 -78.5 15.5t-65.5 42.5z" />
<glyph unicode="6" horiz-adv-x="520" d="M49 195q0 72 31 134.5t79 117t107 101t115 87.5q6 -8 13 -17t14 -17q-107 -70 -168 -133.5t-88 -109.5q19 22 46.5 35.5t59.5 13.5q43 0 81.5 -16.5t67 -44.5t45 -66t16.5 -81t-16.5 -80.5t-45 -65.5t-67 -44.5t-81.5 -16.5q-42 0 -80 16t-66.5 43.5t-45 64.5t-17.5 79z M91 199q0 -35 13 -65t36 -52.5t53 -35.5t65 -13q34 0 65 13t54 35.5t36.5 52.5t13.5 65q0 34 -13.5 64.5t-36.5 53.5t-54 36t-65 13q-35 0 -65 -13t-53 -36t-36 -53.5t-13 -64.5z" />
<glyph unicode="7" horiz-adv-x="469" d="M14 609v41h406q-73 -164 -146 -325t-146 -325h-49q69 153 137.5 304.5t137.5 304.5h-340z" />
<glyph unicode="8" horiz-adv-x="510" d="M46 201q0 66 37 116.5t95 72.5q-34 16 -54.5 48t-20.5 72q0 30 11.5 57t32 47.5t47.5 32t58 11.5t59 -12t48 -32.5t32 -47.5t12 -58q0 -39 -20.5 -70t-52.5 -48q29 -11 54 -29.5t43 -43t28 -54t10 -62.5q0 -43 -17 -81t-45.5 -66.5t-67 -45t-81.5 -16.5t-80.5 16.5 t-66 45t-45 66.5t-16.5 81zM89 201q0 -34 12.5 -64.5t35 -54t52 -37t64.5 -13.5t66 13.5t54 37t36.5 54t13.5 64.5t-13.5 63.5t-36 52t-53.5 36t-65 13.5q-35 0 -65.5 -13t-53 -35.5t-35 -52.5t-12.5 -64zM145 506q0 -21 8.5 -39.5t23.5 -31.5t34.5 -20.5t42.5 -7.5 q46 0 76.5 28t30.5 71q0 22 -8 42t-22.5 35.5t-34 24.5t-42.5 9t-42.5 -9t-34.5 -24.5t-23.5 -35.5t-8.5 -42z" />
<glyph unicode="9" horiz-adv-x="525" d="M43 427q0 43 16.5 80.5t45 65.5t67 44.5t81.5 16.5t81.5 -16.5t67 -44.5t45 -65.5t16.5 -80.5q0 -71 -31 -133t-79.5 -116t-107.5 -100t-114 -86q-7 8 -13.5 16.5t-13.5 16.5q106 71 167.5 134t88.5 110q-19 -23 -47 -36t-60 -13q-43 0 -81.5 16t-67 44t-45 66t-16.5 81z M85 427q0 -35 13.5 -65t36.5 -53t53.5 -36t65.5 -13q34 0 64.5 13t53 36t35.5 53t13 65q0 34 -13 64.5t-35.5 53t-53 35.5t-64.5 13q-35 0 -65.5 -13t-53.5 -35.5t-36.5 -53t-13.5 -64.5z" />
<glyph unicode=":" horiz-adv-x="175" d="M52 33q0 14 10 23.5t23 9.5t22.5 -9.5t9.5 -23.5t-9.5 -23.5t-22.5 -9.5t-23 9.5t-10 23.5zM52 283q0 14 10 23.5t23 9.5t22.5 -9.5t9.5 -23.5t-9.5 -23.5t-22.5 -9.5t-23 9.5t-10 23.5z" />
<glyph unicode=";" horiz-adv-x="201" d="M2 -120q20 52 38.5 103t38.5 103h48q-22 -52 -43 -103t-43 -103h-39zM78 283q0 14 10 23.5t23 9.5t23 -9.5t10 -23.5t-10 -23.5t-23 -9.5t-23 9.5t-10 23.5z" />
<glyph unicode="&#x3c;" horiz-adv-x="680" d="M115 238q110 63 219 126.5t219 126.5v-55q-86 -50 -171.5 -99t-172.5 -99q87 -50 172.5 -99t171.5 -99v-55q-110 63 -219 126.5t-219 126.5z" />
<glyph unicode="=" horiz-adv-x="708" d="M100 135v41h506v-41h-506zM100 329v41h506v-41h-506z" />
<glyph unicode="&#x3e;" horiz-adv-x="650" d="M115 -15v55q87 50 172.5 99t171.5 99q-86 50 -171.5 99t-172.5 99v55q110 -63 219 -126.5t219 -126.5q-110 -63 -219 -126.5t-219 -126.5z" />
<glyph unicode="?" horiz-adv-x="452" d="M35 591q9 26 25 51t39.5 45t55 32.5t71.5 12.5q41 0 77 -15.5t62.5 -42t41.5 -62t15 -75.5q0 -54 -26.5 -95.5t-71.5 -73.5q-17 -13 -33.5 -23t-29.5 -22.5t-21 -31.5t-8 -49v-78h-42v97q0 31 11 50.5t28.5 34.5t40 28.5t46.5 33.5q33 27 48.5 59.5t15.5 69.5 q0 33 -11.5 61t-32.5 49t-49 32.5t-61 11.5q-58 0 -97.5 -30t-56.5 -83q-9 4 -18.5 7t-18.5 6zM178 48q0 14 10.5 23.5t22.5 9.5t22 -9.5t10 -23.5t-10 -23.5t-22 -9.5t-22.5 9.5t-10.5 23.5z" />
<glyph unicode="@" horiz-adv-x="990" d="M82 189q0 84 32 158t87.5 129t129.5 87t158 32t158 -32t129 -87t87 -129t32 -159q-3 -57 -18 -93.5t-37.5 -57.5t-49.5 -29t-53 -8h-90v40q0 12 0.5 23.5t0.5 22.5q-7 -17 -21.5 -34t-35 -30t-47 -21t-56.5 -8q-41 0 -77 15.5t-62.5 41.5t-42 61.5t-15.5 76.5 q0 40 15.5 75.5t42 62t62.5 42t77 15.5q29 0 54.5 -8.5t46.5 -22t36 -30.5t22 -35q0 22 1.5 44t2.5 44h34v-335h56q48 0 79 35t33 113q0 76 -28.5 143t-78 116.5t-116 78t-141.5 28.5q-76 0 -142.5 -28.5t-116 -78t-78 -116.5t-28.5 -143t28.5 -142t78 -115.5t116 -78 t142.5 -28.5q60 0 114.5 18t100.5 50q7 -8 13 -15t12 -15q-50 -38 -112 -58.5t-128 -20.5q-84 0 -158 32t-129.5 87t-87.5 129t-32 158zM333 188q0 -32 12 -60t32.5 -49t49 -33t61.5 -12t61.5 12t49 33t32.5 49t12 60t-12 60.5t-32.5 49.5t-49 33t-61.5 12t-61.5 -12 t-49 -33t-32.5 -49.5t-12 -60.5z" />
<glyph unicode="A" horiz-adv-x="740" d="M60 0q78 184 155 366t155 366q78 -184 155 -366t155 -366h-42q-32 75 -63.5 150t-63.5 150h-281q-32 -75 -63.5 -150t-63.5 -150h-43zM247 340h247q-29 69 -57.5 136t-57.5 135q-2 7 -4.5 14t-4.5 14q-26 -76 -58.5 -150t-64.5 -149z" />
<glyph unicode="B" horiz-adv-x="535" d="M74 0v700h160q47 0 85.5 -10t66 -31t42.5 -54.5t15 -79.5q0 -62 -30.5 -109t-93.5 -64q30 -6 57 -20t47.5 -36t33 -51t12.5 -65q0 -45 -18 -78.5t-48.5 -56t-69.5 -34t-81 -11.5h-178zM115 40h133q37 0 69.5 9t57 27t39 44.5t14.5 62.5q0 39 -16.5 67t-44 46.5t-63 27 t-73.5 8.5h-116v-292zM115 372h132q71 0 113 41.5t42 108.5q0 37 -11.5 63.5t-32.5 43t-50.5 24t-64.5 7.5h-128v-288z" />
<glyph unicode="C" horiz-adv-x="670" d="M62 349q0 74 28 139.5t76.5 114t113.5 77t139 28.5q51 0 96.5 -13t86.5 -37q-6 -8 -11.5 -17t-11.5 -17q-35 21 -75.5 32.5t-84.5 11.5q-65 0 -122.5 -25.5t-100.5 -69t-67.5 -101.5t-24.5 -124q0 -65 24.5 -122.5t67.5 -100.5t99.5 -68t121.5 -25q45 0 85 11.5t76 32.5 l23 -34q-40 -23 -85.5 -36.5t-96.5 -13.5q-74 0 -139 28t-113.5 76.5t-76.5 113.5t-28 139z" />
<glyph unicode="D" horiz-adv-x="652" d="M76 0v700h147q72 0 136 -24.5t112 -70t76 -110.5t28 -145q0 -59 -20.5 -121t-66.5 -113t-119.5 -83.5t-179.5 -32.5h-113zM117 41h87q83 0 145 26.5t103 69.5t61.5 98.5t20.5 114.5q0 71 -24.5 128.5t-67 98t-99 62t-120.5 21.5h-106v-619z" />
<glyph unicode="E" horiz-adv-x="601" d="M85 0v700h415v-40h-374v-287h335v-40h-335v-293h388v-40h-429z" />
<glyph unicode="F" horiz-adv-x="587" d="M85 0v700h415v-40h-374v-287h335v-40h-335v-333h-41z" />
<glyph unicode="G" horiz-adv-x="682" d="M62 349q0 74 28 139.5t76.5 114t113.5 77t139 28.5q51 0 96.5 -13t86.5 -37q-6 -8 -11.5 -17t-11.5 -17q-35 21 -75.5 32.5t-84.5 11.5q-65 0 -122.5 -25.5t-100.5 -69t-67.5 -101.5t-24.5 -124q0 -65 24.5 -122.5t67.5 -100.5t99.5 -68t121.5 -25q76 0 142 34v126v42 q0 12 -5 19t-22 7h-117v40h132q30 0 42 -11t12 -40v-207q-40 -23 -85.5 -36.5t-96.5 -13.5q-74 0 -139 28t-113.5 76.5t-76.5 113.5t-28 139z" />
<glyph unicode="H" horiz-adv-x="700" d="M94 0v700h41v-327h430v327h44q-1 -176 -1.5 -350t-1.5 -350h-41v333h-430v-333h-41z" />
<glyph unicode="I" horiz-adv-x="248" d="M104 0v700h41v-700h-41z" />
<glyph unicode="J" horiz-adv-x="312" d="M18 -103q36 2 66 16t52 39t34.5 60.5t12.5 80.5v607h42v-610q0 -56 -16 -98.5t-44 -72t-66 -45.5t-81 -17v40z" />
<glyph unicode="K" horiz-adv-x="600" d="M67 0v700h41v-314q0 -8 -0.5 -15t-1.5 -15q5 6 9 11t9 10q85 81 169.5 161.5t169.5 161.5h54l-294 -279q85 -106 167 -210.5t166 -210.5h-51q-78 99 -155 196.5t-155 197.5q-23 -21 -44 -41.5t-43 -41.5v-311h-41z" />
<glyph unicode="L" horiz-adv-x="593" d="M85 0v700h41v-660h388v-40h-429z" />
<glyph unicode="M" horiz-adv-x="937" d="M100 0v732q92 -119 183 -237.5t183 -237.5q92 119 183 237.5t183 237.5v-732h-42v446v129q1 10 1.5 19.5t0.5 20.5q-79 -110 -161.5 -215.5t-164.5 -212.5q-69 90 -136 177.5t-136 177.5l-42 54q-3 5 -6 9.5t-6 9.5q0 -11 0.5 -20.5t1.5 -19.5v-575h-42z" />
<glyph unicode="N" horiz-adv-x="813" d="M100 0v732q140 -163 277 -322.5t276 -321.5q5 -7 9.5 -13t9.5 -13q-1 8 -1.5 16t-1.5 16v606h42v-732q-140 161 -277 319.5t-276 319.5q-5 7 -9.5 13t-9.5 13q1 -8 1.5 -16t1.5 -16v-601h-42z" />
<glyph unicode="O" horiz-adv-x="840" d="M62 349q0 74 28 139.5t76.5 114t113.5 77t139 28.5t139.5 -28.5t114 -77t77 -114t28.5 -139.5t-28.5 -139t-77 -113.5t-114 -76.5t-139.5 -28t-139 28t-113.5 76.5t-76.5 113.5t-28 139zM104 348q0 -66 24.5 -123.5t67.5 -100t100 -67.5t122 -25t123 25t101.5 68 t68.5 100.5t25 123.5t-25 124t-68 101.5t-101 68.5t-123 25t-122.5 -25.5t-100.5 -69t-67.5 -101.5t-24.5 -124z" />
<glyph unicode="P" horiz-adv-x="464" d="M74 0v700h150q31 0 68 -10t69.5 -32t54.5 -57t22 -84q0 -86 -54.5 -137t-157.5 -51h-111v-329h-41zM115 370h104q52 0 86.5 14t55 36t28.5 47.5t8 49.5q0 28 -13.5 54t-37.5 46t-56.5 31.5t-69.5 11.5h-105v-290z" />
<glyph unicode="Q" horiz-adv-x="842" d="M62 349q0 74 28 139.5t76.5 114t113.5 77t139 28.5t139.5 -28.5t114 -77t77 -114t28.5 -139.5q0 -51 -14 -98t-39 -86.5t-60.5 -71.5t-77.5 -53h213v-40h-307q-38 -8 -74 -8q-74 0 -139 28t-113.5 76.5t-76.5 113.5t-28 139zM104 348q0 -65 24.5 -122.5t67.5 -100.5 t99.5 -68t121.5 -25q66 0 124 25t101.5 68t68.5 100.5t25 123.5t-25 124t-68 101.5t-101 68.5t-123 25t-122.5 -25.5t-100.5 -69t-67.5 -101.5t-24.5 -124z" />
<glyph unicode="R" horiz-adv-x="505" d="M74 0v700h150q31 0 68 -10t69.5 -32t54.5 -57t22 -84q0 -72 -38.5 -119.5t-111.5 -62.5q40 -85 79.5 -168t78.5 -167h-45q-39 84 -78 166t-78 165q-9 -1 -17.5 -1.5t-17.5 -0.5h-95v-329h-41zM115 370h104q52 0 86.5 14t55 36t28.5 47.5t8 49.5q0 28 -13.5 54t-37.5 46 t-56.5 31.5t-69.5 11.5h-105v-290z" />
<glyph unicode="S" horiz-adv-x="552" d="M66 89l28 28q14 -14 32 -29t39.5 -27.5t47.5 -20.5t56 -8q34 0 65 10.5t55 30t38.5 47.5t14.5 64q0 45 -20 74t-49.5 48t-64.5 31t-65 22q-19 6 -44.5 16t-49 28t-41 45.5t-18.5 68.5v11q0 28 8 56q10 34 31.5 60t56.5 43t85 17q38 0 77.5 -13t83.5 -50q-7 -8 -12.5 -16 t-11.5 -16q-9 8 -22 17.5t-30.5 18t-39 14t-46.5 5.5q-35 0 -61 -11.5t-43.5 -31t-26 -45t-8.5 -52.5q0 -29 9.5 -49.5t26 -34.5t39.5 -24.5t50 -19.5q32 -11 71.5 -24.5t74.5 -37t58.5 -59t23.5 -89.5q0 -44 -16.5 -80t-45 -61.5t-67 -39t-81.5 -13.5q-39 0 -72.5 10 t-59.5 25t-45.5 32t-30.5 30z" />
<glyph unicode="T" horiz-adv-x="553" d="M0 660v40h553v-40h-256v-660h-41v660h-256z" />
<glyph unicode="U" horiz-adv-x="652" d="M92 226v474h41v-471q0 -48 14.5 -84.5t40 -61.5t61.5 -38t78 -13t77.5 13t62 38t41 61.5t14.5 84.5v471h42v-474q0 -57 -18 -101t-50 -73.5t-75.5 -44.5t-93.5 -15q-51 0 -94 15t-74.5 44.5t-49 73.5t-17.5 101z" />
<glyph unicode="V" horiz-adv-x="722" d="M54 700h42q65 -154 129.5 -305.5t129.5 -305.5q2 -7 4.5 -14t4.5 -14q2 7 4.5 14t4.5 14q65 154 129.5 305.5t129.5 305.5h42q-78 -184 -155 -366t-155 -366q-78 184 -155 366t-155 366z" />
<glyph unicode="W" horiz-adv-x="1108" d="M54 700h42q65 -154 129 -306t130 -305q2 -7 4.5 -14t4.5 -14q34 100 78.5 199t86.5 197q-26 62 -51.5 122t-51.5 121h43q64 -154 128 -306t130 -305q2 -7 4.5 -14t4.5 -14q2 7 4.5 14t4.5 14q66 154 130 305.5t129 305.5h42q-78 -184 -155 -366t-155 -366l-177 417l-9 27 q-40 -111 -89.5 -223t-96.5 -221q-78 184 -155 366t-155 366z" />
<glyph unicode="X" horiz-adv-x="700" d="M93 0q58 91 115.5 179.5t115.5 179.5q-55 85 -110.5 170.5t-110.5 170.5h50q48 -73 95 -146t95 -146q3 -5 5.5 -9t4.5 -9q3 5 5.5 9t4.5 9q48 73 94.5 146t93.5 146h50q-56 -87 -111 -173t-111 -173q57 -89 115 -177t115 -177h-51l-177 271q-8 12 -15.5 26t-16.5 26 q-2 -5 -5 -9.5t-5 -9.5q-49 -76 -97.5 -151.5t-97.5 -152.5h-51z" />
<glyph unicode="Y" horiz-adv-x="638" d="M34 700h51q55 -94 111 -185t110 -185q3 -8 6 -14.5t6 -13.5h1q3 7 5.5 13.5t5.5 14.5q56 93 110.5 184.5t109.5 185.5h51l-258 -435v-265h-50v265q-65 109 -129.5 217.5t-129.5 217.5z" />
<glyph unicode="Z" horiz-adv-x="700" d="M81 0v40q120 156 238.5 310.5t238.5 309.5h-395q-31 0 -48 12t-17 41v22h42v-12q0 -12 6.5 -17.5t23.5 -5.5h441v-40q-120 -155 -238.5 -309.5t-238.5 -310.5h506v-40h-559z" />
<glyph unicode="[" horiz-adv-x="338" d="M83 -149v895h175v-41h-132v-813h132v-41h-175z" />
<glyph unicode="\" horiz-adv-x="346" d="M10 736h46q70 -190 139 -377.5t139 -377.5h-46q-70 190 -139 377.5t-139 377.5z" />
<glyph unicode="]" horiz-adv-x="342" d="M76 -108h132v813h-132v41h175v-895h-175v41z" />
<glyph unicode="^" horiz-adv-x="470" d="M112 479q30 45 60 90.5t60 90.5q30 -45 60 -90.5t60 -90.5h-33q-22 30 -43.5 60.5t-43.5 60.5q-22 -30 -43.5 -60.5t-43.5 -60.5h-33z" />
<glyph unicode="_" horiz-adv-x="600" d="M100 0v41h400v-41h-400z" />
<glyph unicode="`" horiz-adv-x="200" d="M-29 612h43q23 -33 45 -66.5t45 -66.5h-33q-25 33 -50 66.5t-50 66.5z" />
<glyph unicode="a" horiz-adv-x="503" d="M49 188q0 40 15.5 75.5t42 62t62.5 42t77 15.5q29 0 55 -8.5t47 -22t35.5 -31t21.5 -34.5q0 22 1.5 44t2.5 44h34v-375h-38v45q0 11 0.5 21t0.5 21q-6 -17 -20.5 -34t-35 -30.5t-47 -21.5t-57.5 -8q-41 0 -77 15.5t-62.5 41.5t-42 61.5t-15.5 76.5zM91 188q0 -32 12 -60 t32.5 -49t49 -33t61.5 -12t61 12t49 33t33 49t12 60t-12 60.5t-33 49.5t-49 33t-61 12t-61.5 -12t-49 -33t-32.5 -49.5t-12 -60.5z" />
<glyph unicode="b" horiz-adv-x="529" d="M82 0v750h42v-417q-2 -11 -2.5 -22.5t-1.5 -22.5q6 17 21 34t36 30.5t47 22t55 8.5q41 0 77 -15.5t62.5 -42t42 -62t15.5 -75.5q0 -41 -15.5 -76.5t-42 -61.5t-62.5 -41.5t-77 -15.5q-31 0 -57.5 8t-47 21.5t-35 30.5t-20.5 34q0 -11 0.5 -21t0.5 -21v-45h-38zM124 188 q0 -32 12 -60t32.5 -49t49 -33t61.5 -12t61.5 12t49 33t32.5 49t12 60t-12 60.5t-32.5 49.5t-49 33t-61.5 12t-61.5 -12t-49 -33t-32.5 -49.5t-12 -60.5z" />
<glyph unicode="c" horiz-adv-x="388" d="M36 188q0 40 15.5 76t42 62t62 41.5t76.5 15.5q36 0 68 -11.5t57 -31.5q-7 -8 -13.5 -15.5t-13.5 -15.5q-20 16 -44.5 25t-53.5 9q-33 0 -61 -12t-48.5 -33t-32.5 -49.5t-12 -60.5t12 -60t32.5 -49t48.5 -33t61 -12q57 0 98 33q7 -8 13.5 -15.5t12.5 -15.5 q-26 -20 -57 -31.5t-67 -11.5q-41 0 -76.5 15.5t-62 41.5t-42 61.5t-15.5 76.5z" />
<glyph unicode="d" horiz-adv-x="524" d="M53 188q0 40 15 75.5t41.5 62t62.5 42t77 15.5q30 0 56 -8.5t47 -22t36 -30.5t21 -34q-1 11 -2 22.5t-2 22.5v417h41v-750h-37v45v42q-6 -17 -20.5 -34t-35 -30.5t-47 -21.5t-57.5 -8q-41 0 -77 15.5t-62.5 41.5t-41.5 61.5t-15 76.5zM95 188q0 -32 12 -60t32.5 -49 t48.5 -33t61 -12t61.5 12t49.5 33t33 49t12 60t-12 60.5t-33 49.5t-49.5 33t-61.5 12t-61 -12t-48.5 -33t-32.5 -49.5t-12 -60.5z" />
<glyph unicode="e" horiz-adv-x="451" d="M36 188q0 40 15.5 76t42 62t62 41.5t76.5 15.5q30 0 57 -10.5t49.5 -29t39.5 -44t26 -56.5q-78 -31 -155 -61.5t-155 -61.5q17 -38 54 -62t84 -24q31 0 58 11t47 31q7 -8 13 -15.5t13 -15.5q-26 -24 -59 -38t-72 -14q-41 0 -76.5 15.5t-62 41.5t-42 61.5t-15.5 76.5z M80 182q0 -12 2 -23q67 27 134 53.5t135 53.5q-17 34 -49 55.5t-70 21.5q-30 0 -57 -10.5t-47 -29.5t-32.5 -44t-15.5 -54q-1 -8 -1 -16q1 -3 1 -7z" />
<glyph unicode="f" horiz-adv-x="294" d="M22 336v41h65v141q0 55 16 98t44 72t66 44.5t81 17.5v-40q-34 -1 -64.5 -14t-53 -38t-35.5 -60t-13 -79v-142h125v-41h-125v-336h-41v336h-65z" />
<glyph unicode="g" horiz-adv-x="518" d="M49 188q0 40 15.5 75.5t42 62t62.5 42t77 15.5q29 0 55 -8.5t47 -22t35.5 -31t21.5 -34.5q0 22 1.5 44t2.5 44h34v-392v-18q0 -49 -15 -88.5t-41 -67.5t-60.5 -43t-74.5 -16q-42 1 -84.5 16t-69.5 44q8 8 15 15.5t15 15.5q22 -24 56 -36t67 -12q31 0 58.5 12.5t47.5 35.5 t32 55.5t12 71.5v72q1 11 2 23t2 23q-15 -36 -57.5 -64t-101.5 -29q-41 0 -77 15.5t-62.5 41.5t-42 61.5t-15.5 76.5zM91 188q0 -32 12 -60t32.5 -49t49 -33t61.5 -12t61 12t49 33t33 49t12 60t-12 60.5t-33 49.5t-49 33t-61 12t-61.5 -12t-49 -33t-32.5 -49.5t-12 -60.5z " />
<glyph unicode="h" horiz-adv-x="500" d="M103 0v750h42v-427l-3 -45q20 48 63.5 75.5t100.5 29.5q55 0 87 -31t34 -81v-271h-42v260q-2 32 -23.5 56t-63.5 26q-30 0 -58 -10.5t-49 -28.5t-33.5 -43t-12.5 -55v-205h-42z" />
<glyph unicode="i" horiz-adv-x="187" d="M63 508q0 14 10 23.5t23 9.5t23 -9.5t10 -23.5t-10 -23.5t-23 -9.5t-23 9.5t-10 23.5zM75 0v375h41v-375h-41z" />
<glyph unicode="j" horiz-adv-x="225" d="M42 -150q25 25 40 61t15 84v380h41v-379q0 -59 -17.5 -103t-48.5 -73zM86 508q0 14 10 23.5t23 9.5q12 0 22 -9.5t10 -23.5t-10 -23.5t-22 -9.5q-13 0 -23 9.5t-10 23.5z" />
<glyph unicode="k" horiz-adv-x="449" d="M77 0v750h42v-560q54 51 104 97t104 97l12.5 -12.5t12.5 -13.5q-37 -34 -69.5 -65.5t-69.5 -65.5q42 -57 83 -113.5t83 -113.5h-49q-37 50 -74 99.5t-73 99.5q-17 -15 -32.5 -30.5t-31.5 -29.5v-139h-42z" />
<glyph unicode="l" horiz-adv-x="187" d="M75 0v750h41v-750h-41z" />
<glyph unicode="m" horiz-adv-x="796" d="M103 0v375h38v-35v-31t1 -31q20 48 63.5 76t100.5 29q51 0 83 -27.5t37 -72.5q21 45 64 72t98 28q55 0 87 -31t34 -81v-271h-41v260q-2 32 -23.5 56t-63.5 26q-30 0 -58 -10t-49 -28t-33.5 -42.5t-13.5 -53.5v-208h-42v260q-2 32 -23.5 56t-63.5 26q-30 0 -58 -10.5 t-49 -28.5t-33.5 -43t-12.5 -55v-205h-42z" />
<glyph unicode="n" horiz-adv-x="495" d="M103 0v375h38v-35v-31t1 -31q20 47 64 76t100 29q55 0 87 -31t34 -81v-271h-42v260q-2 32 -23.5 56t-63.5 26q-30 0 -58 -10.5t-49 -28.5t-33.5 -43t-12.5 -55v-205h-42z" />
<glyph unicode="o" horiz-adv-x="471" d="M36 188q0 40 15.5 76t42 62.5t62 42t76.5 15.5t77 -15.5t63 -42t42.5 -62.5t15.5 -76q0 -41 -15.5 -76.5t-42.5 -61.5t-63 -41.5t-77 -15.5t-76.5 15.5t-62 41.5t-42 61.5t-15.5 76.5zM78 188q0 -32 12 -60t33 -49t49 -33t60 -12t60 12t49 33t33.5 49t12.5 60t-12.5 60 t-33.5 49t-49 33.5t-60 12.5t-60 -12.5t-49 -33.5t-33 -49t-12 -60z" />
<glyph unicode="p" horiz-adv-x="525" d="M67 -250v625h36q0 -23 0.5 -45t0.5 -45q6 18 21 35t36 31t47.5 22.5t55.5 8.5q41 0 77 -15.5t62.5 -41.5t42 -62t15.5 -76t-15.5 -75.5t-42 -62t-62.5 -42t-77 -15.5q-31 0 -57 8t-46.5 21t-35 30t-20.5 34l2 -20t2 -21v-294h-42zM109 187q0 -32 12 -60.5t32.5 -49.5 t49 -33t61.5 -12t61.5 12t49 33t32.5 49.5t12 60.5q0 33 -12 61t-32.5 48.5t-49 32.5t-61.5 12t-61.5 -12t-49 -32.5t-32.5 -48.5t-12 -61z" />
<glyph unicode="q" horiz-adv-x="512" d="M51 187q0 40 15.5 76t42 62t62.5 41.5t77 15.5q29 0 55.5 -8.5t47.5 -22.5t36 -31t21 -35q1 23 1 45v45h36v-625h-42v294q1 11 2 21t3 20q-7 -17 -21 -34t-35 -30t-47 -21t-57 -8q-41 0 -77 15.5t-62.5 42t-42 62t-15.5 75.5zM93 187q0 -32 12 -60.5t33 -49.5t49 -33 t61 -12t61.5 12t49.5 33t33 49.5t12 60.5q0 33 -12 61t-33 48.5t-49.5 32.5t-61.5 12t-61 -12t-49 -32.5t-33 -48.5t-12 -61z" />
<glyph unicode="r" horiz-adv-x="331" d="M103 0v375h38v-35v-31t1 -31q22 49 66.5 76.5t90.5 28.5l-3 -41q-32 -1 -59.5 -11.5t-47.5 -28.5t-32 -43t-12 -54v-205h-42z" />
<glyph unicode="s" horiz-adv-x="352" d="M57 39q7 8 13 15t14 15q16 -17 42 -26.5t52 -9.5q9 0 22 3.5t25 12t20.5 21.5t8.5 32q0 26 -13 40t-33.5 22.5t-44.5 15t-44.5 17.5t-34.5 29t-14 51q0 26 10 45.5t26 32.5t35 19.5t37 6.5q21 0 51.5 -9.5t51.5 -33.5q-6 -8 -12.5 -15t-11.5 -15q-12 14 -34 23t-44 9 q-12 0 -24 -3.5t-22 -11t-15.5 -19t-5.5 -28.5q1 -22 15 -34.5t34 -21t44 -16t44 -19.5t33.5 -31t13.5 -51q0 -17 -6.5 -36.5t-20.5 -36.5t-37 -28.5t-57 -11.5q-31 0 -64.5 11t-53.5 36z" />
<glyph unicode="t" horiz-adv-x="287" d="M37 333v41h87v245h42v-245h115v-41h-115v-333h-42v333h-87z" />
<glyph unicode="u" horiz-adv-x="529" d="M103 104v271h42v-260q2 -32 23.5 -56t63.5 -26q30 0 58 10.5t49 28.5t33.5 43t12.5 55v205h42v-379h-42v56l3 45q-20 -48 -64.5 -76.5t-99.5 -28.5t-87 31t-34 81z" />
<glyph unicode="v" horiz-adv-x="500" d="M54 375h42q41 -79 84 -160t79 -162q36 81 79 161.5t84 160.5h42q-101 -197 -205 -398q-51 100 -102.5 199t-102.5 199z" />
<glyph unicode="w" horiz-adv-x="772" d="M56 375h42q39 -80 80 -160.5t77 -161.5q26 60 55.5 119t58.5 119q-11 21 -20.5 42t-20.5 42h42q39 -80 80 -160.5t77 -161.5q36 81 77 161.5t80 160.5h42l-99.5 -199l-99.5 -199q-34 69 -68 136t-68 136q-34 -69 -68 -136t-68 -136l-99.5 199z" />
<glyph unicode="x" horiz-adv-x="421" d="M36 0q35 48 70 96.5t70 96.5q-34 46 -67.5 91t-66.5 91h52l117 -159q29 40 57 79t57 79h51q-35 -48 -70 -96.5t-70 -96.5q34 -46 67 -91t67 -90h-52q-29 39 -58.5 79t-58.5 79q-29 -39 -56.5 -79t-56.5 -79h-52z" />
<glyph unicode="y" horiz-adv-x="492" d="M38 375h44q42 -84 86 -168t81 -169q38 85 81.5 169t85.5 168h44q-78 -157 -156 -312.5t-157 -312.5h-44q31 62 62 123.5t62 124.5q-48 94 -94.5 188t-94.5 189z" />
<glyph unicode="z" horiz-adv-x="451" d="M42 0v41q75 75 142 147t142 147h-200q-31 0 -48 12t-17 41v22h42v-12q0 -12 6.5 -17.5t23.5 -5.5h251v-41q-75 -75 -142 -146.5t-142 -146.5h303v-41h-361z" />
<glyph unicode="{" horiz-adv-x="291" d="M30 275v46q24 1 39.5 14.5t24.5 33.5t12 43.5t3 43.5v172q0 46 8 70t22 34.5t31.5 12t37.5 1.5h47v-41h-52q-31 0 -41.5 -23.5t-10.5 -84.5v-142q0 -41 -6 -67.5t-15 -44t-20.5 -27.5t-23.5 -17q12 -7 23.5 -17.5t20.5 -28.5t15 -44.5t6 -66.5v-141q0 -62 10.5 -85.5 t41.5 -23.5h52v-40h-47q-21 0 -39.5 1.5t-31.5 14t-20.5 41t-7.5 82.5v149q0 20 -3 43.5t-12 43.5t-24.5 33.5t-39.5 14.5z" />
<glyph unicode="|" horiz-adv-x="240" d="M96 -232v932h42v-932h-42z" />
<glyph unicode="}" horiz-adv-x="320" d="M65 -108h52q31 0 41.5 23.5t10.5 85.5v164q0 32 6.5 55t16.5 38.5t21.5 25t20.5 15.5q-12 7 -23.5 17t-20.5 27.5t-15 44t-6 67.5v142q0 61 -10.5 84.5t-41.5 23.5h-52v41h47q19 0 37 -1t31.5 -11.5t22 -35t8.5 -70.5v-150q0 -18 1.5 -44.5t9.5 -51t23.5 -42.5t44.5 -19 v-46q-29 -2 -44.5 -19.5t-23.5 -42t-9.5 -51t-1.5 -44.5v-148q0 -47 -8 -71t-22 -34.5t-32 -11.5t-37 -1h-47v40z" />
<glyph unicode="~" horiz-adv-x="489" d="M128 470q1 19 9 33t20 23.5t27 14t29 4.5q21 0 38.5 -9.5t33.5 -26.5t28 -22.5t26 -5.5q7 0 17 2t19 7.5t15.5 15.5t8.5 26q7 -1 13.5 -1t12.5 -1q-1 -19 -9 -33t-20 -23.5t-27 -14t-29 -4.5q-21 0 -38.5 9.5t-34.5 26.5q-15 17 -27 22.5t-26 5.5q-8 0 -17.5 -2 t-18.5 -7.5t-16 -15.5t-9 -26q-6 1 -12.5 1t-12.5 1z" />
<glyph unicode="&#xa0;" />
<glyph unicode="&#xa1;" horiz-adv-x="200" d="M68 485q0 -14 10 -23.5t22 -9.5t22 9.5t10 23.5t-10 23.5t-22 9.5t-22 -9.5t-10 -23.5zM79 -210h42v584h-42v-584z" />
<glyph unicode="&#xa2;" horiz-adv-x="385" d="M36 188q0 36 12.5 69t34.5 58.5t52.5 42.5t65.5 22v58h42v-55q32 -2 61.5 -13t52.5 -30q-7 -8 -13.5 -15.5t-13.5 -15.5q-18 14 -40.5 22.5t-46.5 9.5v-307q49 3 87 33q7 -8 13.5 -15.5t12.5 -15.5q-48 -40 -113 -42v-62h-42v65q-35 5 -65.5 22t-52.5 42.5t-34.5 58 t-12.5 68.5zM78 188q0 -57 34.5 -98t88.5 -51v297q-27 -4 -49.5 -17t-39 -33t-25.5 -45t-9 -53z" />
<glyph unicode="&#xa3;" horiz-adv-x="574" d="M27 0v41h44q17 0 27.5 6t16 20.5t7 39.5t1.5 64v125h-65v41h65v163q0 70 49.5 102t134.5 32q67 0 103.5 -26.5t56.5 -66.5q-8 -5 -15.5 -9.5t-15.5 -9.5q-10 17 -20.5 30t-25 22t-34.5 14t-49 5q-78 0 -110 -26.5t-32 -72.5v-157h124v-41h-124v-141v-24q0 -29 -3.5 -52.5 t-18.5 -37.5h192h25q61 0 84.5 10.5t23.5 41.5v52h42v-59q0 -17 -2.5 -32.5t-14 -27.5t-35 -19t-66.5 -7h-365z" />
<glyph unicode="&#xa4;" horiz-adv-x="500" d="M99 239l35 35q-30 38 -30 87q0 23 7 44.5t20 38.5q-8 8 -16 16.5t-16 16.5l30 29l32 -32q18 14 39.5 22t46.5 8t47 -8.5t39 -22.5l32 33l30 -30l-32 -31q28 -37 28 -84q0 -48 -30 -86l34 -35l-29 -29q-9 8 -17.5 17t-17.5 17q-17 -13 -39 -20t-45 -7t-44.5 7t-38.5 19 l-35 -34zM146 361q0 -21 8 -40t22 -33t32 -22t39 -8t40 8t32.5 22t21.5 33t8 40t-8 39.5t-21.5 32.5t-32.5 22t-40 8t-39 -8t-32 -22t-22 -32.5t-8 -39.5z" />
<glyph unicode="&#xa5;" horiz-adv-x="638" d="M34 700h51q55 -94 110 -185.5t111 -184.5q3 -8 6 -14.5t6 -13.5h1q3 7 5.5 13.5t5.5 14.5q56 93 110.5 184.5t109.5 185.5h51q-60 -100 -118 -198t-118 -198h118v-41h-140v-122h140v-41h-140v-100h-50v100h-143v41h143v122h-143v41h120q-60 100 -118 198t-118 198z" />
<glyph unicode="&#xa6;" horiz-adv-x="215" d="M89 117h42v-350h-42v350zM89 350v350h42v-350h-42z" />
<glyph unicode="&#xa7;" horiz-adv-x="500" d="M135.5 340q-3.5 24 1.5 47.5t18 43.5t33 34q22 14 47 15.5t49 -6.5q-14 23 -27 46t-27 47q-16 28 -23 48.5t-6.5 35.5t6.5 25.5t15 19.5q14 14 35 25.5t38 21.5q5 -9 10.5 -18t10.5 -17l-45 -27q-26 -15 -24.5 -38.5t29.5 -70.5q22 -38 43.5 -75.5t44.5 -75.5 q13 -21 16 -45t-2 -46.5t-18.5 -42t-33.5 -33.5q-22 -14 -47 -16t-49 6q14 -23 27.5 -47t27.5 -47q16 -28 23 -48.5t6.5 -35.5t-6.5 -25.5t-15 -19.5q-13 -15 -34 -26t-38 -21q-5 9 -10.5 18t-10.5 17l45 27q26 14 23.5 39t-32.5 77q-18 29 -31 50.5t-22.5 38t-17 29.5 t-13.5 25q-13 21 -16.5 45zM175.5 368.5q-1.5 -19.5 5.5 -37.5q9 -27 32.5 -42t51.5 -13q18 1 32.5 9t24.5 21t15 28.5t4 32.5q-2 18 -10.5 33t-21 25t-28 15.5t-31.5 4.5q-23 -2 -39 -13t-25 -27.5t-10.5 -36z" />
<glyph unicode="&#xa8;" horiz-adv-x="370" d="M69 508q0 14 10 23.5t23 9.5q12 0 22 -9.5t10 -23.5t-10 -23.5t-22 -9.5q-13 0 -23 9.5t-10 23.5zM234 508q0 14 10 23.5t23 9.5t22.5 -9.5t9.5 -23.5t-9.5 -23.5t-22.5 -9.5t-23 9.5t-10 23.5z" />
<glyph unicode="&#xa9;" horiz-adv-x="793" d="M142 372q0 56 20 103t55 81.5t82 54t101 19.5t101 -19.5t82 -54t55 -81.5t20 -103q0 -55 -20 -102t-55 -81.5t-82 -54t-101 -19.5t-101 19.5t-82 54t-55 81.5t-20 102zM166 371q0 -50 18.5 -92.5t50 -74t74 -49t90.5 -17.5q49 0 92 17.5t74.5 49t50 74t18.5 92.5 q0 51 -18.5 94t-50 74.5t-74.5 49.5t-92 18q-48 0 -90.5 -18t-74 -49.5t-50 -74.5t-18.5 -94zM244 375q0 34 12.5 63.5t34.5 51.5t51.5 34.5t62.5 12.5q45 0 83 -22q-3 -4 -5.5 -8t-4.5 -8q-34 20 -73 20q-29 0 -55 -11.5t-45.5 -31t-30.5 -46t-11 -56.5q0 -29 11 -55 t30.5 -45.5t45 -31t54.5 -11.5q20 0 38 5.5t35 14.5l11 -15q-18 -11 -39 -17t-44 -6q-33 0 -62.5 13t-51.5 35t-34.5 51.5t-12.5 62.5z" />
<glyph unicode="&#xaa;" horiz-adv-x="585" d="M77 357q0 28 11.5 54t30.5 45t45 30t55 11q21 0 40 -6t34 -15.5t25.5 -22.5t15.5 -25q0 16 1 32t2 31h25v-270h-28v32q0 8 0.5 15.5t0.5 15.5q-4 -13 -14.5 -25t-25.5 -22t-34 -15.5t-42 -5.5q-29 0 -55 11t-45 30t-30.5 44.5t-11.5 55.5zM108 357q0 -23 8.5 -43.5 t23.5 -35.5t35.5 -23.5t43.5 -8.5q24 0 44.5 8.5t35.5 23.5t23.5 35.5t8.5 43.5t-8.5 43.5t-23.5 35.5t-35.5 23.5t-44.5 8.5q-23 0 -43.5 -8.5t-35.5 -23.5t-23.5 -35.5t-8.5 -43.5z" />
<glyph unicode="&#xab;" horiz-adv-x="601" d="M117 239q43 41 85.5 80.5t85.5 80.5v-48q-28 -29 -55.5 -56.5t-55.5 -56.5l111 -114v-48zM288 239q43 41 85.5 80.5t85.5 80.5v-48q-28 -28 -55.5 -56t-55.5 -57l111 -114v-48z" />
<glyph unicode="&#xac;" horiz-adv-x="559" d="M100 211v33h360v-96h-42v63h-318z" />
<glyph unicode="&#xad;" d="M53 169v41h184v-41h-184z" />
<glyph unicode="&#xae;" horiz-adv-x="801" d="M142 372q0 56 20 103t55 81.5t82 54t101 19.5t101 -19.5t82 -54t55 -81.5t20 -103q0 -55 -20 -102t-55 -81.5t-82 -54t-101 -19.5t-101 19.5t-82 54t-55 81.5t-20 102zM166 371q0 -50 18.5 -92.5t50 -74t74 -49t90.5 -17.5q49 0 92 17.5t74.5 49t50 74t18.5 92.5 q0 51 -18.5 94t-50 74.5t-74.5 49.5t-92 18q-48 0 -90.5 -18t-74 -49.5t-50 -74.5t-18.5 -94zM329 210v331h71q15 0 32.5 -5t32.5 -15.5t25.5 -27t10.5 -39.5q0 -33 -18 -55.5t-53 -30.5q19 -40 37.5 -79.5t37.5 -78.5h-21q-38 80 -74 157q-5 -1 -8.5 -1h-8.5h-45v-156h-19z M348 385h50q25 0 41 6.5t25.5 17t13.5 22.5t4 23q0 27 -24.5 47.5t-59.5 20.5h-50v-137z" />
<glyph unicode="&#xaf;" horiz-adv-x="399" d="M85 486v30h230v-30h-230z" />
<glyph unicode="&#xb0;" horiz-adv-x="282" d="M51 559q0 37 25 62t62 25q36 0 61 -25t25 -62q0 -36 -25 -60.5t-61 -24.5q-37 0 -62 24.5t-25 60.5zM81 560q0 -24 16.5 -40.5t40.5 -16.5q23 0 40 16.5t17 40.5q0 23 -17 39.5t-40 16.5q-24 0 -40.5 -16.5t-16.5 -39.5z" />
<glyph unicode="&#xb1;" horiz-adv-x="524" d="M86 122v40h360v-40h-360zM86 371v41h159v159h42v-159h159v-41h-159v-160h-42v160h-159z" />
<glyph unicode="&#xb2;" horiz-adv-x="398" d="M62 414q0 19 6 36.5t18 31t29.5 21t40.5 7.5q20 0 37.5 -7.5t29.5 -21t18.5 -31.5t6.5 -39q0 -26 -12 -52.5t-31.5 -52.5t-43 -51t-46.5 -50h154v-20h-205q31 31 60.5 60t52.5 57t36.5 54t13.5 49q0 24 -7 40.5t-17.5 26t-23 14t-23.5 4.5q-23 0 -37 -8t-22 -19.5 t-11 -24.5t-3 -24q0 -18 4.5 -31t14.5 -24q-3 -3 -6.5 -6t-6.5 -6q-12 11 -19.5 29t-7.5 38z" />
<glyph unicode="&#xb3;" horiz-adv-x="419" d="M63 217l15 15q11 -13 26.5 -21t33.5 -8q17 0 32.5 7t26.5 18t18 26t7 32t-7 32t-18 26t-26.5 17.5t-32.5 6.5q-8 0 -16 -2.5t-15 -7.5q23 32 45 64t45 65h-122v20h159l-87 -121q20 -2 37.5 -10t30.5 -21t20 -30.5t7 -38.5t-8 -40t-22 -33t-33 -22t-40 -8q-23 0 -42.5 9 t-33.5 25z" />
<glyph unicode="&#xb4;" horiz-adv-x="240" d="M100 479q23 33 45 66.5t45 66.5h43q-25 -33 -50 -66.5t-50 -66.5h-33z" />
<glyph unicode="&#xb5;" horiz-adv-x="545" d="M103 -201v576h42v-260q2 -32 23.5 -56t63.5 -26q30 0 58 10.5t49 28.5t33.5 43t12.5 55v205h42v-379h-42v56l3 45q-20 -48 -63.5 -76t-100.5 -29q-26 0 -46.5 9.5t-32.5 26.5v-229h-42z" />
<glyph unicode="&#xb6;" horiz-adv-x="512" d="M38 586q0 34 12.5 64t34.5 52t52 35t64 13h205v-750h-42v709h-121v-709h-42v423q-34 0 -64 12.5t-52 34.5t-34.5 52t-12.5 64z" />
<glyph unicode="&#xb7;" horiz-adv-x="165" d="M53 281q0 14 10 23.5t23 9.5q12 0 22 -9.5t10 -23.5t-10 -23.5t-22 -9.5q-13 0 -23 9.5t-10 23.5z" />
<glyph unicode="&#xb8;" horiz-adv-x="452" d="M117 -169l14 6l14 6q5 -19 21 -31.5t39 -12.5q28 0 45 19t17 47q0 25 -12 38.5t-27 23.5t-27 20.5t-12 29.5v23h29v-6q0 -14 4 -22.5t10.5 -14.5t14 -10t13.5 -8q22 -15 31 -34.5t9 -37.5q0 -48 -25.5 -74.5t-66.5 -26.5q-29 0 -54.5 16t-36.5 49z" />
<glyph unicode="&#xb9;" horiz-adv-x="259" d="M38 464v19h62v-299h-19v280h-43z" />
<glyph unicode="&#xba;" horiz-adv-x="469" d="M73 357q0 28 11 54t30.5 45.5t45 30.5t54.5 11q30 0 56 -11t45.5 -30.5t30.5 -45.5t11 -54q0 -30 -11 -55.5t-30.5 -44.5t-45.5 -30t-56 -11q-29 0 -54.5 11t-45 30t-30.5 44.5t-11 55.5zM103 357q0 -23 9 -43.5t24 -35.5t35 -23.5t43 -8.5t43.5 8.5t35.5 23.5t24 35.5 t9 43.5t-9 43t-24 35t-35.5 24t-43.5 9t-43 -9t-35 -24t-24 -35t-9 -43z" />
<glyph unicode="&#xbb;" horiz-adv-x="601" d="M117 77l171 162q-43 41 -85.5 80.5t-85.5 80.5v-48q28 -28 55.5 -56t55.5 -57l-111 -114v-48zM288 77l171 162q-43 41 -85.5 80.5t-85.5 80.5v-48q28 -29 55.5 -56.5t55.5 -56.5l-111 -114v-48z" />
<glyph unicode="&#xbc;" horiz-adv-x="968" d="M100 598v29h97v-461h-30v432h-67zM279 -19q70 190 139 377.5t139 376.5h42q-70 -189 -139 -376.5t-139 -377.5h-42zM379 136q69 89 136.5 177t135.5 177v-323h72v-31h-72v-136h-31v136h-241zM443 167h177v231q-44 -58 -88.5 -115.5t-88.5 -115.5z" />
<glyph unicode="&#xbd;" horiz-adv-x="1069" d="M93 598v29h97v-461h-29v432h-68zM279 -19q70 190 139 377.5t139 376.5h42q-70 -189 -139 -376.5t-139 -377.5h-42zM413 328q0 28 9 53t26 44t42 30t57 11q30 0 54.5 -11t42 -30t27 -45t9.5 -56q0 -38 -17.5 -76t-45 -74.5t-61.5 -73t-67 -71.5h221v-29h-294q45 44 87 86 t74.5 82t52.5 77t20 71t-10.5 57t-25.5 37.5t-33 20.5t-34 6q-31 0 -51.5 -11.5t-32 -27.5t-16 -35.5t-4.5 -34.5q0 -25 7 -44t20 -34l-8.5 -8.5t-8.5 -9.5q-19 16 -29.5 42t-10.5 54z" />
<glyph unicode="&#xbe;" horiz-adv-x="1276" d="M127 205l24 24q17 -20 41 -32.5t52 -12.5q27 0 51 10.5t42 28.5t28 41.5t10 49.5q0 27 -10 50.5t-28 41t-42 27.5t-51 10q-13 0 -25.5 -4t-22.5 -12q35 51 70 101.5t71 101.5h-192v31h250l-137 -190q31 -2 58.5 -15t48 -33.5t32 -48t11.5 -60.5t-13 -62.5t-35 -51.5 t-51.5 -34.5t-62.5 -12.5q-36 0 -66.5 14t-52.5 38zM454 -19q70 190 139 377.5t139 377.5h42q-70 -190 -139 -377.5t-139 -377.5h-42zM528 136q68 89 135.5 177t136.5 177v-323h72v-31h-72v-136h-31v136h-241zM591 167h178v231q-45 -58 -89.5 -115.5t-88.5 -115.5z" />
<glyph unicode="&#xbf;" horiz-adv-x="427" d="M35 2q0 54 26.5 95.5t71.5 73.5q17 13 33.5 23t29.5 22.5t21 31.5t8 49v78h42v-97q0 -31 -11 -50.5t-28.5 -34.5t-40 -28.5t-46.5 -33.5q-33 -27 -48.5 -59.5t-15.5 -69.5q0 -33 11.5 -61t32.5 -49t49 -32.5t61 -11.5q58 0 97.5 30t56.5 83q9 -4 18.5 -7t18.5 -6 q-9 -26 -25 -51t-39.5 -45t-55 -32.5t-71.5 -12.5q-41 0 -77 15.5t-62.5 42t-41.5 62t-15 75.5zM214 491q0 14 10 23.5t22 9.5t22.5 -9.5t10.5 -23.5t-10.5 -23.5t-22.5 -9.5t-22 9.5t-10 23.5z" />
<glyph unicode="&#xc0;" horiz-adv-x="740" d="M60 0q78 184 155 366t155 366q78 -184 155 -366t155 -366h-42q-32 75 -63.5 150t-63.5 150h-281q-32 -75 -63.5 -150t-63.5 -150h-43zM247 340h247q-29 69 -57.5 136t-57.5 135q-2 7 -4.5 14t-4.5 14q-26 -76 -58.5 -150t-64.5 -149zM255 883h43q23 -33 45 -66.5 t45 -66.5h-33q-25 33 -50 66.5t-50 66.5z" />
<glyph unicode="&#xc1;" horiz-adv-x="740" d="M60 0q78 184 155 366t155 366q78 -184 155 -366t155 -366h-42q-32 75 -63.5 150t-63.5 150h-281q-32 -75 -63.5 -150t-63.5 -150h-43zM247 340h247q-29 69 -57.5 136t-57.5 135q-2 7 -4.5 14t-4.5 14q-26 -76 -58.5 -150t-64.5 -149zM350 750q23 33 45 66.5t45 66.5h43 q-25 -33 -50 -66.5t-50 -66.5h-33z" />
<glyph unicode="&#xc2;" horiz-adv-x="740" d="M60 0q78 184 155 366t155 366q78 -184 155 -366t155 -366h-42q-32 75 -63.5 150t-63.5 150h-281q-32 -75 -63.5 -150t-63.5 -150h-43zM247 340h247q-29 69 -57.5 136t-57.5 135q-2 7 -4.5 14t-4.5 14q-26 -76 -58.5 -150t-64.5 -149zM251 750q30 45 60 90.5t60 90.5 q30 -45 60 -90.5t60 -90.5h-33q-22 30 -43.5 60.5t-43.5 60.5q-22 -30 -43.5 -60.5t-43.5 -60.5h-33z" />
<glyph unicode="&#xc3;" horiz-adv-x="740" d="M60 0q78 184 155 366t155 366q78 -184 155 -366t155 -366h-42q-32 75 -63.5 150t-63.5 150h-281q-32 -75 -63.5 -150t-63.5 -150h-43zM219 764q1 19 9 33t20 23.5t27 14t29 4.5q21 0 38.5 -9.5t33.5 -26.5t28 -22.5t26 -5.5q7 0 17 2t19 7.5t15.5 15.5t8.5 26 q7 -1 13.5 -1t12.5 -1q-1 -19 -9 -33t-20 -23.5t-27 -14t-29 -4.5q-21 0 -38.5 9.5t-34.5 26.5q-15 17 -27 22.5t-26 5.5q-8 0 -17.5 -2t-18.5 -7.5t-16 -15.5t-9 -26q-6 1 -12.5 1t-12.5 1zM247 340h247q-29 69 -57.5 136t-57.5 135q-2 7 -4.5 14t-4.5 14 q-26 -76 -58.5 -150t-64.5 -149z" />
<glyph unicode="&#xc4;" horiz-adv-x="740" d="M60 0q78 184 155 366t155 366q78 -184 155 -366t155 -366h-42q-32 75 -63.5 150t-63.5 150h-281q-32 -75 -63.5 -150t-63.5 -150h-43zM247 340h247q-29 69 -57.5 136t-57.5 135q-2 7 -4.5 14t-4.5 14q-26 -76 -58.5 -150t-64.5 -149zM256 798q0 14 10 23.5t23 9.5 q12 0 22 -9.5t10 -23.5t-10 -23.5t-22 -9.5q-13 0 -23 9.5t-10 23.5zM421 798q0 14 10 23.5t23 9.5t22.5 -9.5t9.5 -23.5t-9.5 -23.5t-22.5 -9.5t-23 9.5t-10 23.5z" />
<glyph unicode="&#xc5;" horiz-adv-x="740" d="M60 0q78 184 155 366t155 366q78 -184 155 -366t155 -366h-42q-32 75 -63.5 150t-63.5 150h-281q-32 -75 -63.5 -150t-63.5 -150h-43zM247 340h247q-29 69 -57.5 136t-57.5 135q-2 7 -4.5 14t-4.5 14q-26 -76 -58.5 -150t-64.5 -149zM298 836q0 30 21.5 51t51.5 21 t51.5 -21t21.5 -51q0 -31 -21.5 -52t-51.5 -21t-51.5 21t-21.5 52zM329 835q0 -17 12.5 -29.5t29.5 -12.5t30 12.5t13 29.5t-13 30t-30 13t-29.5 -13t-12.5 -30z" />
<glyph unicode="&#xc6;" horiz-adv-x="792" d="M60 0q75 176 148 350t148 350h334v-40h-287v-287h248v-40h-248v-293h301v-40h-342v295h-135q-31 -74 -62 -147.5t-63 -147.5h-42zM244 335h118v284q-26 -72 -57 -142.5t-61 -141.5z" />
<glyph unicode="&#xc7;" horiz-adv-x="670" d="M62 349q0 74 28 139.5t76.5 114t113.5 77t139 28.5q51 0 96.5 -13t86.5 -37q-6 -8 -11.5 -17t-11.5 -17q-35 21 -75.5 32.5t-84.5 11.5q-65 0 -122.5 -25.5t-100.5 -69t-67.5 -101.5t-24.5 -124q0 -65 24.5 -122.5t67.5 -100.5t99.5 -68t121.5 -25q45 0 85 11.5t76 32.5 l23 -34q-39 -23 -83.5 -36t-92.5 -14q0 -26 14 -35.5t27 -17.5q22 -15 31 -34.5t9 -37.5q0 -48 -25.5 -74.5t-66.5 -26.5q-29 0 -54 16t-36 49l27 12q6 -19 21.5 -31.5t38.5 -12.5q29 0 45.5 19t16.5 47q0 25 -12 38.5t-26.5 23.5t-26.5 20.5t-12 29.5v16q-70 4 -131 33.5 t-106 77.5t-71 111t-26 134z" />
<glyph unicode="&#xc8;" horiz-adv-x="601" d="M85 0v700h415v-40h-374v-287h335v-40h-335v-293h388v-40h-429zM177 883h43q23 -33 45 -66.5t45 -66.5h-33q-25 33 -50 66.5t-50 66.5z" />
<glyph unicode="&#xc9;" horiz-adv-x="601" d="M85 0v700h415v-40h-374v-287h335v-40h-335v-293h388v-40h-429zM271 750q23 33 45 66.5t45 66.5h43q-25 -33 -50 -66.5t-50 -66.5h-33z" />
<glyph unicode="&#xca;" horiz-adv-x="601" d="M85 0v700h415v-40h-374v-287h335v-40h-335v-293h388v-40h-429zM180 750q30 45 60 90.5t60 90.5q30 -45 60 -90.5t60 -90.5h-33q-22 30 -43.5 60.5t-43.5 60.5q-22 -30 -43.5 -60.5t-43.5 -60.5h-33z" />
<glyph unicode="&#xcb;" horiz-adv-x="601" d="M85 0v700h415v-40h-374v-287h335v-40h-335v-293h388v-40h-429zM179 798q0 14 10 23.5t23 9.5q12 0 22 -9.5t10 -23.5t-10 -23.5t-22 -9.5q-13 0 -23 9.5t-10 23.5zM344 798q0 14 10 23.5t23 9.5t22.5 -9.5t9.5 -23.5t-9.5 -23.5t-22.5 -9.5t-23 9.5t-10 23.5z" />
<glyph unicode="&#xcc;" horiz-adv-x="236" d="M7 883h43q23 -33 45 -66.5t45 -66.5h-33q-25 33 -50 66.5t-50 66.5zM104 0v700h41v-700h-41z" />
<glyph unicode="&#xcd;" horiz-adv-x="236" d="M104 0v700h41v-700h-41zM106 750q23 33 45 66.5t45 66.5h43q-25 -33 -50 -66.5t-50 -66.5h-33z" />
<glyph unicode="&#xce;" horiz-adv-x="256" d="M5 750q30 45 60 90.5t60 90.5q30 -45 60 -90.5t60 -90.5h-33q-22 30 -43.5 60.5t-43.5 60.5q-22 -30 -43.5 -60.5t-43.5 -60.5h-33zM104 0v700h41v-700h-41z" />
<glyph unicode="&#xcf;" horiz-adv-x="236" d="M9 798q0 14 10 23.5t23 9.5q12 0 22 -9.5t10 -23.5t-10 -23.5t-22 -9.5q-13 0 -23 9.5t-10 23.5zM104 0v700h41v-700h-41zM174 798q0 14 10 23.5t23 9.5t22.5 -9.5t9.5 -23.5t-9.5 -23.5t-22.5 -9.5t-23 9.5t-10 23.5z" />
<glyph unicode="&#xd0;" horiz-adv-x="646" d="M22 331v41h54v328h143q75 0 141.5 -24.5t116.5 -70t79.5 -110.5t29.5 -145q0 -59 -21.5 -121t-69.5 -113t-125 -83.5t-187 -32.5h-107v331h-54zM117 40h90q72 0 134 22t107 62.5t71 97.5t26 128q0 72 -25 129t-70 97.5t-107 62t-136 21.5h-90v-288h207v-41h-207v-291z " />
<glyph unicode="&#xd1;" horiz-adv-x="813" d="M100 0v732q140 -163 277 -322.5t276 -321.5q5 -7 9.5 -13t9.5 -13q-1 8 -1.5 16t-1.5 16v606h42v-732q-140 161 -277 319.5t-276 319.5q-5 7 -9.5 13t-9.5 13q1 -8 1.5 -16t1.5 -16v-601h-42zM263 763q1 19 9 33t20 23.5t27 14t29 4.5q21 0 38.5 -9.5t33.5 -26.5 t28 -22.5t26 -5.5q7 0 17 2t19 7.5t15.5 15.5t8.5 26q7 -1 13.5 -1t12.5 -1q-1 -19 -9 -33t-20 -23.5t-27 -14t-29 -4.5q-21 0 -38.5 9.5t-34.5 26.5q-15 17 -27 22.5t-26 5.5q-8 0 -17.5 -2t-18.5 -7.5t-16 -15.5t-9 -26q-6 1 -12.5 1t-12.5 1z" />
<glyph unicode="&#xd2;" horiz-adv-x="839" d="M62 349q0 74 28 139.5t76.5 114t113.5 77t139 28.5t139.5 -28.5t114 -77t77 -114t28.5 -139.5t-28.5 -139t-77 -113.5t-114 -76.5t-139.5 -28t-139 28t-113.5 76.5t-76.5 113.5t-28 139zM104 348q0 -66 24.5 -123.5t67.5 -100t100 -67.5t122 -25t123 25t101.5 68 t68.5 100.5t25 123.5t-25 124t-68 101.5t-101 68.5t-123 25t-122.5 -25.5t-100.5 -69t-67.5 -101.5t-24.5 -124zM301 883h43q23 -33 45 -66.5t45 -66.5h-33q-25 33 -50 66.5t-50 66.5z" />
<glyph unicode="&#xd3;" horiz-adv-x="840" d="M62 349q0 74 28 139.5t76.5 114t113.5 77t139 28.5t139.5 -28.5t114 -77t77 -114t28.5 -139.5t-28.5 -139t-77 -113.5t-114 -76.5t-139.5 -28t-139 28t-113.5 76.5t-76.5 113.5t-28 139zM104 348q0 -66 24.5 -123.5t67.5 -100t100 -67.5t122 -25t123 25t101.5 68 t68.5 100.5t25 123.5t-25 124t-68 101.5t-101 68.5t-123 25t-122.5 -25.5t-100.5 -69t-67.5 -101.5t-24.5 -124zM400 750q23 33 45 66.5t45 66.5h43q-25 -33 -50 -66.5t-50 -66.5h-33z" />
<glyph unicode="&#xd4;" horiz-adv-x="839" d="M62 349q0 74 28 139.5t76.5 114t113.5 77t139 28.5t139.5 -28.5t114 -77t77 -114t28.5 -139.5t-28.5 -139t-77 -113.5t-114 -76.5t-139.5 -28t-139 28t-113.5 76.5t-76.5 113.5t-28 139zM104 348q0 -66 24.5 -123.5t67.5 -100t100 -67.5t122 -25t123 25t101.5 68 t68.5 100.5t25 123.5t-25 124t-68 101.5t-101 68.5t-123 25t-122.5 -25.5t-100.5 -69t-67.5 -101.5t-24.5 -124zM296 750q30 45 60 90.5t60 90.5q30 -45 60 -90.5t60 -90.5h-33q-22 30 -43.5 60.5t-43.5 60.5q-22 -30 -43.5 -60.5t-43.5 -60.5h-33z" />
<glyph unicode="&#xd5;" horiz-adv-x="839" d="M62 349q0 74 28 139.5t76.5 114t113.5 77t139 28.5t139.5 -28.5t114 -77t77 -114t28.5 -139.5t-28.5 -139t-77 -113.5t-114 -76.5t-139.5 -28t-139 28t-113.5 76.5t-76.5 113.5t-28 139zM104 348q0 -66 24.5 -123.5t67.5 -100t100 -67.5t122 -25t123 25t101.5 68 t68.5 100.5t25 123.5t-25 124t-68 101.5t-101 68.5t-123 25t-122.5 -25.5t-100.5 -69t-67.5 -101.5t-24.5 -124zM269 797q1 19 9 33t20 23.5t27 14t29 4.5q21 0 38.5 -9.5t33.5 -26.5t28 -22.5t26 -5.5q7 0 17 2t19 7.5t15.5 15.5t8.5 26q7 -1 13.5 -1t12.5 -1 q-1 -19 -9 -33t-20 -23.5t-27 -14t-29 -4.5q-21 0 -38.5 9.5t-34.5 26.5q-15 17 -27 22.5t-26 5.5q-8 0 -17.5 -2t-18.5 -7.5t-16 -15.5t-9 -26q-6 1 -12.5 1t-12.5 1z" />
<glyph unicode="&#xd6;" horiz-adv-x="839" d="M62 349q0 74 28 139.5t76.5 114t113.5 77t139 28.5t139.5 -28.5t114 -77t77 -114t28.5 -139.5t-28.5 -139t-77 -113.5t-114 -76.5t-139.5 -28t-139 28t-113.5 76.5t-76.5 113.5t-28 139zM104 348q0 -66 24.5 -123.5t67.5 -100t100 -67.5t122 -25t123 25t101.5 68 t68.5 100.5t25 123.5t-25 124t-68 101.5t-101 68.5t-123 25t-122.5 -25.5t-100.5 -69t-67.5 -101.5t-24.5 -124zM304 798q0 14 10 23.5t23 9.5q12 0 22 -9.5t10 -23.5t-10 -23.5t-22 -9.5q-13 0 -23 9.5t-10 23.5zM469 798q0 14 10 23.5t23 9.5t22.5 -9.5t9.5 -23.5 t-9.5 -23.5t-22.5 -9.5t-23 9.5t-10 23.5z" />
<glyph unicode="&#xd7;" horiz-adv-x="500" d="M122 29l56.5 56.5t55.5 56.5l-112 112l30 30l112 -112q29 29 56.5 56t56.5 56q7 -7 14 -14.5t15 -14.5q-29 -28 -56.5 -56t-56.5 -56q29 -29 56.5 -57t56.5 -56l-29 -30q-29 29 -57 56.5t-57 56.5q-28 -28 -55.5 -56t-56.5 -57q-7 8 -14.5 15t-14.5 14z" />
<glyph unicode="&#xd8;" horiz-adv-x="840" d="M62 349q0 74 28 139.5t76.5 114t113.5 77t139 28.5q60 0 114 -18.5t99 -52.5l63 75l14 -12t14 -13q-16 -19 -31 -37t-31 -37q54 -49 85.5 -117.5t31.5 -146.5q0 -74 -28.5 -139t-77 -113.5t-114 -76.5t-139.5 -28q-63 0 -118.5 20t-100.5 55q-17 -20 -33.5 -39.5 t-33.5 -39.5q-7 7 -14 13t-14 13l66 78q-51 49 -80 115t-29 142zM104 348q0 -66 24.5 -124t68.5 -101q103 122 204 242t204 241q-40 29 -87 45.5t-99 16.5q-65 0 -122.5 -25.5t-100.5 -69t-67.5 -101.5t-24.5 -124zM226 98q40 -32 88.5 -49t102.5 -17q66 0 124 25t101.5 68 t68.5 100.5t25 123.5q0 69 -27.5 128.5t-75.5 103.5q-103 -121 -203.5 -241.5t-203.5 -241.5z" />
<glyph unicode="&#xd9;" horiz-adv-x="652" d="M93 226v474h41v-471q0 -48 14.5 -84.5t40 -61.5t61.5 -38t78 -13t77.5 13t62 38t41 61.5t14.5 84.5v471h42v-474q0 -57 -18 -101t-50 -73.5t-75.5 -44.5t-93.5 -15q-51 0 -94 15t-74.5 44.5t-49 73.5t-17.5 101zM214 883h43q23 -33 45 -66.5t45 -66.5h-33 q-25 33 -50 66.5t-50 66.5z" />
<glyph unicode="&#xda;" horiz-adv-x="652" d="M93 226v474h41v-471q0 -48 14.5 -84.5t40 -61.5t61.5 -38t78 -13t77.5 13t62 38t41 61.5t14.5 84.5v471h42v-474q0 -57 -18 -101t-50 -73.5t-75.5 -44.5t-93.5 -15q-51 0 -94 15t-74.5 44.5t-49 73.5t-17.5 101zM300 750q23 33 45 66.5t45 66.5h43q-25 -33 -50 -66.5 t-50 -66.5h-33z" />
<glyph unicode="&#xdb;" horiz-adv-x="652" d="M93 226v474h41v-471q0 -48 14.5 -84.5t40 -61.5t61.5 -38t78 -13t77.5 13t62 38t41 61.5t14.5 84.5v471h42v-474q0 -57 -18 -101t-50 -73.5t-75.5 -44.5t-93.5 -15q-51 0 -94 15t-74.5 44.5t-49 73.5t-17.5 101zM206 780q30 45 60 90.5t60 90.5q30 -45 60 -90.5t60 -90.5 h-33q-22 30 -43.5 60.5t-43.5 60.5q-22 -30 -43.5 -60.5t-43.5 -60.5h-33z" />
<glyph unicode="&#xdc;" horiz-adv-x="652" d="M93 226v474h41v-471q0 -48 14.5 -84.5t40 -61.5t61.5 -38t78 -13t77.5 13t62 38t41 61.5t14.5 84.5v471h42v-474q0 -57 -18 -101t-50 -73.5t-75.5 -44.5t-93.5 -15q-51 0 -94 15t-74.5 44.5t-49 73.5t-17.5 101zM215 798q0 14 10 23.5t23 9.5q12 0 22 -9.5t10 -23.5 t-10 -23.5t-22 -9.5q-13 0 -23 9.5t-10 23.5zM380 798q0 14 10 23.5t23 9.5t22.5 -9.5t9.5 -23.5t-9.5 -23.5t-22.5 -9.5t-23 9.5t-10 23.5z" />
<glyph unicode="&#xdd;" horiz-adv-x="638" d="M34 700h51q55 -94 111 -185t110 -185q3 -8 6 -14.5t6 -13.5h1q3 7 5.5 13.5t5.5 14.5q56 93 110.5 184.5t109.5 185.5h51l-258 -435v-265h-50v265q-65 109 -129.5 217.5t-129.5 217.5zM294 750q23 33 45 66.5t45 66.5h43q-25 -33 -50 -66.5t-50 -66.5h-33z" />
<glyph unicode="&#xde;" horiz-adv-x="501" d="M100 0v700h42v-165h108q31 0 68.5 -10t70 -32t54.5 -57t22 -84q0 -86 -55 -137t-158 -51h-110v-164h-42zM142 205h103q52 0 86.5 14t55 36t28.5 47.5t8 49.5q0 28 -13.5 54t-37 46t-56 31.5t-70.5 11.5h-104v-290z" />
<glyph unicode="&#xdf;" horiz-adv-x="573" d="M22 356v40h65v29q0 55 15.5 98t42.5 72.5t62.5 45.5t74.5 17q31 -1 58 -13t47 -32.5t31.5 -47.5t11.5 -58q0 -38 -20.5 -69.5t-52.5 -48.5q29 -10 54 -28.5t43 -43t28 -54.5t10 -63q0 -43 -17 -81t-45.5 -66t-67 -44.5t-81.5 -16.5q-53 0 -98 25q5 9 9 18l8 18 q36 -21 80 -21q35 0 66 13.5t54 36.5t36.5 53.5t13.5 64.5t-13.5 64t-36.5 52.5t-53.5 35.5t-65.5 13v21v21q45 0 76 27t31 71q0 22 -8 42.5t-22 36t-33.5 24.5t-42.5 9q-32 -1 -60 -14.5t-49 -38t-33 -60t-12 -79.5v-425h-41v356h-65z" />
<glyph unicode="&#xe0;" horiz-adv-x="551" d="M49 188q0 40 15.5 75.5t42 62t62.5 42t77 15.5q29 0 55 -8.5t47 -22t35.5 -31t21.5 -34.5q0 22 1.5 44t2.5 44h34v-375h-38v45q0 11 0.5 21t0.5 21q-6 -17 -20.5 -34t-35 -30.5t-47 -21.5t-57.5 -8q-41 0 -77 15.5t-62.5 41.5t-42 61.5t-15.5 76.5zM91 188q0 -32 12 -60 t32.5 -49t49 -33t61.5 -12t61 12t49 33t33 49t12 60t-12 60.5t-33 49.5t-49 33t-61 12t-61.5 -12t-49 -33t-32.5 -49.5t-12 -60.5zM134 612h43q23 -33 45 -66.5t45 -66.5h-33q-25 33 -50 66.5t-50 66.5z" />
<glyph unicode="&#xe1;" horiz-adv-x="551" d="M49 188q0 40 15.5 75.5t42 62t62.5 42t77 15.5q29 0 55 -8.5t47 -22t35.5 -31t21.5 -34.5q0 22 1.5 44t2.5 44h34v-375h-38v45q0 11 0.5 21t0.5 21q-6 -17 -20.5 -34t-35 -30.5t-47 -21.5t-57.5 -8q-41 0 -77 15.5t-62.5 41.5t-42 61.5t-15.5 76.5zM91 188q0 -32 12 -60 t32.5 -49t49 -33t61.5 -12t61 12t49 33t33 49t12 60t-12 60.5t-33 49.5t-49 33t-61 12t-61.5 -12t-49 -33t-32.5 -49.5t-12 -60.5zM232 479q23 33 45 66.5t45 66.5h43q-25 -33 -50 -66.5t-50 -66.5h-33z" />
<glyph unicode="&#xe2;" horiz-adv-x="551" d="M49 188q0 40 15.5 75.5t42 62t62.5 42t77 15.5q29 0 55 -8.5t47 -22t35.5 -31t21.5 -34.5q0 22 1.5 44t2.5 44h34v-375h-38v45q0 11 0.5 21t0.5 21q-6 -17 -20.5 -34t-35 -30.5t-47 -21.5t-57.5 -8q-41 0 -77 15.5t-62.5 41.5t-42 61.5t-15.5 76.5zM91 188q0 -32 12 -60 t32.5 -49t49 -33t61.5 -12t61 12t49 33t33 49t12 60t-12 60.5t-33 49.5t-49 33t-61 12t-61.5 -12t-49 -33t-32.5 -49.5t-12 -60.5zM141 479q30 45 60 90.5t60 90.5q30 -45 60 -90.5t60 -90.5h-33q-22 30 -43.5 60.5t-43.5 60.5q-22 -30 -43.5 -60.5t-43.5 -60.5h-33z" />
<glyph unicode="&#xe3;" horiz-adv-x="551" d="M49 188q0 40 15.5 75.5t42 62t62.5 42t77 15.5q29 0 55 -8.5t47 -22t35.5 -31t21.5 -34.5q0 22 1.5 44t2.5 44h34v-375h-38v45q0 11 0.5 21t0.5 21q-6 -17 -20.5 -34t-35 -30.5t-47 -21.5t-57.5 -8q-41 0 -77 15.5t-62.5 41.5t-42 61.5t-15.5 76.5zM91 188q0 -32 12 -60 t32.5 -49t49 -33t61.5 -12t61 12t49 33t33 49t12 60t-12 60.5t-33 49.5t-49 33t-61 12t-61.5 -12t-49 -33t-32.5 -49.5t-12 -60.5zM123 470q1 19 9 33t20 23.5t27 14t29 4.5q21 0 38.5 -9.5t33.5 -26.5t28 -22.5t26 -5.5q7 0 17 2t19 7.5t15.5 15.5t8.5 26q7 -1 13.5 -1 t12.5 -1q-1 -19 -9 -33t-20 -23.5t-27 -14t-29 -4.5q-21 0 -38.5 9.5t-34.5 26.5q-15 17 -27 22.5t-26 5.5q-8 0 -17.5 -2t-18.5 -7.5t-16 -15.5t-9 -26q-6 1 -12.5 1t-12.5 1z" />
<glyph unicode="&#xe4;" horiz-adv-x="551" d="M49 188q0 40 15.5 75.5t42 62t62.5 42t77 15.5q29 0 55 -8.5t47 -22t35.5 -31t21.5 -34.5q0 22 1.5 44t2.5 44h34v-375h-38v45q0 11 0.5 21t0.5 21q-6 -17 -20.5 -34t-35 -30.5t-47 -21.5t-57.5 -8q-41 0 -77 15.5t-62.5 41.5t-42 61.5t-15.5 76.5zM91 188q0 -32 12 -60 t32.5 -49t49 -33t61.5 -12t61 12t49 33t33 49t12 60t-12 60.5t-33 49.5t-49 33t-61 12t-61.5 -12t-49 -33t-32.5 -49.5t-12 -60.5zM148 508q0 14 10 23.5t23 9.5q12 0 22 -9.5t10 -23.5t-10 -23.5t-22 -9.5q-13 0 -23 9.5t-10 23.5zM313 508q0 14 10 23.5t23 9.5t22.5 -9.5 t9.5 -23.5t-9.5 -23.5t-22.5 -9.5t-23 9.5t-10 23.5z" />
<glyph unicode="&#xe5;" horiz-adv-x="551" d="M49 188q0 40 15.5 75.5t42 62t62.5 42t77 15.5q29 0 55 -8.5t47 -22t35.5 -31t21.5 -34.5q0 22 1.5 44t2.5 44h34v-375h-38v45q0 11 0.5 21t0.5 21q-6 -17 -20.5 -34t-35 -30.5t-47 -21.5t-57.5 -8q-41 0 -77 15.5t-62.5 41.5t-42 61.5t-15.5 76.5zM91 188q0 -32 12 -60 t32.5 -49t49 -33t61.5 -12t61 12t49 33t33 49t12 60t-12 60.5t-33 49.5t-49 33t-61 12t-61.5 -12t-49 -33t-32.5 -49.5t-12 -60.5zM177 540q0 30 21.5 51.5t51.5 21.5t51.5 -21.5t21.5 -51.5t-21.5 -51.5t-51.5 -21.5t-51.5 21.5t-21.5 51.5zM208 540q0 -17 12.5 -30 t29.5 -13t30 13t13 30t-13 29.5t-30 12.5t-29.5 -12.5t-12.5 -29.5z" />
<glyph unicode="&#xe6;" horiz-adv-x="629" d="M47 104q0 28 12.5 47.5t33 31.5t47 17t55.5 5h123v40q0 25 -4 43.5t-16 30.5t-34.5 18t-59.5 6q-14 0 -29 -3t-30 -7.5t-27.5 -10t-20.5 -11.5q-6 7 -12.5 14t-12.5 14q10 9 25.5 17.5t33.5 14.5t37.5 9.5t36.5 3.5q73 0 108 -19q40 19 85 19q30 0 57 -10.5t49.5 -29.5 t39.5 -44.5t26 -56.5q-53 -20 -105 -41t-105 -41v-16v-15q0 -29 -6 -48.5t-21 -34.5q29 -13 65 -13q31 0 58 11t47 31q6 -8 12.5 -15t13.5 -15q-26 -25 -59.5 -39t-71.5 -14q-50 0 -90 21q-35 -22 -103 -22q-36 0 -65 5.5t-49.5 18t-32 34t-11.5 54.5zM89 103 q0 -22 11 -35.5t28.5 -21t38 -10.5t39.5 -3t39 3t36.5 11t26.5 22.5t10 38.5v54h-79h-40.5t-50 -5.5t-42 -17.5t-17.5 -36zM337 331q13 -14 18 -35.5t5 -52.5v-38q39 15 78.5 30.5t78.5 30.5q-18 35 -49.5 56t-69.5 21q-17 0 -32 -3.5t-29 -8.5z" />
<glyph unicode="&#xe7;" horiz-adv-x="388" d="M36 188q0 40 15.5 76t42 62t62 41.5t76.5 15.5q36 0 68 -11.5t57 -31.5q-7 -8 -13.5 -15.5t-13.5 -15.5q-20 16 -44.5 25t-53.5 9q-33 0 -61 -12t-48.5 -33t-32.5 -49.5t-12 -60.5t12 -60t32.5 -49t48.5 -33t61 -12q57 0 98 33q7 -8 13.5 -15.5t12.5 -15.5 q-49 -40 -118 -43q0 -14 4 -22.5t10.5 -14t13.5 -9.5t13 -8q23 -15 32 -34.5t9 -37.5q0 -45 -22 -69t-56 -29q-18 -3 -35 1q-23 4 -42 19t-28 42l14 6l14 6q5 -19 21 -31.5t39 -12.5q28 0 45 19t17 47q0 25 -12 38.5t-27 23.5t-27 20.5t-12 29.5v19q-37 4 -68.5 20t-55 41.5 t-36.5 59t-13 71.5z" />
<glyph unicode="&#xe8;" horiz-adv-x="451" d="M36 188q0 40 15.5 76t42 62t62 41.5t76.5 15.5q30 0 57 -10.5t49.5 -29t39.5 -44t26 -56.5q-78 -31 -155 -61.5t-155 -61.5q17 -38 54 -62t84 -24q31 0 58 11t47 31q7 -8 13 -15.5t13 -15.5q-26 -24 -59 -38t-72 -14q-41 0 -76.5 15.5t-62 41.5t-42 61.5t-15.5 76.5z M79.5 181.5q0.5 -11.5 2.5 -22.5q67 27 134 53.5t135 53.5q-17 34 -49 55.5t-70 21.5q-30 0 -57 -10.5t-47 -29.5t-32.5 -44t-15.5 -54q-1 -12 -0.5 -23.5zM99 612h43q23 -33 45 -66.5t45 -66.5h-33q-25 33 -50 66.5t-50 66.5z" />
<glyph unicode="&#xe9;" horiz-adv-x="451" d="M36 188q0 40 15.5 76t42 62t62 41.5t76.5 15.5q30 0 57 -10.5t49.5 -29t39.5 -44t26 -56.5q-78 -31 -155 -61.5t-155 -61.5q17 -38 54 -62t84 -24q31 0 58 11t47 31q7 -8 13 -15.5t13 -15.5q-26 -24 -59 -38t-72 -14q-41 0 -76.5 15.5t-62 41.5t-42 61.5t-15.5 76.5z M79.5 181.5q0.5 -11.5 2.5 -22.5q67 27 134 53.5t135 53.5q-17 34 -49 55.5t-70 21.5q-30 0 -57 -10.5t-47 -29.5t-32.5 -44t-15.5 -54q-1 -12 -0.5 -23.5zM227 479q23 33 45 66.5t45 66.5h43q-25 -33 -50 -66.5t-50 -66.5h-33z" />
<glyph unicode="&#xea;" horiz-adv-x="451" d="M36 188q0 40 15.5 76t42 62t62 41.5t76.5 15.5q30 0 57 -10.5t49.5 -29t39.5 -44t26 -56.5q-78 -31 -155 -61.5t-155 -61.5q17 -38 54 -62t84 -24q31 0 58 11t47 31q7 -8 13 -15.5t13 -15.5q-26 -24 -59 -38t-72 -14q-41 0 -76.5 15.5t-62 41.5t-42 61.5t-15.5 76.5z M79.5 181.5q0.5 -11.5 2.5 -22.5q67 27 134 53.5t135 53.5q-17 34 -49 55.5t-70 21.5q-30 0 -57 -10.5t-47 -29.5t-32.5 -44t-15.5 -54q-1 -12 -0.5 -23.5zM112 479q30 45 60 90.5t60 90.5q30 -45 60 -90.5t60 -90.5h-33q-22 30 -43.5 60.5t-43.5 60.5q-22 -30 -43.5 -60.5 t-43.5 -60.5h-33z" />
<glyph unicode="&#xeb;" horiz-adv-x="451" d="M36 188q0 40 15.5 76t42 62t62 41.5t76.5 15.5q30 0 57 -10.5t49.5 -29t39.5 -44t26 -56.5q-78 -31 -155 -61.5t-155 -61.5q17 -38 54 -62t84 -24q31 0 58 11t47 31q7 -8 13 -15.5t13 -15.5q-26 -24 -59 -38t-72 -14q-41 0 -76.5 15.5t-62 41.5t-42 61.5t-15.5 76.5z M79.5 181.5q0.5 -11.5 2.5 -22.5q67 27 134 53.5t135 53.5q-17 34 -49 55.5t-70 21.5q-30 0 -57 -10.5t-47 -29.5t-32.5 -44t-15.5 -54q-1 -12 -0.5 -23.5zM114 508q0 14 10 23.5t23 9.5q12 0 22 -9.5t10 -23.5t-10 -23.5t-22 -9.5q-13 0 -23 9.5t-10 23.5zM279 508 q0 14 10 23.5t23 9.5t22.5 -9.5t9.5 -23.5t-9.5 -23.5t-22.5 -9.5t-23 9.5t-10 23.5z" />
<glyph unicode="&#xec;" horiz-adv-x="174" d="M-24 612h43q23 -33 45 -66.5t45 -66.5h-33q-25 33 -50 66.5t-50 66.5zM75 0v375h41v-375h-41z" />
<glyph unicode="&#xed;" horiz-adv-x="198" d="M71 0v375h41v-375h-41zM79 479q23 33 45 66.5t45 66.5h43q-25 -33 -50 -66.5t-50 -66.5h-33z" />
<glyph unicode="&#xee;" horiz-adv-x="239" d="M-4 479q30 45 60 90.5t60 90.5q30 -45 60 -90.5t60 -90.5h-33q-22 30 -43.5 60.5t-43.5 60.5q-22 -30 -43.5 -60.5t-43.5 -60.5h-33zM95 0v375h42v-375h-42z" />
<glyph unicode="&#xef;" horiz-adv-x="271" d="M26 508q0 14 10 23.5t23 9.5q12 0 22 -9.5t10 -23.5t-10 -23.5t-22 -9.5q-13 0 -23 9.5t-10 23.5zM123 0v375h42v-375h-42zM191 508q0 14 10 23.5t23 9.5t22.5 -9.5t9.5 -23.5t-9.5 -23.5t-22.5 -9.5t-23 9.5t-10 23.5z" />
<glyph unicode="&#xf0;" horiz-adv-x="493" d="M52 187q0 40 14.5 76t41 62.5t62 42.5t76.5 16q38 1 70 -14.5t54 -41.5q-13 50 -46 116.5t-93 138.5q-16 -17 -31.5 -34t-31.5 -34q-7 7 -14 13t-14 13q17 18 34 36.5t34 36.5q-45 50 -93 89l28 28q48 -38 93 -87q15 17 30.5 33t29.5 33q8 -6 14.5 -12t13.5 -12 q-16 -18 -31.5 -35.5t-32.5 -35.5q37 -45 71 -97.5t59.5 -107.5t40.5 -110.5t15 -107.5q0 -41 -15 -76.5t-41 -62.5t-62 -42.5t-77 -16.5q-41 0 -77 14.5t-63 41t-42.5 61.5t-16.5 76zM94 188q0 -32 12 -60t33 -49t49.5 -32.5t61.5 -11.5t61.5 12.5t49 33.5t32 49t11.5 60 q0 33 -12.5 61t-33.5 49t-49 32.5t-61 11.5t-61.5 -12.5t-49 -33.5t-32 -49.5t-11.5 -60.5z" />
<glyph unicode="&#xf1;" horiz-adv-x="523" d="M103 0v375h38v-35v-31t1 -31q20 47 64 76t100 29q55 0 87 -31t34 -81v-271h-42v260q-2 32 -23.5 56t-63.5 26q-30 0 -58 -10.5t-49 -28.5t-33.5 -43t-12.5 -55v-205h-42zM134 461q1 19 9 33t20 23.5t27 14t29 4.5q21 0 38.5 -9.5t33.5 -26.5t28 -22.5t26 -5.5q7 0 17 2 t19 7.5t15.5 15.5t8.5 26q7 -1 13.5 -1t12.5 -1q-1 -19 -9 -33t-20 -23.5t-27 -14t-29 -4.5q-21 0 -38.5 9.5t-34.5 26.5q-15 17 -27 22.5t-26 5.5q-8 0 -17.5 -2t-18.5 -7.5t-16 -15.5t-9 -26q-6 1 -12.5 1t-12.5 1z" />
<glyph unicode="&#xf2;" horiz-adv-x="469" d="M36 188q0 40 15.5 76t42 62.5t62 42t76.5 15.5t77 -15.5t63 -42t42.5 -62.5t15.5 -76q0 -41 -15.5 -76.5t-42.5 -61.5t-63 -41.5t-77 -15.5t-76.5 15.5t-62 41.5t-42 61.5t-15.5 76.5zM78 188q0 -32 12 -60t33 -49t49 -33t60 -12t60 12t49 33t33.5 49t12.5 60t-12.5 60 t-33.5 49t-49 33.5t-60 12.5t-60 -12.5t-49 -33.5t-33 -49t-12 -60zM102 612h43q23 -33 45 -66.5t45 -66.5h-33q-25 33 -50 66.5t-50 66.5z" />
<glyph unicode="&#xf3;" horiz-adv-x="469" d="M36 188q0 40 15.5 76t42 62.5t62 42t76.5 15.5t77 -15.5t63 -42t42.5 -62.5t15.5 -76q0 -41 -15.5 -76.5t-42.5 -61.5t-63 -41.5t-77 -15.5t-76.5 15.5t-62 41.5t-42 61.5t-15.5 76.5zM78 188q0 -32 12 -60t33 -49t49 -33t60 -12t60 12t49 33t33.5 49t12.5 60t-12.5 60 t-33.5 49t-49 33.5t-60 12.5t-60 -12.5t-49 -33.5t-33 -49t-12 -60zM231 479q23 33 45 66.5t45 66.5h43q-25 -33 -50 -66.5t-50 -66.5h-33z" />
<glyph unicode="&#xf4;" horiz-adv-x="469" d="M36 188q0 40 15.5 76t42 62.5t62 42t76.5 15.5t77 -15.5t63 -42t42.5 -62.5t15.5 -76q0 -41 -15.5 -76.5t-42.5 -61.5t-63 -41.5t-77 -15.5t-76.5 15.5t-62 41.5t-42 61.5t-15.5 76.5zM78 188q0 -32 12 -60t33 -49t49 -33t60 -12t60 12t49 33t33.5 49t12.5 60t-12.5 60 t-33.5 49t-49 33.5t-60 12.5t-60 -12.5t-49 -33.5t-33 -49t-12 -60zM112 479q30 45 60 90.5t60 90.5q30 -45 60 -90.5t60 -90.5h-33q-22 30 -43.5 60.5t-43.5 60.5q-22 -30 -43.5 -60.5t-43.5 -60.5h-33z" />
<glyph unicode="&#xf5;" horiz-adv-x="469" d="M36 188q0 40 15.5 76t42 62.5t62 42t76.5 15.5t77 -15.5t63 -42t42.5 -62.5t15.5 -76q0 -41 -15.5 -76.5t-42.5 -61.5t-63 -41.5t-77 -15.5t-76.5 15.5t-62 41.5t-42 61.5t-15.5 76.5zM78 188q0 -32 12 -60t33 -49t49 -33t60 -12t60 12t49 33t33.5 49t12.5 60t-12.5 60 t-33.5 49t-49 33.5t-60 12.5t-60 -12.5t-49 -33.5t-33 -49t-12 -60zM88 470q1 19 9 33t20 23.5t27 14t29 4.5q21 0 38.5 -9.5t33.5 -26.5t28 -22.5t26 -5.5q7 0 17 2t19 7.5t15.5 15.5t8.5 26q7 -1 13.5 -1t12.5 -1q-1 -19 -9 -33t-20 -23.5t-27 -14t-29 -4.5 q-21 0 -38.5 9.5t-34.5 26.5q-15 17 -27 22.5t-26 5.5q-8 0 -17.5 -2t-18.5 -7.5t-16 -15.5t-9 -26q-6 1 -12.5 1t-12.5 1z" />
<glyph unicode="&#xf6;" horiz-adv-x="469" d="M36 188q0 40 15.5 76t42 62.5t62 42t76.5 15.5t77 -15.5t63 -42t42.5 -62.5t15.5 -76q0 -41 -15.5 -76.5t-42.5 -61.5t-63 -41.5t-77 -15.5t-76.5 15.5t-62 41.5t-42 61.5t-15.5 76.5zM78 188q0 -32 12 -60t33 -49t49 -33t60 -12t60 12t49 33t33.5 49t12.5 60t-12.5 60 t-33.5 49t-49 33.5t-60 12.5t-60 -12.5t-49 -33.5t-33 -49t-12 -60zM120 508q0 14 10 23.5t23 9.5q12 0 22 -9.5t10 -23.5t-10 -23.5t-22 -9.5q-13 0 -23 9.5t-10 23.5zM285 508q0 14 10 23.5t23 9.5t22.5 -9.5t9.5 -23.5t-9.5 -23.5t-22.5 -9.5t-23 9.5t-10 23.5z" />
<glyph unicode="&#xf7;" horiz-adv-x="501" d="M68 208v41h360v-41h-360zM218 104q0 14 10 23.5t23 9.5t22.5 -9.5t9.5 -23.5t-9.5 -23.5t-22.5 -9.5t-23 9.5t-10 23.5zM218 354q0 14 10 23.5t23 9.5t22.5 -9.5t9.5 -23.5t-9.5 -23.5t-22.5 -9.5t-23 9.5t-10 23.5z" />
<glyph unicode="&#xf8;" horiz-adv-x="468" d="M36 188q0 40 15.5 76t42 62t62 41.5t76.5 15.5q31 0 58.5 -8.5t50.5 -23.5q8 10 17 19.5t17 19.5q6 -5 11.5 -10.5t11.5 -10.5q-8 -9 -16 -18.5t-16 -19.5q29 -26 46.5 -63.5t17.5 -79.5q0 -41 -15.5 -76.5t-42.5 -61.5t-63 -41.5t-77 -15.5q-34 0 -64 10.5t-55 29.5 l-20 -24l-20 -24l-12 10l-12 10q11 12 20.5 24t20.5 24q-26 26 -40 60.5t-14 74.5zM78 188q0 -30 10.5 -56.5t28.5 -46.5q50 59 98.5 117t98.5 117q-17 11 -38 17.5t-44 6.5q-33 0 -61 -12t-48.5 -33t-32.5 -49.5t-12 -60.5zM140 64q39 -30 92 -30q33 0 61.5 12t49.5 33 t33 49t12 60q0 33 -13 62t-36 50q-50 -60 -99.5 -118.5t-99.5 -117.5z" />
<glyph unicode="&#xf9;" horiz-adv-x="529" d="M103 104v271h42v-260q2 -32 23.5 -56t63.5 -26q30 0 58 10.5t49 28.5t33.5 43t12.5 55v205h42v-379h-42v56l3 45q-20 -48 -64.5 -76.5t-99.5 -28.5t-87 31t-34 81zM156 612h43q23 -33 45 -66.5t45 -66.5h-33q-25 33 -50 66.5t-50 66.5z" />
<glyph unicode="&#xfa;" horiz-adv-x="529" d="M103 104v271h42v-260q2 -32 23.5 -56t63.5 -26q30 0 58 10.5t49 28.5t33.5 43t12.5 55v205h42v-379h-42v56l3 45q-20 -48 -64.5 -76.5t-99.5 -28.5t-87 31t-34 81zM231 479q23 33 45 66.5t45 66.5h43q-25 -33 -50 -66.5t-50 -66.5h-33z" />
<glyph unicode="&#xfb;" horiz-adv-x="529" d="M103 104v271h42v-260q2 -32 23.5 -56t63.5 -26q30 0 58 10.5t49 28.5t33.5 43t12.5 55v205h42v-379h-42v56l3 45q-20 -48 -64.5 -76.5t-99.5 -28.5t-87 31t-34 81zM146 479q30 45 60 90.5t60 90.5q30 -45 60 -90.5t60 -90.5h-33q-22 30 -43.5 60.5t-43.5 60.5 q-22 -30 -43.5 -60.5t-43.5 -60.5h-33z" />
<glyph unicode="&#xfc;" horiz-adv-x="529" d="M103 104v271h42v-260q2 -32 23.5 -56t63.5 -26q30 0 58 10.5t49 28.5t33.5 43t12.5 55v205h42v-379h-42v56l3 45q-20 -48 -64.5 -76.5t-99.5 -28.5t-87 31t-34 81zM146 508q0 14 10 23.5t23 9.5q12 0 22 -9.5t10 -23.5t-10 -23.5t-22 -9.5q-13 0 -23 9.5t-10 23.5z M311 508q0 14 10 23.5t23 9.5t22.5 -9.5t9.5 -23.5t-9.5 -23.5t-22.5 -9.5t-23 9.5t-10 23.5z" />
<glyph unicode="&#xfd;" horiz-adv-x="488" d="M38 375h44q42 -84 86 -168t81 -169q38 85 81.5 169t85.5 168h44q-78 -157 -156 -312.5t-157 -312.5h-44q31 62 62 123.5t62 124.5q-48 94 -94.5 188t-94.5 189zM241 479q23 33 45 66.5t45 66.5h43q-25 -33 -50 -66.5t-50 -66.5h-33z" />
<glyph unicode="&#xfe;" horiz-adv-x="557" d="M67 -250v1000h42v-413q-2 -13 -3 -26l-2 -26q6 18 21 35t36 30.5t47.5 22t55.5 8.5q41 0 77 -15.5t62.5 -41.5t42 -61.5t15.5 -75.5t-15.5 -75.5t-42 -62t-62.5 -42t-77 -15.5q-31 0 -57 8t-46.5 21t-35 30t-20.5 34l2 -20t2 -21v-294h-42zM109 187q0 -32 12 -60.5 t32.5 -49.5t49 -33t61.5 -12t61.5 12t49 33t32.5 49.5t12 60.5q0 33 -12 61t-32.5 48.5t-49 32.5t-61.5 12t-61.5 -12t-49 -32.5t-32.5 -48.5t-12 -61z" />
<glyph unicode="&#xff;" horiz-adv-x="488" d="M38 375h44q42 -84 86 -168t81 -169q38 85 81.5 169t85.5 168h44q-78 -157 -156 -312.5t-157 -312.5h-44q31 62 62 123.5t62 124.5q-48 94 -94.5 188t-94.5 189zM140 508q0 14 10 23.5t23 9.5q12 0 22 -9.5t10 -23.5t-10 -23.5t-22 -9.5q-13 0 -23 9.5t-10 23.5zM305 508 q0 14 10 23.5t23 9.5t22.5 -9.5t9.5 -23.5t-9.5 -23.5t-22.5 -9.5t-23 9.5t-10 23.5z" />
<glyph unicode="&#x2000;" horiz-adv-x="480" />
<glyph unicode="&#x2001;" horiz-adv-x="961" />
<glyph unicode="&#x2002;" horiz-adv-x="480" />
<glyph unicode="&#x2003;" horiz-adv-x="961" />
<glyph unicode="&#x2004;" horiz-adv-x="320" />
<glyph unicode="&#x2005;" horiz-adv-x="240" />
<glyph unicode="&#x2006;" horiz-adv-x="160" />
<glyph unicode="&#x2007;" horiz-adv-x="160" />
<glyph unicode="&#x2008;" horiz-adv-x="120" />
<glyph unicode="&#x2009;" horiz-adv-x="192" />
<glyph unicode="&#x200a;" horiz-adv-x="53" />
<glyph unicode="&#x2010;" d="M53 169v41h184v-41h-184z" />
<glyph unicode="&#x2011;" d="M53 169v41h184v-41h-184z" />
<glyph unicode="&#x2012;" d="M53 169v41h184v-41h-184z" />
<glyph unicode="&#x2013;" horiz-adv-x="509" d="M100 177v41h301v-41h-301z" />
<glyph unicode="&#x2014;" horiz-adv-x="700" d="M99 177v41h502v-41h-502z" />
<glyph unicode="&#x2018;" horiz-adv-x="164" d="M36 711q8 -2 16.5 -3.5t16.5 -3.5q-7 -35 2.5 -64.5t30.5 -49.5l-20 -20q-29 26 -41.5 63t-4.5 78z" />
<glyph unicode="&#x2019;" horiz-adv-x="164" d="M49 590q21 20 30.5 49.5t2.5 64.5q8 2 16.5 3.5t16.5 3.5q8 -41 -4.5 -78t-41.5 -63z" />
<glyph unicode="&#x201a;" horiz-adv-x="146" d="M20 -29q21 20 30.5 49.5t2.5 64.5q8 2 16 3.5t16 3.5q8 -41 -4 -78t-41 -63q-11 9 -20 20z" />
<glyph unicode="&#x201c;" horiz-adv-x="249" d="M31 711q8 -2 16 -3.5t16 -3.5q-7 -35 2.5 -64.5t30.5 -49.5l-10 -10l-10 -10q-29 26 -41 63t-4 78zM135 711q8 -2 16 -3.5t16 -3.5q-7 -35 2.5 -64.5t30.5 -49.5l-10 -10l-10 -10q-29 26 -41 63t-4 78z" />
<glyph unicode="&#x201d;" horiz-adv-x="248" d="M31 590q21 20 30.5 49.5t2.5 64.5q8 2 16 3.5t16 3.5q8 -41 -4 -78t-41 -63l-10 10zM135 590q21 20 30.5 49.5t2.5 64.5q8 2 16 3.5t16 3.5q8 -41 -4 -78t-41 -63l-10 10z" />
<glyph unicode="&#x201e;" horiz-adv-x="277" d="M20 -29q21 20 30.5 49.5t2.5 64.5q8 2 16 3.5t16 3.5q8 -41 -4 -78t-41 -63q-11 9 -20 20zM124 -29q21 20 30.5 49.5t2.5 64.5q8 2 16 3.5t16 3.5q8 -41 -4 -78t-41 -63q-11 9 -20 20z" />
<glyph unicode="&#x2022;" horiz-adv-x="479" d="M150 300q0 19 7 35.5t19 29t28 19.5t35 7q38 0 64.5 -26.5t26.5 -64.5q0 -19 -7 -35t-19.5 -28t-29 -19t-35.5 -7q-38 0 -63.5 25.5t-25.5 63.5z" />
<glyph unicode="&#x202f;" horiz-adv-x="192" />
<glyph unicode="&#x2039;" horiz-adv-x="392" d="M117 239q43 41 85.5 80.5t85.5 80.5v-48q-28 -29 -55.5 -56.5t-55.5 -56.5l111 -114v-48z" />
<glyph unicode="&#x203a;" horiz-adv-x="392" d="M117 77l171 162q-43 41 -85.5 80.5t-85.5 80.5v-48q28 -29 55.5 -56.5t55.5 -56.5l-111 -114v-48z" />
<glyph unicode="&#x205f;" horiz-adv-x="240" />
<glyph unicode="&#xe000;" horiz-adv-x="375" d="M0 0v375h375v-375h-375z" />
</font>
</defs>
</svg>
