<?xml version="1.0" standalone="no"?>
<!DOCTYPE svg PUBLIC "-//W3C//DTD SVG 1.1//EN" "http://www.w3.org/Graphics/SVG/1.1/DTD/svg11.dtd" >
<svg xmlns="http://www.w3.org/2000/svg">
<metadata></metadata>
<defs>
<font id="josefin_sanslight_italic" horiz-adv-x="469" >
<font-face units-per-em="1000" ascent="750" descent="-250" />
<missing-glyph horiz-adv-x="300" />
<glyph horiz-adv-x="1000" />
<glyph horiz-adv-x="1000" />
<glyph unicode="&#xd;" horiz-adv-x="300" />
<glyph unicode=" "  horiz-adv-x="300" />
<glyph unicode="&#x09;" horiz-adv-x="300" />
<glyph unicode="&#xa0;" horiz-adv-x="300" />
<glyph unicode="!" horiz-adv-x="201" d="M26 55q1 12 10.5 19.5t18.5 7.5q11 0 17.5 -7.5t5.5 -19.5q-2 -11 -11 -18.5t-19 -7.5t-16.5 7.5t-5.5 18.5zM53 166l82 584h28l-82 -584h-28z" />
<glyph unicode="&#x22;" horiz-adv-x="301" d="M45 472l35 248h31q-10 -63 -19.5 -124t-19.5 -124h-27zM178 472l35 248h31q-10 -63 -19.5 -124t-19.5 -124h-27z" />
<glyph unicode="#" horiz-adv-x="571" d="M13 218q2 7 3.5 13.5t3.5 13.5h113q10 39 19.5 77.5t20.5 77.5h-111q1 7 2.5 13.5t3.5 13.5h112l57 216h28l-57 -216h156l57 216h28l-57 -216h129l-6 -27h-130q-11 -39 -20.5 -77.5t-19.5 -77.5h128q-2 -7 -3.5 -13.5t-3.5 -13.5h-129q-14 -55 -28 -109t-28 -109h-28 q14 55 28 109t28 109h-156q-14 -55 -28 -109t-28 -109h-28q14 55 28 109t28 109h-112zM161 245h156q10 39 19.5 77.5t20.5 77.5h-156q-11 -39 -20.5 -77.5t-19.5 -77.5z" />
<glyph unicode="$" horiz-adv-x="567" d="M36 84l22 20q12 -14 26.5 -28t33.5 -26t42 -20.5t51 -9.5l48 342q-2 1 -4.5 1.5t-4.5 2.5q-18 6 -42 15.5t-45 26.5t-34.5 43.5t-10.5 65.5q2 32 15 64t37 58.5t58 44t79 19.5l9 61h28l-9 -61q35 -2 67.5 -15.5t64.5 -43.5q-5 -5 -9.5 -11t-9.5 -11q-14 15 -43.5 32.5 t-72.5 21.5l-42 -295q30 -11 63 -24.5t59 -35t41 -54.5t8 -81q-6 -43 -26.5 -77.5t-51 -59.5t-68.5 -39.5t-80 -16.5l-8 -61h-28l8 61q-36 2 -64.5 12.5t-49.5 24.5t-35 28.5t-22 25.5zM147 527q-8 -56 19.5 -84t80.5 -46q7 -4 16 -6l41 285q-35 -2 -62 -15t-47 -33.5 t-32 -46.5t-16 -54zM239 20q34 2 67 14.5t59.5 33.5t44 50t22.5 65q6 40 -5.5 68t-33 47t-50.5 31.5t-57 22.5z" />
<glyph unicode="%" horiz-adv-x="726" d="M123 389q3 23 15 43.5t30 35.5t40 24t45 9t42 -9t32.5 -24t20 -35.5t3.5 -43.5q-4 -24 -16 -44.5t-30 -35.5t-39.5 -24t-44.5 -9t-42.5 9t-33 24t-19.5 35.5t-3 44.5zM151 388q-2 -18 2.5 -33t14.5 -26.5t24.5 -18t32.5 -6.5t34.5 6.5t30 18t22 26.5t11.5 33 q4 35 -17.5 60t-56.5 25q-18 0 -34.5 -6.5t-30 -18t-22 -27t-11.5 -33.5zM165 0q93 126 184.5 250t184.5 250h31q-93 -126 -184.5 -250t-184.5 -250h-31zM388 113q4 23 16 43.5t29.5 35.5t39.5 23.5t45 8.5t42.5 -8.5t33 -23.5t19.5 -35.5t3 -43.5q-3 -24 -15.5 -44.5 t-30 -35.5t-39.5 -24t-45 -9t-42.5 9t-33 24t-19.5 35.5t-3 44.5zM416 112q-2 -18 2.5 -33.5t14.5 -27t24.5 -18t32.5 -6.5t34.5 6.5t30 18t22 27t11.5 33.5q4 35 -17.5 60t-56.5 25q-18 0 -34.5 -6.5t-30 -18t-22 -27t-11.5 -33.5z" />
<glyph unicode="&#x26;" horiz-adv-x="700" d="M79 187q5 36 22 68.5t42.5 58t57.5 42.5t67 23q-14 29 -27.5 58.5t-27.5 58.5q-14 30 -16.5 62t6.5 63t31 58t58 47q31 17 60.5 20.5t56.5 -1.5t50.5 -16t40.5 -23l-15 -24q-19 12 -40 22.5t-43.5 15t-46.5 1.5t-49 -17q-63 -37 -77.5 -91.5t9.5 -106.5 q45 -94 88.5 -186.5t88.5 -186.5q24 37 33 82l8 56q7 41 18.5 62.5t25.5 30.5t30 10t33 1h39l-3 -27h-55q-31 0 -44.5 -24.5t-21.5 -85.5l-8 -51q-3 -25 -13 -48t-24 -43q12 -25 24 -49.5t24 -50.5l-24 -15q-11 22 -21.5 44.5t-21.5 44.5q-32 -35 -75.5 -56t-91.5 -21 q-41 0 -74.5 15t-56 41.5t-33 61.5t-4.5 76zM107 187q-5 -35 3.5 -65.5t28 -53t48.5 -35.5t64 -13q45 0 85 20.5t66 55.5q-30 65 -60.5 128.5t-60.5 128.5q-33 -3 -62.5 -17t-53 -36t-39 -51t-19.5 -62z" />
<glyph unicode="'" horiz-adv-x="150" d="M44 472l35 248h31q-10 -63 -19.5 -124t-19.5 -124h-27z" />
<glyph unicode="(" horiz-adv-x="400" d="M134.5 149q-4.5 68 6.5 143q10 75 33.5 143t55 126t67.5 105.5t72 80.5q3 -6 6.5 -11.5t7.5 -11.5q-33 -33 -67 -78t-63.5 -100t-51.5 -119t-32 -135t-6 -135t18 -119t35.5 -100t45.5 -78q-5 -6 -10 -11.5t-10 -11.5q-27 33 -50 80.5t-38 105.5t-19.5 126z" />
<glyph unicode=")" horiz-adv-x="400" d="M43 -141q33 33 67 78t63.5 100t51.5 119t32 135t6 135t-18 119t-35.5 100t-45.5 78q5 6 10 11.5t10 11.5q27 -33 50 -80.5t38 -105.5t19.5 -126t-5.5 -143q-11 -75 -34.5 -143t-55 -126t-67.5 -105.5t-72 -80.5q-4 6 -7.5 11.5t-6.5 11.5z" />
<glyph unicode="*" horiz-adv-x="335" d="M28 519l108 57q-23 15 -45.5 30t-45.5 30q3 6 7.5 12t8.5 12q23 -15 47 -30t47 -30l17 120h31q-5 -30 -9.5 -60t-9.5 -60q57 29 112 59q3 -6 5.5 -12t4.5 -12l-111 -60q23 -14 47 -29t47 -29q-5 -7 -10 -13.5t-10 -13.5l-93 60q-5 -29 -9 -58t-9 -58h-27l16 116 q-27 -15 -54 -29.5t-54 -28.5q-3 7 -5.5 13.5t-5.5 13.5z" />
<glyph unicode="+" horiz-adv-x="543" d="M84 218l4 27h166l23 166h28l-23 -166h166l-4 -27h-166l-24 -167h-28l24 167h-166z" />
<glyph unicode="," horiz-adv-x="200" d="M7 -120q27 52 53 103t53 103h35q-29 -52 -57.5 -103t-57.5 -103h-26z" />
<glyph unicode="-" horiz-adv-x="300" d="M51 177l3 27h184l-3 -27h-184z" />
<glyph unicode="." horiz-adv-x="163" d="M59 26q2 11 10.5 19t19.5 8t18 -8t5 -19t-10.5 -18.5t-19.5 -7.5t-18 7.5t-5 18.5z" />
<glyph unicode="/" horiz-adv-x="334" d="M-36 -19q97 190 192 377.5t192 377.5h28q-97 -190 -192 -377.5t-192 -377.5h-28z" />
<glyph unicode="0" horiz-adv-x="616" d="M36 327q8 53 31.5 111.5t63.5 107.5t95.5 80.5t127.5 31.5q70 0 116 -32.5t71.5 -81.5t32 -107.5t-1.5 -112.5q-10 -71 -40.5 -131.5t-74 -105t-96.5 -69.5t-107 -25t-98.5 26t-74.5 70.5t-42.5 105.5t-2.5 132zM65 328q-10 -69 2 -125.5t39.5 -97t67.5 -63t86 -22.5 t92.5 21.5t85.5 61.5t67.5 96t38.5 124q10 66 0.5 122t-35 97.5t-66.5 65t-94 23.5t-100.5 -22.5t-85 -63t-63.5 -96t-35 -121.5z" />
<glyph unicode="1" horiz-adv-x="254" d="M75 623l4 27h132l-91 -650h-28l87 623h-104z" />
<glyph unicode="2" horiz-adv-x="500" d="M6 0q73 62 141.5 122t123 117t90 110t42.5 100q7 52 -3 87t-30 56t-45.5 30t-49.5 9q-47 0 -80 -17t-54 -41.5t-31.5 -53.5t-14.5 -53q-9 -69 25 -112q-5 -5 -10 -8.5t-10 -7.5q-20 23 -29 55.5t-4 72.5q6 40 23 75t44 61t63.5 41t81.5 15q40 0 71.5 -15t51.5 -41.5 t28 -62.5t2 -78q-8 -56 -42.5 -111.5t-84.5 -109.5t-109.5 -107.5t-116.5 -105.5h336l-4 -27h-405z" />
<glyph unicode="3" horiz-adv-x="515" d="M49 59q5 5 11.5 11t11.5 11q19 -27 50 -44.5t70 -17.5q37 0 72 14.5t63.5 39t47.5 57t24 68.5q5 37 -5 69.5t-31.5 56.5t-52.5 38t-68 14q-17 0 -33.5 -6t-31.5 -16q60 68 118 134.5t118 133.5h-268l4 28h321q-56 -63 -111.5 -124.5t-111.5 -124.5q43 -1 78.5 -16.5 t60 -42.5t36 -64t5.5 -80t-28 -80.5t-54 -65.5t-72 -44t-83 -16q-45 0 -81 18t-60 49z" />
<glyph unicode="4" horiz-adv-x="510" d="M16 183q109 119 216.5 237.5t216.5 237.5l-63 -448h97l-4 -27h-97l-26 -183h-28l26 183h-338zM77 210h281l51 366q-83 -92 -165.5 -183t-166.5 -183z" />
<glyph unicode="5" horiz-adv-x="543" d="M74 49q6 5 11.5 9.5t12.5 9.5q20 -23 48.5 -36t63.5 -13q37 0 72.5 14.5t63.5 39t47 57t24 68.5t-5 68t-31 56t-52.5 37.5t-68.5 13.5q-35 0 -65.5 -11.5t-50.5 -30.5l45 319h287l-4 -27h-259l-34 -241q21 8 42.5 13.5t43.5 5.5q43 0 78.5 -16t60 -43.5t36 -64.5t5.5 -79 q-6 -43 -28 -80.5t-54 -65.5t-72.5 -44t-82.5 -16t-76 15t-58 42z" />
<glyph unicode="6" horiz-adv-x="520" d="M33 194q10 72 49.5 134.5t95 117t121 101t127.5 87.5q4 -6 7.5 -12t7.5 -11q-131 -80 -207.5 -152t-108.5 -123q27 29 64 47t79 18q43 0 78.5 -16t59.5 -44t35.5 -65.5t5.5 -79.5t-28 -79t-54 -65t-72 -44t-83 -16q-42 0 -77.5 16t-59.5 43t-35 64t-5 79zM61 196 q-6 -37 3.5 -69t30 -56t51 -38t67.5 -14t72 14t63 38t47 56t24 69t-5 69t-31 56t-52 38t-68 14t-71 -14t-61.5 -38t-46 -56t-23.5 -69z" />
<glyph unicode="7" d="M46 0q93 156 184 311t184 311h-359l4 28h403q-96 -164 -191.5 -325t-191.5 -325h-33z" />
<glyph unicode="8" horiz-adv-x="510" d="M31 198q5 34 20 64.5t37 55.5t50.5 43.5t60.5 27.5q-35 15 -54.5 48.5t-12.5 76.5q4 30 19 56t37.5 45.5t51 31t58.5 11.5q31 0 56 -11.5t42.5 -31.5t25 -47t3.5 -57q-6 -42 -33.5 -74t-66.5 -48q30 -9 54.5 -27t40.5 -43t22.5 -56t1.5 -65q-6 -43 -27.5 -80.5t-54 -65.5 t-72.5 -44t-82 -16t-77.5 16t-59.5 44t-35 65.5t-5 80.5zM59 198q-5 -36 4.5 -68.5t29.5 -57t50 -39t67 -14.5t72 14.5t63 39t47 57t24 68.5t-4.5 68t-31 56t-52.5 37.5t-68 13.5t-71 -13.5t-61 -37.5t-45 -56t-24 -68zM159 508q-3 -23 3.5 -42.5t20.5 -33.5t35 -22t46 -8 q51 0 88.5 30t44.5 76q3 25 -3 47t-19.5 39t-33.5 27t-45 10t-48.5 -10t-42 -27t-31 -39t-15.5 -47z" />
<glyph unicode="9" horiz-adv-x="525" d="M65 429q6 42 27.5 79.5t53.5 65.5t72 44t83 16t78.5 -16t59.5 -44t34.5 -65.5t4.5 -79.5q-10 -72 -49.5 -134t-95.5 -116t-121.5 -100.5t-126.5 -86.5q-3 5 -7 11.5t-8 11.5q132 80 208.5 152t108.5 123q-28 -30 -65 -47.5t-79 -17.5q-43 0 -78.5 16t-59.5 44t-35 65 t-5 79zM93 429q-5 -37 4.5 -69t30.5 -56t52 -38t68 -14t71.5 14t62 38t46 56t23.5 69t-4 69t-30 56t-51.5 38t-67.5 14t-72 -14t-62.5 -38t-46.5 -56t-24 -69z" />
<glyph unicode=":" horiz-adv-x="175" d="M41 26q1 11 10 19t20 8t17.5 -8t4.5 -19t-10.5 -18.5t-19.5 -7.5t-17.5 7.5t-4.5 18.5zM76 276q2 11 10.5 19t19.5 8t17.5 -8t4.5 -19q-1 -11 -10 -18.5t-20 -7.5t-17.5 7.5t-4.5 18.5z" />
<glyph unicode=";" horiz-adv-x="201" d="M-22 -120q26 52 52 103t53 103h35q-29 -52 -57 -103t-57 -103h-26zM109 276q2 11 10.5 19t19.5 8q10 0 17 -8t6 -19q-2 -11 -11 -18.5t-19 -7.5q-11 0 -18 7.5t-5 18.5z" />
<glyph unicode="&#x3c;" horiz-adv-x="680" d="M115 238q118 63 236 126.5t237 126.5l-5 -36q-102 -54 -203.5 -108.5t-204.5 -108.5q87 -54 173 -108.5t174 -108.5l-5 -36q-101 63 -201 126.5t-201 126.5z" />
<glyph unicode="=" horiz-adv-x="708" d="M84 142l4 28h506l-4 -28h-506zM111 336l4 28h506l-4 -28h-506z" />
<glyph unicode="&#x3e;" horiz-adv-x="650" d="M79 -15l5 36q103 54 204.5 108.5t204.5 108.5q-88 54 -174 108.5t-174 108.5l5 36q101 -63 201 -126.5t202 -126.5q-119 -63 -237 -126.5t-237 -126.5z" />
<glyph unicode="?" horiz-adv-x="452" d="M63 595q13 27 33.5 52t47 44t58.5 30t68 11q41 0 75 -15.5t56.5 -42t33 -62t4.5 -75.5q-8 -54 -40 -95t-82 -73q-20 -14 -38 -23.5t-32.5 -22t-24.5 -31t-15 -50.5l-11 -78h-28l14 97q4 31 18 50t34.5 34t45.5 28.5t52 34.5q35 27 54.5 59.5t24.5 69.5q5 36 -3.5 66.5 t-28 53t-48.5 35.5t-64 13q-59 0 -107.5 -32t-72.5 -86l-12 4zM141 46q1 12 10 19.5t18 7.5q10 0 17.5 -7.5t5.5 -19.5q-2 -11 -11 -18.5t-19 -7.5q-9 0 -16 7.5t-5 18.5z" />
<glyph unicode="@" horiz-adv-x="990" d="M88 189q12 83 53.5 156t103.5 127.5t139.5 86t160.5 31.5t151.5 -31.5t115 -86t68 -127.5t9.5 -157q-11 -58 -29.5 -94.5t-42 -57.5t-50 -28.5t-51.5 -7.5h-84l7 47q2 14 4 27.5t4 27.5q-12 -23 -31 -42.5t-43 -34t-52.5 -23.5t-59.5 -9q-41 0 -74.5 15.5t-56 41.5 t-33 61.5t-4.5 76.5q6 40 26 75.5t50 62t68 42t79 15.5q30 0 55.5 -8.5t45.5 -23.5t33.5 -35t19.5 -42q4 25 9 50t10 51h22l-49 -348h63q51 0 86.5 38t49.5 123q11 78 -8.5 146t-63 119t-107.5 80.5t-141 29.5q-78 0 -150 -29.5t-129.5 -80.5t-96.5 -119t-50 -146 q-11 -77 9 -145t63.5 -118.5t107.5 -80t141 -29.5q61 0 118.5 19t108.5 51q3 -6 7 -11t7 -10q-54 -36 -116.5 -56t-128.5 -20q-83 0 -151.5 31.5t-115 86t-68 127.5t-9.5 156zM321 188q-5 -35 3.5 -65.5t28 -53t48.5 -35.5t64 -13t67.5 13t58.5 35.5t43 53t22 65.5 t-3.5 65.5t-28 53.5t-48.5 36t-64 13t-67.5 -13t-58.5 -36t-43 -53.5t-22 -65.5z" />
<glyph unicode="A" horiz-adv-x="740" d="M8 0q103 184 206.5 366t206.5 366l207 -732h-28q-23 77 -44 154t-44 154h-302l-86 -154t-87 -154h-29zM226 335h278q-21 78 -42.5 154t-43.5 154l-6 27q-2 -6 -6 -14t-7 -13q-42 -79 -85 -154.5t-88 -153.5z" />
<glyph unicode="B" horiz-adv-x="535" d="M29 0l99 700h152q46 0 83 -10t61 -31t34 -55q6 -20 7 -44q0 -16 -3 -35q-8 -62 -46 -109t-104 -64q29 -6 54.5 -20t43.5 -36t26 -51q5 -18 6 -39q0 -12 -2 -26q-6 -45 -29 -78.5t-56 -56t-73.5 -34t-82.5 -11.5h-170zM60 27h141q39 0 74.5 9.5t64 28.5t48 48t24.5 67 q2 14 2 26q0 21 -6 37q-8 26 -25 43.5t-39 27.5t-44 15.5t-42 7t-31 1.5h-122zM108 365h140q37 0 69 11.5t56 32.5t40 50.5t21 65.5q2 15 2 28q0 22 -6 40q-8 28 -27.5 46t-49 26t-66.5 8h-135z" />
<glyph unicode="C" horiz-adv-x="670" d="M61 349q10 74 47.5 139.5t93 114t124.5 77t143 28.5q51 0 94.5 -13t81.5 -37q-5 -6 -9.5 -11.5t-9.5 -11.5q-69 46 -161 46q-68 0 -131.5 -26.5t-114.5 -71.5t-85.5 -105.5t-44.5 -129.5q-3 -24 -3 -46q0 -43 11 -82q17 -60 55.5 -104.5t94 -70.5t122.5 -26q47 0 91 12 t84 35l13 -24q-43 -23 -90.5 -36.5t-98.5 -13.5q-74 0 -135 28t-102.5 76.5t-60.5 113.5q-12 43 -12 89q0 24 3 50z" />
<glyph unicode="D" horiz-adv-x="652" d="M31 0l99 700h142q72 0 132.5 -24.5t102 -70t60.5 -110.5q12 -41 12 -88q0 -27 -4 -57q-9 -63 -37 -125.5t-80.5 -112.5t-131 -81t-187.5 -31h-108zM63 28h92q93 0 163 28t118.5 73t76 103t35.5 118q4 27 4 52q0 44 -12 82q-18 60 -55.5 102t-92.5 64.5t-121 22.5h-117 q-23 -162 -45.5 -322.5t-45.5 -322.5z" />
<glyph unicode="E" horiz-adv-x="601" d="M40 0l99 700h410l-4 -27h-382l-44 -307h344l-4 -27h-343l-45 -312h397l-4 -27h-424z" />
<glyph unicode="F" horiz-adv-x="587" d="M40 0l99 700h410l-4 -27h-382l-44 -307h344l-4 -27h-343l-48 -339h-28z" />
<glyph unicode="G" horiz-adv-x="678" d="M61 349q10 74 47.5 139.5t93 114t124.5 77t143 28.5q51 0 94.5 -13t81.5 -37q-5 -6 -9.5 -11.5t-9.5 -11.5q-69 46 -161 46q-68 0 -131.5 -26.5t-114.5 -71.5t-85.5 -105.5t-44.5 -129.5q-3 -24 -3 -46q0 -43 11 -82q17 -60 55.5 -104.5t94 -70.5t122.5 -26q85 0 162 40 l19 133l8 57q2 11 -3 17.5t-21 6.5h-130l3 27h130q30 0 42 -10q9 -7 9 -25q0 -6 -1 -13l-30 -210q-43 -23 -90.5 -36.5t-98.5 -13.5q-74 0 -135 28t-102.5 76.5t-60.5 113.5q-12 43 -12 89q0 24 3 50z" />
<glyph unicode="H" horiz-adv-x="700" d="M49 0l99 700h28l-48 -334h447l47 334h31q-25 -176 -50.5 -350t-51.5 -350h-28l48 339h-446l-48 -339h-28z" />
<glyph unicode="I" horiz-adv-x="238" d="M55 0l99 700h28l-99 -700h-28z" />
<glyph unicode="J" horiz-adv-x="302" d="M-41 -142l4 27q36 2 68.5 16.5t58.5 41t44 64.5t25 86l86 607h28l-86 -610q-8 -56 -29.5 -98.5t-52 -71.5t-68.5 -45t-78 -17z" />
<glyph unicode="K" horiz-adv-x="600" d="M22 0l99 700h28l-47 -327q-1 -8 -2.5 -14.5t-2.5 -14.5l20 20q100 85 199.5 168t200.5 168h38q-84 -70 -166 -139t-165 -139q69 -106 137 -211t137 -211h-36q-65 102 -130 202t-131 202q-27 -23 -54 -45t-54 -45q-11 -79 -21.5 -157.5t-21.5 -156.5h-28z" />
<glyph unicode="L" horiz-adv-x="593" d="M40 0l99 700h28l-96 -673h397l-4 -27h-424z" />
<glyph unicode="M" horiz-adv-x="937" d="M48 0l103 732q75 -119 149.5 -237.5t149.5 -237.5q109 119 216.5 237.5t216.5 237.5l-103 -732h-28l61 438l25 172q2 11 3.5 21t3.5 21q-100 -113 -200 -223t-202 -222q-56 91 -111 179t-112 179l-45 72l-9 15q-2 -11 -2 -21t-2 -21l-86 -610h-28z" />
<glyph unicode="N" horiz-adv-x="813" d="M50 0l103 732q119 -171 236.5 -337.5t235.5 -336.5q4 -7 8 -13t8 -13q0 8 0.5 16t0.5 16l90 636h28l-103 -732q-119 168 -237 334.5t-237 335.5q-3 7 -7 13t-8 13q0 -8 -0.5 -16t-0.5 -16l-89 -632h-28z" />
<glyph unicode="O" horiz-adv-x="840" d="M61 349q10 74 47.5 139.5t93 114t124.5 77t143 28.5t135.5 -28.5t103.5 -77t60 -114.5q12 -43 13 -88q0 -25 -4 -51q-10 -74 -47.5 -139t-93 -113.5t-125 -76.5t-143.5 -28t-135 28t-102.5 76.5t-60.5 113.5q-12 43 -12 89q0 24 3 50zM89 348q-3 -24 -3 -46q0 -43 11 -82 q17 -60 55.5 -104.5t94 -70.5t123.5 -26t132.5 26t116 71t86.5 105t44 128q4 25 4 48q1 43 -11 81q-18 60 -57 105t-95.5 71.5t-124.5 26.5t-131.5 -26.5t-114.5 -71.5t-85.5 -105.5t-44.5 -129.5z" />
<glyph unicode="P" horiz-adv-x="455" d="M29 0l99 700h145q30 0 64.5 -10t62.5 -32q30 -22 46 -56q12 -24 11 -55q0 -13 -2 -27q-12 -85 -74.5 -135t-165.5 -50h-111l-47 -335h-28zM108 362h109q55 0 93.5 15t63 38.5t37.5 51t16 53.5q1 8 1 16q0 21 -8 42q-10 28 -32 49t-54 33.5t-72 12.5h-110z" />
<glyph unicode="Q" horiz-adv-x="842" d="M61 349q10 74 47.5 139.5t93 114t124.5 77t143 28.5t135.5 -28.5t103.5 -77t60 -114.5q13 -42 13 -88q0 -25 -4 -51q-8 -54 -30.5 -104t-56.5 -91.5t-78 -74t-93 -52.5h235l-4 -27h-307q-38 -8 -75 -8q-74 0 -135 28t-102.5 76.5t-60.5 113.5q-12 43 -12 89q0 24 3 50z M89 348q-3 -24 -3 -46q0 -43 11 -82q17 -60 55.5 -104.5t94 -70.5t122.5 -26q69 0 133 26t116 71t87 105t44 128q4 25 4 48q0 42 -11 81q-18 60 -57 105t-95.5 71.5t-124.5 26.5t-131.5 -26.5t-114.5 -71.5t-85.5 -105.5t-44.5 -129.5z" />
<glyph unicode="R" horiz-adv-x="501" d="M29 0l99 700h145q30 0 64.5 -10t62.5 -32q30 -22 46 -56q12 -24 11 -55q0 -13 -2 -27q-10 -71 -55.5 -118t-121.5 -62q29 -85 56.5 -170t56.5 -170h-30q-29 85 -57 169t-55 169q-21 -3 -42 -3h-103l-47 -335h-28zM108 362h109q55 0 93.5 15t63 38.5t37.5 51t16 53.5 q1 8 1 16q0 21 -8 42q-10 28 -32 49t-54 33.5t-72 12.5h-110z" />
<glyph unicode="S" horiz-adv-x="548" d="M36 84l21 19q13 -15 28.5 -30t35.5 -27t45 -19.5t57 -7.5q36 0 71 12t64 33.5t49 51.5t25 67q2 14 2 27q0 28 -10 50q-16 30 -44 50t-62.5 32t-65.5 22q-22 8 -47 19t-45.5 28t-32.5 43q-10 20 -10 48q0 7 1 15q3 33 17 66.5t39.5 60.5t62.5 43.5t85 16.5q38 0 74 -13 t71 -47q-5 -5 -9 -10.5t-9 -10.5q-8 8 -19.5 17.5t-27.5 17.5t-37.5 13.5t-48.5 5.5q-37 0 -66.5 -13t-51 -34t-34.5 -48t-17 -55q-2 -12 -2 -23q0 -16 4 -28q6 -21 21 -36t37.5 -26.5t50.5 -21.5q30 -11 68 -23.5t70 -34.5q32 -23 52 -58q14 -26 15 -62q0 -13 -2 -28 q-6 -44 -28 -80t-54.5 -61.5t-73 -39t-83.5 -13.5q-39 0 -70 10.5t-54 25t-38.5 30t-23.5 26.5z" />
<glyph unicode="T" horiz-adv-x="553" d="M45 673l4 27h553l-4 -27h-263l-95 -673h-28l96 673h-263z" />
<glyph unicode="U" horiz-adv-x="652" d="M80 226l66 474h28l-66 -471q-3 -22 -3 -41q-1 -26 5 -49q10 -39 33 -65.5t58.5 -40.5t79.5 -14q43 0 82.5 14t70 40.5t51.5 65.5t28 90l66 471h28l-66 -474q-8 -57 -32 -101t-59.5 -73.5t-79.5 -44.5t-93 -15q-50 0 -90 15t-66.5 44.5t-37.5 73.5q-6 25 -6 55q0 22 3 46z " />
<glyph unicode="V" horiz-adv-x="722" d="M105 700h29q45 -161 90.5 -321.5t91.5 -321.5q1 -7 2 -13.5t3 -13.5q3 7 6 13.5t7 13.5q91 161 181 321.5t181 321.5h29q-103 -184 -206.5 -366t-206.5 -366z" />
<glyph unicode="W" horiz-adv-x="1108" d="M105 700h29q45 -161 89.5 -321.5t92.5 -321.5q1 -7 2 -13.5t3 -13.5q51 105 111.5 206.5t117.5 204.5q-19 66 -36.5 129.5t-36.5 129.5h29q45 -161 89.5 -321.5t92.5 -321.5q2 -7 2.5 -13.5t2.5 -13.5q3 7 6.5 13.5t6.5 13.5q91 161 181.5 321.5t181.5 321.5h28 q-103 -184 -206.5 -366t-206.5 -366l-118 417q-2 6 -3 12.5t-3 12.5q-59 -111 -122 -221.5t-126 -220.5z" />
<glyph unicode="X" horiz-adv-x="700" d="M43 0q71 91 140.5 180t140.5 179q-43 86 -86 171l-86 170h33q39 -77 78 -153l78 -152q2 -4 3.5 -8t3.5 -8q3 4 5.5 8t5.5 8q60 76 119.5 152t119.5 153h33l-270 -345q45 -90 90.5 -177.5t90.5 -177.5h-34l-141 275q-8 14 -15 30.5t-15 30.5q-5 -9 -11 -16 q-63 -81 -125 -160t-125 -160h-33z" />
<glyph unicode="Y" horiz-adv-x="638" d="M90 700h34q44 -97 88.5 -193t87.5 -193l9 -27h1q4 7 7 13.5t7 13.5q72 97 142.5 193t142.5 193h34q-81 -110 -161 -218.5t-161 -218.5l-37 -263h-32l37 264q-50 109 -99.5 218t-99.5 218z" />
<glyph unicode="Z" horiz-adv-x="700" d="M81 0l3 27q147 162 292 323t293 323h-414q-31 0 -45 10q-11 8 -12 27q0 5 1 12l2 13h29l-2 -12q-2 -11 4 -17t23 -6h454l-4 -27q-147 -162 -292 -323t-293 -323h523l-3 -27h-559z" />
<glyph unicode="[" horiz-adv-x="338" d="M20 -149l125 895h169l-4 -27h-139l-118 -841h140l-4 -27h-169z" />
<glyph unicode="\" horiz-adv-x="333" d="M67 736h30q43 -190 85.5 -377.5t85.5 -377.5h-30q-43 190 -85.5 377.5t-85.5 377.5z" />
<glyph unicode="]" horiz-adv-x="342" d="M19 -149l4 27h139l118 841h-140l4 27h169l-125 -895h-169z" />
<glyph unicode="^" horiz-adv-x="470" d="M99 479q36 45 72.5 90.5t72.5 90.5q24 -45 47.5 -90.5t47.5 -90.5h-25q-19 35 -37.5 69t-38.5 69l-114 -138h-25z" />
<glyph unicode="_" horiz-adv-x="600" d="M98 0l3 27h400l-3 -27h-400z" />
<glyph unicode="`" horiz-adv-x="200" d="M-11 612h28q18 -33 35.5 -66.5t35.5 -66.5h-24q-20 33 -38.5 66.5t-36.5 66.5z" />
<glyph unicode="a" horiz-adv-x="500" d="M75 188q6 43 26.5 79t50.5 62t67.5 40t77.5 14q30 0 56 -8.5t46 -23.5t34 -35t20 -42q3 25 8 50t10 51h21l-52 -375h-25l6 50q2 13 4 25.5t4 26.5q-12 -22 -30.5 -41.5t-43 -34.5t-53 -24t-59.5 -9q-41 0 -74.5 15.5t-56 41.5t-32.5 62q-7 23 -7 47q0 14 2 29zM103 188 q-2 -13 -2 -25q-1 -21 5 -41q8 -30 28 -52.5t49 -35.5t64 -13t67.5 13t58.5 35.5t43.5 53t22.5 65.5q2 12 2 24q0 22 -6 42q-9 30 -28.5 53t-48.5 36t-64 13t-67.5 -13t-58.5 -36t-43 -53.5t-22 -65.5z" />
<glyph unicode="b" horiz-adv-x="528" d="M82 0l105 750h28l-60 -426q-2 -13 -4.5 -25t-4.5 -25q12 22 31 42t43 35t52.5 23.5t58.5 8.5q41 0 74.5 -15.5t56 -41.5t32.5 -62q7 -23 7 -47q0 -14 -2 -29q-6 -41 -26 -77t-50 -62t-67.5 -41t-78.5 -15q-63 1 -104 32.5t-52 76.5q-2 -14 -3.5 -26.5t-3.5 -25.5l-6 -50 h-26zM136 188q-2 -12 -2 -24q0 -22 6 -42q9 -30 28.5 -52.5t48.5 -35.5t64 -13t67.5 13t58 35.5t42.5 53t22 65.5q2 13 2 25q1 21 -5 41q-8 30 -28 53t-49 36t-64 13t-67.5 -13t-58.5 -36t-43 -53.5t-22 -65.5z" />
<glyph unicode="c" horiz-adv-x="385" d="M62 188q6 44 26 80t50 61.5t67.5 39.5t78.5 14q36 0 66 -11.5t52 -31.5l-10.5 -10.5l-10.5 -10.5q-20 17 -45 27t-56 10q-35 0 -67 -13t-58 -36t-43 -53.5t-22 -65.5q-2 -13 -2 -25q0 -21 6 -41q8 -30 27.5 -52.5t48.5 -35.5t64 -13q30 0 58 9.5t52 26.5l15 -21 q-29 -20 -61.5 -31.5t-67.5 -11.5q-41 0 -74.5 15.5t-55.5 41.5q-24 26 -34 62q-7 23 -6 47q0 14 2 29z" />
<glyph unicode="d" horiz-adv-x="523" d="M80 188q6 42 26 77.5t50 62t67.5 41t78.5 14.5q30 0 56 -8.5t46.5 -23.5t34 -35t18.5 -42q2 13 3 25t3 25l59 426h28l-105 -750h-26l7 50q2 13 4 25.5t4 26.5q-12 -22 -31 -41.5t-43 -34.5t-52.5 -24t-59.5 -9q-41 0 -74.5 15.5t-55.5 41.5q-24 26 -34 62q-7 23 -6 47 q0 14 2 29zM108 188q-2 -13 -2 -25q0 -21 6 -41q8 -30 27.5 -52.5t48.5 -35.5t64 -13t67.5 13t58.5 35.5t43 53t22 65.5q2 12 2 24q0 22 -6 42q-9 30 -28.5 53t-48.5 36t-64 13t-67 -13t-58 -36t-43 -53.5t-22 -65.5z" />
<glyph unicode="e" horiz-adv-x="451" d="M62 188q6 44 25 80t48.5 61.5t67.5 39.5t81 14q60 0 100.5 -37t51.5 -95q-86 -33 -171 -65t-170 -65q12 -45 49 -72.5t90 -27.5q33 0 64 12t57 33q3 -5 6.5 -10t7.5 -10q-30 -25 -65 -39t-74 -14q-41 0 -74.5 15.5t-55.5 41.5q-24 26 -34 62q-7 23 -6 47q0 14 2 29z M89 147q79 30 157.5 59.5t156.5 59.5q-14 40 -46 65t-77 25q-36 0 -67.5 -11.5t-56 -32.5t-41.5 -50t-23 -65q-3 -22 -3 -41v-9z" />
<glyph unicode="f" horiz-adv-x="283" d="M70 347l4 27h65l20 144q8 55 29.5 98t52 72t68.5 44.5t79 17.5l-4 -27q-34 0 -66.5 -14.5t-59.5 -40.5t-45.5 -63.5t-25.5 -84.5l-20 -146h127l-4 -27h-127l-48 -347h-28l48 347h-65z" />
<glyph unicode="g" horiz-adv-x="518" d="M73 -190q5 5 11.5 9.5t12.5 9.5q20 -27 54 -39t69 -12q33 0 64 14t56.5 39.5t43.5 61.5t24 80l11 74q2 14 5 27t5 27q-12 -22 -31 -41.5t-43.5 -34t-53 -23t-58.5 -8.5q-41 0 -74.5 15t-56 41.5t-32.5 61.5q-7 22 -7 47q0 14 2 29q6 44 26 80t50 61.5t67.5 39.5t78.5 14 q30 0 56 -8.5t46 -23.5t34 -35t20 -42q3 25 8 50t10 51h21l-55 -393l-1 -8q-8 -53 -28.5 -94t-49.5 -69.5t-65.5 -44t-75.5 -16.5q-42 2 -81.5 15.5t-62.5 44.5zM103 188q-2 -13 -2 -25q0 -21 5 -41q9 -30 28.5 -52.5t48.5 -35.5t64 -13t67.5 13t58.5 35.5t43.5 53 t22.5 65.5q2 12 2 24q0 22 -6 42q-9 30 -28.5 53t-48.5 36t-64 13t-67.5 -13t-58.5 -36t-43 -53.5t-22 -65.5z" />
<glyph unicode="h" horiz-adv-x="491" d="M110 0l105 750h28l-60 -428l-10 -45q27 48 74.5 76.5t104.5 28.5q54 0 82 -31q23 -25 22 -64q0 -8 -1 -17l-37 -270h-28l37 268q1 6 1 11q0 28 -17 49q-20 25 -63 27q-32 0 -62.5 -10.5t-55.5 -29.5t-42 -45.5t-21 -57.5l-29 -212h-28z" />
<glyph unicode="i" horiz-adv-x="183" d="M80 0l52 375h28l-52 -375h-28zM149 523q9 8 20 8t17 -8q5 -6 6 -14q0 -2 -1 -5q-2 -11 -10.5 -18.5t-19.5 -7.5t-17 8q-5 6 -5 13q0 15 10 24z" />
<glyph unicode="j" horiz-adv-x="225" d="M26 -161q29 26 49 64.5t27 88.5l54 383h28l-53 -381q-8 -58 -31 -101.5t-56 -72.5q-5 5 -9 9.5t-9 9.5zM173 523q9 8 20 8t17 -8q5 -6 5 -14v-5q-2 -11 -10.5 -18.5t-19.5 -7.5t-17 8q-5 5 -5 13q0 15 10 24z" />
<glyph unicode="k" horiz-adv-x="449" d="M84 0l105 750h27l-80 -567q63 52 122 100.5t122 100.5l15 -18q-43 -35 -81 -67.5t-80 -67.5q34 -58 67.5 -115.5t68.5 -115.5h-33q-32 54 -63.5 106t-63.5 106q-20 -16 -39.5 -32.5t-39.5 -32.5l-20 -147h-27z" />
<glyph unicode="l" horiz-adv-x="185" d="M80 0l105 750h28l-105 -750h-28z" />
<glyph unicode="m" horiz-adv-x="796" d="M110 0l52 375h26l-6 -44q-2 -14 -4 -27t-5 -27q27 48 74.5 76.5t104.5 28.5q51 0 78 -27.5t26 -72.5q27 45 74.5 72.5t102.5 27.5q54 0 81 -31q22 -25 22 -63q0 -8 -1 -18l-37 -270h-28l37 268q1 6 1 11q0 28 -17 49q-20 25 -62 27q-32 0 -62 -10.5t-54.5 -28.5 t-41.5 -43.5t-23 -55.5l-30 -217h-28l37 268q1 6 1 11q0 28 -17 49q-20 25 -63 27q-32 0 -62.5 -10.5t-55.5 -29.5t-42 -45.5t-21 -57.5l-29 -212h-28z" />
<glyph unicode="n" horiz-adv-x="495" d="M110 0l52 375h26l-6 -44q-2 -14 -4 -27t-5 -27q27 48 75 76.5t104 28.5q54 0 82 -31q23 -25 22 -64q0 -8 -1 -17l-37 -270h-28l37 268q1 6 1 11q0 28 -17 49q-20 25 -63 27q-32 0 -62.5 -10.5t-55.5 -29.5t-42 -45.5t-21 -57.5l-29 -212h-28z" />
<glyph unicode="o" d="M62 188q6 45 25.5 81t49 61.5t67.5 39.5t80 14q41 0 74.5 -15.5t57.5 -42.5q24 -26 34 -62q7 -23 6 -47q0 -14 -2 -29q-6 -46 -26 -82t-50 -61t-68 -38.5t-80 -13.5q-41 0 -74.5 15.5t-55.5 41.5q-24 26 -34 62q-7 23 -6 47q0 14 2 29zM90 188q-2 -12 -2 -24q0 -22 6 -42 q9 -30 28.5 -52.5t48 -35.5t63.5 -13q34 0 66.5 12t58.5 34t43.5 52.5t22.5 68.5q2 12 2 24q0 22 -6 42q-9 30 -28.5 53t-48.5 36t-64 13q-37 0 -69.5 -12t-57.5 -34.5t-41.5 -53.5t-21.5 -68z" />
<glyph unicode="p" horiz-adv-x="525" d="M31 -250l88 625h25q-3 -26 -7 -52t-7 -52q12 22 31 42.5t43.5 35.5t53 24t58.5 9q41 0 74.5 -15.5t56 -41.5t33.5 -62q6 -23 6 -47q0 -14 -2 -29q-6 -44 -26 -80t-50 -61.5t-68 -39.5t-79 -14q-31 0 -57 8.5t-45.5 23.5t-33 34.5t-18.5 41.5q-2 -12 -2.5 -24t-2.5 -23 l-42 -303h-29zM121 187q-2 -13 -2 -25q0 -21 5 -40q9 -31 28.5 -54t48.5 -36t64 -13t67.5 13t58.5 36t43 53.5t22 65.5q2 13 2 25q0 21 -6 40q-8 31 -27.5 53.5t-48.5 35.5t-64 13t-67.5 -13t-58.5 -35.5t-43 -53t-22 -65.5z" />
<glyph unicode="q" horiz-adv-x="512" d="M78 187q6 44 26 80t50 61.5t68 39.5t79 14q30 0 56 -9t46.5 -24t34 -35.5t19.5 -42.5q3 26 6.5 52t7.5 52h25l-88 -625h-29l43 303q2 11 4.5 23t5.5 24q-24 -46 -73.5 -77t-112.5 -31q-41 0 -74.5 15.5t-56 41.5t-33.5 61q-6 23 -6 48q0 14 2 29zM106 187q-2 -13 -2 -25 q0 -21 6 -40q8 -31 27.5 -54t48.5 -36t64 -13t67.5 13t58.5 36t43.5 53.5t22.5 65.5q2 13 2 24q0 22 -6 41q-9 31 -28.5 53.5t-48.5 35.5t-64 13t-67.5 -13t-58.5 -35.5t-43 -53t-22 -65.5z" />
<glyph unicode="r" horiz-adv-x="331" d="M110 0l52 375h26l-6 -44q-2 -14 -4 -27t-5 -27q29 49 77 76.5t99 28.5l-5 -27q-32 -1 -62 -12t-54 -30t-40.5 -45t-20.5 -56l-29 -212h-28z" />
<glyph unicode="s" horiz-adv-x="399" d="M87 39q5 5 10.5 9.5t11.5 9.5q12 -17 40 -28t54 -11q12 0 28 5t30.5 15t26 25t14.5 36q1 7 1 13q0 19 -9 31q-12 16 -32 25t-44 15.5t-44 16.5q-20 9 -32 27q-9 13 -9 35q0 7 1 15q4 25 16 44t29 32t36.5 19.5t37.5 6.5q21 0 49 -9.5t46 -33.5l-10 -10l-10 -10 q-12 17 -34.5 26.5t-44.5 9.5q-12 0 -26 -4t-26.5 -12t-21.5 -22t-12 -33q-1 -6 -1 -12q0 -17 10 -28q12 -14 32 -23t44 -16t44 -19q18 -12 30 -30q9 -14 9 -35q0 -8 -1 -16q-2 -18 -11.5 -37.5t-26 -36t-41 -27t-55.5 -10.5q-14 0 -29.5 2.5t-30.5 8t-27.5 14.5t-21.5 22z " />
<glyph unicode="t" horiz-adv-x="282" d="M89 343l4 27h88l35 249h27l-34 -249h121l-4 -27h-121l-48 -343h-27l47 343h-88z" />
<glyph unicode="u" horiz-adv-x="529" d="M124 105l38 270h28l-38 -268q0 -5 -1 -9q0 -29 18 -51q20 -25 62 -27q32 0 63 10.5t55.5 29.5t41.5 45.5t21 57.5l30 212h28l-52 -377h-28l7 55l9 45q-27 -48 -75 -76.5t-104 -28.5q-54 0 -81 31q-23 26 -23 66q0 7 1 15z" />
<glyph unicode="v" horiz-adv-x="500" d="M106 375h29q31 -85 63.5 -171.5t61.5 -173.5q53 87 109 173l112 172h28q-64 -100 -128 -199t-129 -199q-37 100 -73 199t-73 199z" />
<glyph unicode="w" horiz-adv-x="772" d="M108 375h29q30 -86 61.5 -172.5t60.5 -172.5q38 63 77.5 124.5t78.5 123.5q-9 24 -17.5 48.5t-17.5 48.5h29q30 -86 61.5 -172.5t60.5 -172.5q54 87 109 173t109 172h29q-64 -100 -127.5 -199t-127.5 -199q-24 69 -48.5 136.5t-48.5 136.5q-44 -69 -87.5 -136.5 t-87.5 -136.5q-35 100 -70.5 199t-72.5 199z" />
<glyph unicode="x" horiz-adv-x="403" d="M41 0q41 48 81 95t82 95q-27 47 -55 92.5t-55 92.5h35l50 -84t49 -84q37 42 72.5 83.5t71.5 83.5h34q-42 -48 -82.5 -95.5t-81.5 -95.5q28 -46 55 -91.5t55 -91.5h-34q-25 42 -50 83.5t-50 83.5q-36 -42 -71.5 -83.5t-70.5 -83.5h-35z" />
<glyph unicode="y" horiz-adv-x="489" d="M71 -250q41 62 80 123.5t79 123.5q-34 95 -68 189t-68 189h31q13 -36 29 -81.5t33 -93t33 -93t29 -81.5q23 36 52.5 81.5t59.5 93t59 93t52 81.5h31q-100 -157 -199.5 -312.5t-200.5 -312.5h-32z" />
<glyph unicode="z" horiz-adv-x="451" d="M42 0l3 27q91 81 175 160.5t174 160.5h-220q-32 0 -46 10q-11 8 -11 27q0 5 1 12l2 13h29l-2 -12q-1 -11 4.5 -17t22.5 -6h262l-4 -27q-90 -81 -174 -160.5t-175 -160.5h322l-3 -27h-360z" />
<glyph unicode="{" horiz-adv-x="282" d="M27 281l5 35q25 1 42.5 14.5t29 33.5t17.5 43.5t9 43.5l25 177q6 46 17 70t25.5 34.5t31 12t34.5 1.5h43l-4 -27h-55q-31 0 -44.5 -24.5t-21.5 -86.5l-21 -145q-6 -44 -16 -72.5t-21.5 -46.5t-25 -28t-26.5 -17q12 -7 22 -17.5t17 -29t8.5 -46.5t-4.5 -71l-21 -146 q-8 -61 -1 -85.5t38 -24.5h54l-3 -27h-43q-20 0 -37 1.5t-27.5 15t-13 43.5t5.5 87l21 147q3 20 3 43.5t-6 43.5t-19.5 33.5t-37.5 14.5z" />
<glyph unicode="|" horiz-adv-x="229" d="M31 -232l131 932h28l-131 -932h-28z" />
<glyph unicode="}" horiz-adv-x="320" d="M14 -148l3 27h55q31 0 44.5 24.5t21.5 85.5l26 176q4 33 14 56t22 38.5t25 24.5t23 15q-12 7 -22 17t-17 28t-8 46.5t5 72.5l20 145q8 62 1 86.5t-38 24.5h-54l3 27h43q18 0 34.5 -1t27.5 -11.5t15.5 -35t-1.5 -70.5l-21 -148q-3 -18 -5.5 -45.5t1 -53t17 -45t43.5 -20.5 l-5 -35q-30 -2 -49 -21t-30 -45t-16 -53t-7 -45l-21 -147q-6 -46 -17.5 -70.5t-25.5 -35t-30.5 -11.5t-34.5 -1h-42z" />
<glyph unicode="~" horiz-adv-x="489" d="M125 472q4 19 14 32.5t23 22t28 12.5t29 4q20 0 35 -10t29 -27t25.5 -23t25.5 -6q8 0 18.5 2t21 8t19 16.5t12.5 26.5q5 -1 9.5 -1t9.5 -1q-8 -38 -36.5 -54.5t-57.5 -16.5q-20 0 -35 10t-29 27q-13 17 -25 23t-26 6q-8 0 -18 -2t-20.5 -8t-19 -16.5t-12.5 -26.5 q-5 1 -10 1t-10 1z" />
<glyph unicode="&#xa1;" horiz-adv-x="200" d="M34 -210l82 584h27l-82 -584h-27zM120 485q2 11 11 18.5t18 7.5q11 0 17.5 -7.5t5.5 -18.5q-2 -12 -11 -19.5t-19 -7.5t-16.5 7.5t-5.5 19.5z" />
<glyph unicode="&#xa2;" horiz-adv-x="385" d="M36 188q5 37 23 70.5t44.5 59.5t60.5 42.5t71 20.5l8 57h28l-8 -55q33 -1 62.5 -12t50.5 -31l-10.5 -10.5l-10.5 -10.5q-39 35 -96 36l-46 -334q28 1 55 10.5t50 25.5l15 -21q-56 -40 -124 -42l-9 -62h-28l9 64q-36 4 -65.5 20.5t-49 42t-28 58.5t-2.5 71zM64 188 q-5 -32 2 -60t23.5 -50t41 -36.5t54.5 -18.5l46 329q-32 -3 -60 -17.5t-50.5 -36t-37.5 -50t-19 -60.5z" />
<glyph unicode="&#xa3;" horiz-adv-x="574" d="M-17 0l3 27h43q18 0 29 6.5t19 22.5t13 43t11 68l19 136h-65l4 28h65l24 169q10 70 61 102t129 32q33 0 57.5 -7t41.5 -19t28.5 -28.5t18.5 -36.5l-12 -6t-11 -6q-8 20 -18 34.5t-24.5 23.5t-35 13.5t-49.5 4.5q-41 0 -69.5 -8.5t-47 -23t-28.5 -34t-13 -42.5l-24 -168 h127l-4 -28h-127l-21 -151l-5 -32q-4 -29 -11.5 -54t-23.5 -39h199h33q61 0 86.5 10.5t30.5 41.5l8 55h28l-7 -48q-2 -17 -6 -32.5t-17 -27.5t-38 -19t-69 -7h-352z" />
<glyph unicode="&#xa4;" horiz-adv-x="500" d="M86 234l43 38q-12 18 -17.5 40.5t-2.5 48.5q4 24 14.5 45.5t27.5 39.5q-8 9 -15 17.5t-15 17.5l23 20l30 -35q20 15 43.5 24t49.5 9q25 0 46.5 -9t35.5 -25l41 35l16 -19l-39 -35q12 -17 17 -39t1 -46q-7 -50 -45 -88l33 -38l-23 -20q-8 10 -16.5 19t-16.5 19 q-41 -30 -90 -30q-48 0 -80 29l-44 -38zM137 361q-3 -23 3 -43t18.5 -35t31 -24t41.5 -9t44.5 9t38.5 24t28.5 35t14.5 43t-2.5 43t-18.5 35t-31.5 24t-41.5 9t-44 -9t-38 -24t-29 -35t-15 -43z" />
<glyph unicode="&#xa5;" horiz-adv-x="638" d="M90 700h34q44 -97 88 -193t88 -193l9 -27h1q4 7 7 13.5t7 13.5q72 97 142.5 193t142.5 193h34q-76 -103 -151.5 -205t-151.5 -205h134l-4 -27h-149l-19 -136h149l-4 -27h-149l-14 -100h-32l14 100h-152l4 27h152l19 136h-152l4 27h136q-48 103 -94 205t-93 205z" />
<glyph unicode="&#xa6;" horiz-adv-x="215" d="M29 -233l49 350h28l-49 -350h-28zM111 350l49 350h28l-49 -350h-28z" />
<glyph unicode="&#xa7;" horiz-adv-x="500" d="M138 344q0 23 8.5 45t24 41t37.5 32q26 14 54 14t51 -11q-12 25 -23 50.5t-22 51.5t-15 45t-3 33t6.5 24.5t13.5 18.5q14 15 37.5 27t42.5 21q2 -5 4.5 -11t5.5 -12q-14 -8 -26 -14t-26 -14q-28 -15 -29 -40.5t20 -75.5h1q17 -38 33 -75.5t33 -75.5q10 -21 9.5 -43.5 t-8.5 -44.5t-24 -40.5t-38 -31.5q-26 -15 -54 -15.5t-51 11.5l45 -102q11 -26 15.5 -45t3 -33.5t-7 -25t-13.5 -18.5q-14 -16 -37 -27.5t-42 -20.5q-2 6 -4.5 12t-5.5 12q14 7 26 13.5t26 13.5q28 15 29 41.5t-22 78.5q-22 48 -37 82t-28 65q-10 21 -10 44zM168 363 q-3 -22 4 -42q8 -27 31 -40.5t52 -11.5q19 1 36 10.5t29.5 23.5t20 31t7.5 35q0 20 -7 36t-19.5 27t-28.5 16t-34 4q-26 -2 -45.5 -15.5t-31 -32.5t-14.5 -41z" />
<glyph unicode="&#xa8;" horiz-adv-x="370" d="M75 504q2 11 10.5 19t19.5 8t18 -8t5 -19t-10.5 -18.5t-19.5 -7.5t-18 7.5t-5 18.5zM240 504q2 11 10.5 19t19.5 8t18 -8t5 -19t-10.5 -18.5t-19.5 -7.5t-18 7.5t-5 18.5z" />
<glyph unicode="&#xa9;" horiz-adv-x="793" d="M142 372q8 55 34.5 102t66 81.5t89 53.5t103.5 19t98 -19t74 -53.5t43.5 -81.5t5.5 -102t-34.5 -102t-65.5 -81t-88.5 -53t-103.5 -19t-98.5 19t-74.5 53t-43.5 81t-5.5 102zM162 371q-7 -50 5.5 -93.5t40.5 -75t68.5 -49.5t89.5 -18t95 18t82.5 49.5t61 75t31.5 93.5 q7 52 -5.5 95.5t-40 75.5t-68.5 50t-90 18t-94.5 -18t-82 -50t-61.5 -75.5t-32 -95.5zM244 375q4 34 21 63.5t42 51.5t56.5 34.5t64.5 12.5q44 0 79 -22q-2 -3 -4 -5.5t-4 -5.5q-30 21 -73 21q-31 0 -59.5 -12t-51.5 -32.5t-39 -48t-20 -58.5t4 -58t25 -47t42.5 -31.5 t55.5 -11.5q42 0 79 20l6 -10q-20 -11 -41.5 -17t-44.5 -6q-33 0 -61 13t-46.5 35t-27 51.5t-3.5 62.5z" />
<glyph unicode="&#xaa;" horiz-adv-x="585" d="M96 357q4 31 19 57t36.5 44.5t48.5 28.5t56 10q22 0 40.5 -6t33 -17t24.5 -25.5t15 -29.5q2 18 5.5 36t7.5 36h15l-38 -270h-18l5 36q1 9 2.5 18t2.5 20q-8 -16 -21.5 -30t-31 -25t-38 -17.5t-43.5 -6.5q-29 0 -53.5 11t-40.5 30t-23.5 44.5t-3.5 55.5zM116 357 q-3 -26 3 -48t20 -38t35 -25.5t46 -9.5t48.5 9.5t42.5 25.5t31.5 38t16.5 48q3 25 -3.5 47t-20.5 38.5t-35 26t-46 9.5t-48.5 -9.5t-42.5 -26t-31 -38.5t-16 -47z" />
<glyph unicode="&#xab;" horiz-adv-x="601" d="M117 239q48 41 96.5 80.5t96.5 80.5l-4 -33q-36 -32 -72.5 -64t-72.5 -64q27 -33 54 -65.5t54 -64.5l-4 -32zM288 239q48 41 96.5 80.5t96.5 80.5l-4 -32q-36 -32 -72.5 -64.5t-72.5 -64.5q27 -33 54 -65.5t54 -64.5l-4 -32z" />
<glyph unicode="&#xac;" horiz-adv-x="559" d="M103 219l3 23h360l-13 -94h-28l10 71h-332z" />
<glyph unicode="&#xad;" horiz-adv-x="300" d="M51 177l3 27h184l-3 -27h-184z" />
<glyph unicode="&#xae;" horiz-adv-x="801" d="M142 372q8 55 34.5 102t66 81.5t89 53.5t103.5 19t98 -19t74 -53.5t43.5 -81.5t5.5 -102t-34.5 -102t-65.5 -81t-88.5 -53t-103.5 -19t-98.5 19t-74.5 53t-43.5 81t-5.5 102zM162 371q-7 -50 5.5 -93.5t40.5 -75t68.5 -49.5t89.5 -18t95 18t82.5 49.5t61 75t31.5 93.5 q7 52 -5.5 95.5t-40 75.5t-68.5 50t-90 18t-94.5 -18t-82 -50t-61.5 -75.5t-32 -95.5zM308 210l46 331h69q14 0 30.5 -4.5t30 -15t21 -26.5t4.5 -39q-5 -34 -26.5 -56t-57.5 -29q14 -41 27 -81t27 -80h-15q-13 40 -26 79.5t-26 80.5q-5 -1 -10 -1.5t-10 -0.5h-49l-22 -158 h-13zM345 381h51q26 0 44.5 7t30 18.5t17.5 24.5t8 25q4 29 -18 50.5t-60 21.5h-52z" />
<glyph unicode="&#xaf;" horiz-adv-x="399" d="M83 489l3 22h230l-3 -22h-230z" />
<glyph unicode="&#xb0;" horiz-adv-x="282" d="M55 559q5 35 32 58.5t62 23.5q34 0 54 -23.5t15 -58.5q-5 -34 -31 -57t-61 -23t-55.5 23t-15.5 57zM78 560q-4 -26 11 -42.5t40 -16.5t45 16.5t23 42.5q3 25 -12 42t-39 17q-26 0 -45.5 -17t-22.5 -42z" />
<glyph unicode="&#xb1;" horiz-adv-x="524" d="M54 129l4 27h360l-4 -27h-360zM90 378l3 27h166l24 166h28l-24 -166h166l-3 -27h-166l-24 -167h-28l24 167h-166z" />
<glyph unicode="&#xb2;" horiz-adv-x="398" d="M41 185q36 31 70 60.5t61 57.5t44.5 54.5t21.5 49.5q3 25 -2 42.5t-15 28t-22.5 15t-24.5 4.5q-23 0 -39.5 -8.5t-27 -20.5t-15.5 -26.5t-7 -26.5q-4 -34 12 -55q-2 -3 -4.5 -4.5t-4.5 -3.5q-10 11 -14.5 27t-2.5 36q3 20 11.5 37t22 30t31.5 20.5t40 7.5q20 0 35.5 -7.5 t25.5 -20.5t14 -31t1 -38q-4 -28 -21 -55.5t-42 -54t-54.5 -53t-57.5 -52.5h166l-2 -13h-200z" />
<glyph unicode="&#xb3;" horiz-adv-x="419" d="M47 216q2 3 5.5 5.5t5.5 5.5q10 -13 25 -22t34 -9q18 0 35.5 7.5t31.5 19.5t23 28t12 34q2 18 -3 34t-15.5 27.5t-25.5 18.5t-33 7q-9 0 -17 -3t-15 -8q29 34 57.5 66.5t58.5 65.5h-132l2 14h158q-28 -31 -55 -61.5t-55 -61.5q21 0 38.5 -7.5t29.5 -21t17.5 -31.5 t2.5 -39q-3 -22 -13.5 -40.5t-26 -32t-35.5 -21.5t-41 -8q-22 0 -39.5 9t-29.5 24z" />
<glyph unicode="&#xb4;" horiz-adv-x="229" d="M90 479q27 33 54.5 66.5t54.5 66.5h30q-29 -33 -57.5 -66.5t-56.5 -66.5h-25z" />
<glyph unicode="&#xb5;" horiz-adv-x="545" d="M69 -201l81 576h28l-38 -268q-4 -35 16.5 -60t62.5 -27q32 0 63 10.5t55.5 29.5t41.5 45.5t21 57.5l30 212h28l-53 -377h-28l8 55l9 45q-27 -48 -75 -76.5t-104 -28.5q-32 0 -53.5 12t-31.5 34l-33 -240h-28z" />
<glyph unicode="&#xb6;" horiz-adv-x="501" d="M67 586q5 34 22 64t42 52t56.5 35t65.5 13h191l-105 -750h-28l101 723h-135l-101 -723h-28l59 423q-34 0 -62 12.5t-47 34.5t-27.5 52t-3.5 64z" />
<glyph unicode="&#xb7;" horiz-adv-x="164" d="M59 280q2 11 10.5 19t19.5 8t18 -8t5 -19t-10.5 -18.5t-19.5 -7.5t-18 7.5t-5 18.5z" />
<glyph unicode="&#xb8;" horiz-adv-x="452" d="M113 -167q6 2 11.5 4t11.5 4q3 -20 18 -33t38 -13q30 0 50.5 20t25.5 49q3 26 -7.5 40.5t-24 25t-24.5 21t-8 29.5l3 20h21l-1 -6q-2 -14 1 -22.5t8 -14.5t12 -10t13 -8q20 -15 26.5 -34t4.5 -35q-7 -50 -36 -74t-66 -24q-28 0 -49.5 15t-27.5 46z" />
<glyph unicode="&#xb9;" horiz-adv-x="254" d="M58 471l2 12h61l-42 -299h-13l40 287h-48z" />
<glyph unicode="&#xba;" d="M92 357q4 32 18 58t35.5 44.5t49 28.5t57.5 10q29 0 53.5 -11t41.5 -30.5t24.5 -45.5t2.5 -54q-4 -34 -18.5 -60t-36 -44t-49 -27.5t-57.5 -9.5t-54 11t-40 30t-24 44.5t-3 55.5zM112 357q-4 -26 2.5 -48t20.5 -38t35 -25.5t46 -9.5q24 0 47.5 8.5t42.5 24.5t31.5 38 t16.5 50q3 25 -3.5 47t-20.5 38.5t-35 26t-46 9.5q-27 0 -50.5 -9t-41.5 -25t-29.5 -38.5t-15.5 -48.5z" />
<glyph unicode="&#xbb;" horiz-adv-x="601" d="M94 77l4 32q36 32 72.5 64.5t73.5 65.5q-28 32 -55 64.5t-54 64.5l4 32q38 -41 74.5 -80.5t74.5 -80.5zM265 77l4 32q36 32 72.5 64.5t73.5 65.5q-28 32 -55 64l-54 64l4 33q38 -41 74.5 -80.5t74.5 -80.5z" />
<glyph unicode="&#xbc;" horiz-adv-x="968" d="M132 608l3 19h94l-65 -461h-20l62 442h-74zM234 -19q97 190 192 377t192 377h28q-97 -190 -192 -377t-192 -377h-28zM364 136q81 89 161 177t161 177l-47 -334h72l-3 -20h-72l-19 -136h-21l19 136h-251zM409 156h209l38 273q-62 -69 -123 -136.5t-124 -136.5z" />
<glyph unicode="&#xbd;" horiz-adv-x="1069" d="M122 608l3 19h94l-65 -461h-20l62 442h-74zM234 -19q97 190 192 377t192 377h28q-97 -190 -192 -377t-192 -377h-28zM389 0q52 44 100.5 86.5t87 82.5t63.5 77.5t30 71.5q5 36 -2 61t-21.5 40t-32.5 21t-35 6q-33 0 -56 -12t-38 -29t-22.5 -37.5t-10.5 -37.5 q-6 -49 18 -80q-4 -3 -7.5 -5.5t-6.5 -5.5q-14 16 -20.5 39t-3.5 52q5 28 17 52.5t31 43t44.5 29t57.5 10.5q29 0 51 -10.5t36 -29t20 -44t1 -55.5q-5 -40 -29.5 -79t-60 -77t-77.5 -76t-82 -75h237l-2 -19h-287z" />
<glyph unicode="&#xbe;" horiz-adv-x="1276" d="M103 205q4 3 9 8l9 9q14 -21 38 -34.5t54 -13.5q29 0 56 11t48.5 30t36.5 44t19 53t-4 53.5t-24.5 44t-40.5 29t-52 10.5q-14 0 -26.5 -4.5t-24.5 -12.5q47 53 91.5 104.5t90.5 102.5h-206l3 22h247q-43 -49 -85.5 -96.5t-86.5 -95.5q34 -1 61 -13t46 -33t28 -49.5 t4 -61.5q-4 -33 -21 -62t-42 -50.5t-55.5 -34t-63.5 -12.5q-35 0 -63 14t-46 38zM404 -19q97 190 192 377.5t192 377.5h28q-97 -190 -192 -377.5t-192 -377.5h-28zM512 136q81 89 161 177t161 177l-47 -334h73l-3 -20h-73l-19 -136h-21l20 136h-252zM557 156h210l38 273 q-62 -69 -123.5 -136.5t-124.5 -136.5z" />
<glyph unicode="&#xbf;" horiz-adv-x="418" d="M14 2q8 54 40 95t82 73q20 14 38 23.5t32.5 22t24.5 31t15 50.5l11 78h28l-14 -97q-4 -31 -18 -50t-34.5 -34t-45.5 -28.5t-52 -34.5q-35 -27 -54.5 -59.5t-24.5 -69.5q-5 -36 3.5 -66.5t28 -53t48.5 -35.5t64 -13q59 0 107.5 32t72.5 86l12 -4l12 -4q-13 -27 -33.5 -52 t-47 -44t-58.5 -30t-68 -11q-41 0 -75 15.5t-56.5 42t-33 62t-4.5 75.5zM261 493q2 11 11 18.5t19 7.5q9 0 16 -7.5t5 -18.5q-1 -12 -10 -19.5t-18 -7.5q-10 0 -17.5 7.5t-5.5 19.5z" />
<glyph unicode="&#xc0;" horiz-adv-x="740" d="M8 0q103 184 206.5 366t206.5 366l207 -732h-28q-23 77 -44 154t-44 154h-302l-86 -154t-87 -154h-29zM226 335h278q-21 78 -42.5 154t-43.5 154l-6 27q-2 -6 -6 -14t-7 -13q-42 -79 -85 -154.5t-88 -153.5zM336 883h28q18 -33 35.5 -66.5t35.5 -66.5h-24 q-20 33 -38.5 66.5t-36.5 66.5z" />
<glyph unicode="&#xc1;" horiz-adv-x="740" d="M8 0q103 184 206.5 366t206.5 366l207 -732h-28q-23 77 -44 154t-44 154h-302l-86 -154t-87 -154h-29zM226 335h278q-21 78 -42.5 154t-43.5 154l-6 27q-2 -6 -6 -14t-7 -13q-42 -79 -85 -154.5t-88 -153.5zM409 750q27 33 54.5 66.5t54.5 66.5h30q-29 -33 -57.5 -66.5 t-56.5 -66.5h-25z" />
<glyph unicode="&#xc2;" horiz-adv-x="740" d="M8 0q103 184 206.5 366t206.5 366l207 -732h-28q-23 77 -44 154t-44 154h-302l-86 -154t-87 -154h-29zM226 335h278q-21 78 -42.5 154t-43.5 154l-6 27q-2 -6 -6 -14t-7 -13q-42 -79 -85 -154.5t-88 -153.5zM303 750q36 45 72.5 90.5t72.5 90.5q24 -45 47.5 -90.5 t47.5 -90.5h-25q-19 35 -37.5 69t-38.5 69l-114 -138h-25z" />
<glyph unicode="&#xc3;" horiz-adv-x="740" d="M8 0q103 184 206.5 366t206.5 366l207 -732h-28q-23 77 -44 154t-44 154h-302l-86 -154t-87 -154h-29zM226 335h278q-21 78 -42.5 154t-43.5 154l-6 27q-2 -6 -6 -14t-7 -13q-42 -79 -85 -154.5t-88 -153.5zM280 763q4 19 14 32.5t23 22t28 12.5t29 4q20 0 35 -10t29 -27 t25.5 -23t25.5 -6q8 0 18.5 2t21 8t19 16.5t12.5 26.5q5 -1 9.5 -1t9.5 -1q-8 -38 -36.5 -54.5t-57.5 -16.5q-20 0 -35 10t-29 27q-13 17 -25 23t-26 6q-8 0 -18 -2t-20.5 -8t-19 -16.5t-12.5 -26.5q-5 1 -10 1t-10 1z" />
<glyph unicode="&#xc4;" horiz-adv-x="740" d="M8 0q103 184 206.5 366t206.5 366l207 -732h-28q-23 77 -44 154t-44 154h-302l-86 -154t-87 -154h-29zM226 335h278q-21 78 -42.5 154t-43.5 154l-6 27q-2 -6 -6 -14t-7 -13q-42 -79 -85 -154.5t-88 -153.5zM322 794q2 11 10.5 19t19.5 8t18 -8t5 -19t-10.5 -18.5 t-19.5 -7.5t-18 7.5t-5 18.5zM487 794q2 11 10.5 19t19.5 8t18 -8t5 -19t-10.5 -18.5t-19.5 -7.5t-18 7.5t-5 18.5z" />
<glyph unicode="&#xc5;" horiz-adv-x="740" d="M8 0q103 184 206.5 366t206.5 366l207 -732h-28q-23 77 -44 154t-44 154h-302l-86 -154t-87 -154h-29zM226 335h278q-21 78 -42.5 154t-43.5 154l-6 27q-2 -6 -6 -14t-7 -13q-42 -79 -85 -154.5t-88 -153.5zM372 835q4 29 26 48.5t51 19.5t46 -19.5t13 -48.5 q-5 -29 -27 -48.5t-51 -19.5t-46 19.5t-12 48.5zM394 835q-2 -19 9.5 -32.5t29.5 -13.5q19 0 34.5 13.5t18.5 32.5q2 18 -10 31.5t-30 13.5q-19 0 -34.5 -13.5t-17.5 -31.5z" />
<glyph unicode="&#xc6;" horiz-adv-x="790" d="M10 0q100 176 197.5 350t197.5 350h329l-4 -27h-298l-44 -307h260l-4 -27h-259l-45 -312h313l-4 -27h-340l43 306h-140q-44 -77 -86.5 -153t-86.5 -153h-29zM227 333h129l43 309q-39 -79 -84 -155t-88 -154z" />
<glyph unicode="&#xc7;" horiz-adv-x="670" d="M76 349q10 74 47.5 139.5t93 114t124.5 77t143 28.5q51 0 94.5 -13t81.5 -37q-5 -6 -9.5 -11.5t-9.5 -11.5q-33 23 -74 34.5t-86 11.5q-68 0 -132 -26.5t-115 -71.5t-85.5 -105.5t-44.5 -129.5q-9 -68 8 -128t55.5 -104.5t94 -70.5t123.5 -26q46 0 90 12t85 34l12 -23 q-42 -23 -89 -36t-97 -14q-1 -13 2 -21t8 -14t11.5 -10t12.5 -8q20 -15 27 -34t5 -35q-8 -50 -36.5 -74t-65.5 -24q-28 0 -49.5 15t-27.5 46q5 2 11 4t11 4q3 -20 18 -33t39 -13q29 0 49.5 20t25.5 49q4 26 -6.5 40.5t-24 25t-25 21t-8.5 29.5l2 13q-71 3 -128.5 32.5 t-96.5 77.5t-56.5 111t-7.5 135z" />
<glyph unicode="&#xc8;" horiz-adv-x="601" d="M40 0l99 700h410l-4 -27h-382l-44 -307h344l-4 -27h-343l-45 -312h397l-4 -27h-424zM253 883h28q18 -33 35.5 -66.5t35.5 -66.5h-24q-20 33 -38.5 66.5t-36.5 66.5z" />
<glyph unicode="&#xc9;" horiz-adv-x="601" d="M40 0l99 700h410l-4 -27h-382l-44 -307h344l-4 -27h-343l-45 -312h397l-4 -27h-424zM316 750q27 33 54.5 66.5t54.5 66.5h30q-29 -33 -57.5 -66.5t-56.5 -66.5h-25z" />
<glyph unicode="&#xca;" horiz-adv-x="601" d="M40 0l99 700h410l-4 -27h-382l-44 -307h344l-4 -27h-343l-45 -312h397l-4 -27h-424zM243 750q36 45 72.5 90.5t72.5 90.5q24 -45 47.5 -90.5t47.5 -90.5h-25q-19 35 -37.5 69t-38.5 69l-114 -138h-25z" />
<glyph unicode="&#xcb;" horiz-adv-x="601" d="M40 0l99 700h410l-4 -27h-382l-44 -307h344l-4 -27h-343l-45 -312h397l-4 -27h-424zM249 794q2 11 10.5 19t19.5 8t18 -8t5 -19t-10.5 -18.5t-19.5 -7.5t-18 7.5t-5 18.5zM414 794q2 11 10.5 19t19.5 8t18 -8t5 -19t-10.5 -18.5t-19.5 -7.5t-18 7.5t-5 18.5z" />
<glyph unicode="&#xcc;" horiz-adv-x="236" d="M55 0l99 700h28l-99 -700h-28zM81 883h28q18 -33 35.5 -66.5t35.5 -66.5h-24q-20 33 -38.5 66.5t-36.5 66.5z" />
<glyph unicode="&#xcd;" horiz-adv-x="236" d="M55 0l99 700h28l-99 -700h-28zM156 750q27 33 54.5 66.5t54.5 66.5h30q-29 -33 -57.5 -66.5t-56.5 -66.5h-25z" />
<glyph unicode="&#xce;" horiz-adv-x="246" d="M55 0l99 700h28l-99 -700h-28zM58 750q36 45 72.5 90.5t72.5 90.5q24 -45 47.5 -90.5t47.5 -90.5h-25q-19 35 -37.5 69t-38.5 69l-114 -138h-25z" />
<glyph unicode="&#xcf;" horiz-adv-x="236" d="M55 0l99 700h28l-99 -700h-28zM62 794q2 11 10.5 19t19.5 8t18 -8t5 -19t-10.5 -18.5t-19.5 -7.5t-18 7.5t-5 18.5zM227 794q2 11 10.5 19t19.5 8t18 -8t5 -19t-10.5 -18.5t-19.5 -7.5t-18 7.5t-5 18.5z" />
<glyph unicode="&#xd0;" horiz-adv-x="646" d="M20 339l4 27h59l47 334h140q73 0 135 -24.5t105 -70t62.5 -110.5t8.5 -145q-9 -63 -37.5 -125.5t-82 -112.5t-134 -81t-191.5 -31h-105l48 339h-59zM62 27h95q77 0 144.5 22t120 63.5t87 101.5t45.5 136q10 74 -7 134t-57 102t-101.5 64.5t-139.5 22.5h-95l-44 -307h216 l-4 -27h-215z" />
<glyph unicode="&#xd1;" horiz-adv-x="813" d="M50 0l103 732q119 -171 236.5 -337.5t235.5 -336.5q4 -7 8 -13t8 -13q0 8 0.5 16t0.5 16l90 636h28l-103 -732q-119 168 -237 334.5t-237 335.5q-3 7 -7 13t-8 13q0 -8 -0.5 -16t-0.5 -16l-89 -632h-28zM329 765q4 19 14 32.5t23 22t28 12.5t29 4q20 0 35 -10t29 -27 t25.5 -23t25.5 -6q8 0 18.5 2t21 8t19 16.5t12.5 26.5q5 -1 9.5 -1t9.5 -1q-8 -38 -36.5 -54.5t-57.5 -16.5q-20 0 -35 10t-29 27q-13 17 -25 23t-26 6q-8 0 -18 -2t-20.5 -8t-19 -16.5t-12.5 -26.5q-5 1 -10 1t-10 1z" />
<glyph unicode="&#xd2;" horiz-adv-x="839" d="M61 349q10 74 47.5 139.5t93 114t124.5 77t143 28.5t135.5 -28.5t103.5 -77t60.5 -114t8.5 -139.5t-47.5 -139t-93 -113.5t-125 -76.5t-143.5 -28t-135 28t-102.5 76.5t-60.5 113.5t-9 139zM89 348q-9 -68 8 -128t55.5 -104.5t94 -70.5t123.5 -26t132.5 26t116 71 t86.5 105t44 128q10 68 -7.5 128.5t-56.5 105.5t-95.5 71.5t-124.5 26.5t-131.5 -26.5t-114.5 -71.5t-85.5 -105.5t-44.5 -129.5zM379 883h28q18 -33 35.5 -66.5t35.5 -66.5h-24q-20 33 -38.5 66.5t-36.5 66.5z" />
<glyph unicode="&#xd3;" horiz-adv-x="840" d="M61 349q10 74 47.5 139.5t93 114t124.5 77t143 28.5t135.5 -28.5t103.5 -77t60.5 -114t8.5 -139.5t-47.5 -139t-93 -113.5t-125 -76.5t-143.5 -28t-135 28t-102.5 76.5t-60.5 113.5t-9 139zM89 348q-9 -68 8 -128t55.5 -104.5t94 -70.5t123.5 -26t132.5 26t116 71 t86.5 105t44 128q10 68 -7.5 128.5t-56.5 105.5t-95.5 71.5t-124.5 26.5t-131.5 -26.5t-114.5 -71.5t-85.5 -105.5t-44.5 -129.5zM468 750q27 33 54.5 66.5t54.5 66.5h30q-29 -33 -57.5 -66.5t-56.5 -66.5h-25z" />
<glyph unicode="&#xd4;" horiz-adv-x="839" d="M61 349q10 74 47.5 139.5t93 114t124.5 77t143 28.5t135.5 -28.5t103.5 -77t60.5 -114t8.5 -139.5t-47.5 -139t-93 -113.5t-125 -76.5t-143.5 -28t-135 28t-102.5 76.5t-60.5 113.5t-9 139zM89 348q-9 -68 8 -128t55.5 -104.5t94 -70.5t123.5 -26t132.5 26t116 71 t86.5 105t44 128q10 68 -7.5 128.5t-56.5 105.5t-95.5 71.5t-124.5 26.5t-131.5 -26.5t-114.5 -71.5t-85.5 -105.5t-44.5 -129.5zM358 750q36 45 72.5 90.5t72.5 90.5q24 -45 47.5 -90.5t47.5 -90.5h-25q-19 35 -37.5 69t-38.5 69l-114 -138h-25z" />
<glyph unicode="&#xd5;" horiz-adv-x="839" d="M61 349q10 74 47.5 139.5t93 114t124.5 77t143 28.5t135.5 -28.5t103.5 -77t60.5 -114t8.5 -139.5t-47.5 -139t-93 -113.5t-125 -76.5t-143.5 -28t-135 28t-102.5 76.5t-60.5 113.5t-9 139zM89 348q-9 -68 8 -128t55.5 -104.5t94 -70.5t123.5 -26t132.5 26t116 71 t86.5 105t44 128q10 68 -7.5 128.5t-56.5 105.5t-95.5 71.5t-124.5 26.5t-131.5 -26.5t-114.5 -71.5t-85.5 -105.5t-44.5 -129.5zM322 799q4 19 14 32.5t23 22t28 12.5t29 4q20 0 35 -10t29 -27t25.5 -23t25.5 -6q8 0 18.5 2t21 8t19 16.5t12.5 26.5q5 -1 9.5 -1t9.5 -1 q-8 -38 -36.5 -54.5t-57.5 -16.5q-20 0 -35 10t-29 27q-13 17 -25 23t-26 6q-8 0 -18 -2t-20.5 -8t-19 -16.5t-12.5 -26.5q-5 1 -10 1t-10 1z" />
<glyph unicode="&#xd6;" horiz-adv-x="839" d="M61 349q10 74 47.5 139.5t93 114t124.5 77t143 28.5t135.5 -28.5t103.5 -77t60.5 -114t8.5 -139.5t-47.5 -139t-93 -113.5t-125 -76.5t-143.5 -28t-135 28t-102.5 76.5t-60.5 113.5t-9 139zM89 348q-9 -68 8 -128t55.5 -104.5t94 -70.5t123.5 -26t132.5 26t116 71 t86.5 105t44 128q10 68 -7.5 128.5t-56.5 105.5t-95.5 71.5t-124.5 26.5t-131.5 -26.5t-114.5 -71.5t-85.5 -105.5t-44.5 -129.5zM362 794q2 11 10.5 19t19.5 8t18 -8t5 -19t-10.5 -18.5t-19.5 -7.5t-18 7.5t-5 18.5zM527 794q2 11 10.5 19t19.5 8t18 -8t5 -19t-10.5 -18.5 t-19.5 -7.5t-18 7.5t-5 18.5z" />
<glyph unicode="&#xd7;" horiz-adv-x="500" d="M109 20q34 29 67 58.5t67 59.5l-100 116l22 20l100 -117q34 30 67.5 59t67.5 59q7 -11 17 -20q-34 -29 -67.5 -58.5t-66.5 -58.5q25 -29 50 -59t50 -59l-22 -20q-26 29 -51 59t-51 59q-34 -29 -66.5 -59t-66.5 -59q-10 9 -17 20z" />
<glyph unicode="&#xd8;" horiz-adv-x="840" d="M57 7q20 20 40 41t41 41q-46 48 -67 115t-10 145q10 74 47.5 139.5t93 114t124.5 77t143 28.5q61 0 113 -19t92 -54q19 19 37 37.5t37 37.5q7 -9 16 -16q-19 -19 -36.5 -37t-36.5 -37q51 -50 74 -120t12 -151q-10 -74 -47.5 -139t-93 -113.5t-125 -76.5t-143.5 -28 q-64 0 -118 21t-96 59q-20 -20 -40 -41t-40 -41q-4 5 -8 8.5t-9 8.5zM89 348q-10 -72 8.5 -133t60.5 -106q125 128 247.5 252.5t247.5 252.5q-37 32 -84.5 49.5t-103.5 17.5q-68 0 -131.5 -26.5t-114.5 -71.5t-85.5 -105.5t-44.5 -129.5zM175 93q37 -35 86 -54.5t108 -19.5 q69 0 133 26t116 71t87 105t44 128q11 75 -11 139t-68 110q-125 -127 -248 -252.5t-247 -252.5z" />
<glyph unicode="&#xd9;" horiz-adv-x="652" d="M82 226l66 474h28l-66 -471q-7 -51 2.5 -90t32.5 -65.5t58.5 -40.5t79.5 -14q43 0 82.5 14t70 40.5t51.5 65.5t28 90l66 471h28l-66 -474q-8 -57 -32 -101t-59.5 -73.5t-79.5 -44.5t-93 -15q-50 0 -90 15t-66.5 44.5t-37.5 73.5t-3 101zM284 883h28q18 -33 35.5 -66.5 t35.5 -66.5h-24q-20 33 -38.5 66.5t-36.5 66.5z" />
<glyph unicode="&#xda;" horiz-adv-x="652" d="M82 226l66 474h28l-66 -471q-7 -51 2.5 -90t32.5 -65.5t58.5 -40.5t79.5 -14q43 0 82.5 14t70 40.5t51.5 65.5t28 90l66 471h28l-66 -474q-8 -57 -32 -101t-59.5 -73.5t-79.5 -44.5t-93 -15q-50 0 -90 15t-66.5 44.5t-37.5 73.5t-3 101zM364 750q27 33 54.5 66.5 t54.5 66.5h30q-29 -33 -57.5 -66.5t-56.5 -66.5h-25z" />
<glyph unicode="&#xdb;" horiz-adv-x="652" d="M82 226l66 474h28l-66 -471q-7 -51 2.5 -90t32.5 -65.5t58.5 -40.5t79.5 -14q43 0 82.5 14t70 40.5t51.5 65.5t28 90l66 471h28l-66 -474q-8 -57 -32 -101t-59.5 -73.5t-79.5 -44.5t-93 -15q-50 0 -90 15t-66.5 44.5t-37.5 73.5t-3 101zM266 751q36 45 72.5 90.5 t72.5 90.5q24 -45 47.5 -90.5t47.5 -90.5h-25q-19 35 -37.5 69t-38.5 69l-114 -138h-25z" />
<glyph unicode="&#xdc;" horiz-adv-x="652" d="M82 226l66 474h28l-66 -471q-7 -51 2.5 -90t32.5 -65.5t58.5 -40.5t79.5 -14q43 0 82.5 14t70 40.5t51.5 65.5t28 90l66 471h28l-66 -474q-8 -57 -32 -101t-59.5 -73.5t-79.5 -44.5t-93 -15q-50 0 -90 15t-66.5 44.5t-37.5 73.5t-3 101zM287 794q2 11 10.5 19t19.5 8 t18 -8t5 -19t-10.5 -18.5t-19.5 -7.5t-18 7.5t-5 18.5zM452 794q2 11 10.5 19t19.5 8t18 -8t5 -19t-10.5 -18.5t-19.5 -7.5t-18 7.5t-5 18.5z" />
<glyph unicode="&#xdd;" horiz-adv-x="638" d="M90 700h34q44 -97 88.5 -193t87.5 -193l9 -27h1q4 7 7 13.5t7 13.5q72 97 142.5 193t142.5 193h34q-81 -110 -161 -218.5t-161 -218.5l-37 -263h-32l37 264q-50 109 -99.5 218t-99.5 218zM359 750q27 33 54.5 66.5t54.5 66.5h30q-29 -33 -57.5 -66.5t-56.5 -66.5h-25z " />
<glyph unicode="&#xde;" horiz-adv-x="501" d="M50 0l99 700h28l-23 -165h117q30 0 64.5 -10t62.5 -31.5t44.5 -56t9.5 -82.5q-11 -85 -73.5 -135t-165.5 -50h-111l-24 -170h-28zM106 197h109q55 0 93.5 15t63 38.5t37 51t15.5 53.5q4 30 -6 58t-32 49t-54 33.5t-72 12.5h-110z" />
<glyph unicode="&#xdf;" horiz-adv-x="573" d="M32 363l3 27h65l5 35q7 55 28.5 98t51.5 72.5t67 45.5t75 17q30 -1 54.5 -12.5t41.5 -31.5t24.5 -46.5t3.5 -56.5q-6 -42 -33.5 -74t-66.5 -48q30 -9 54.5 -27t40.5 -43t22.5 -56t1.5 -65q-6 -43 -27.5 -80.5t-54 -65.5t-72.5 -44t-82 -16q-55 0 -99 27q4 7 7.5 12.5 t7.5 11.5q37 -25 86 -25q37 0 72 14.5t63 39t47 57.5t24 69t-5 67.5t-31 55.5t-51.5 38t-67.5 14q1 3 1 6.5t1 7.5l2 14q24 0 46.5 8t40.5 22t30 33.5t15 43.5t-2.5 46t-18.5 39t-33 27t-45 10q-33 0 -64 -14t-57 -40.5t-44.5 -64t-25.5 -83.5l-60 -428h-28l51 363h-64z" />
<glyph unicode="&#xe0;" horiz-adv-x="551" d="M75 188q6 43 26.5 79t50.5 62t67.5 40t77.5 14q30 0 56 -8.5t46 -23.5t34 -35t20 -42q3 25 8 50t10 51h21l-52 -375h-25l6 50q2 13 4 25.5t4 26.5q-12 -22 -30.5 -41.5t-43 -34.5t-53 -24t-59.5 -9q-41 0 -74.5 15.5t-56 41.5t-33 61.5t-4.5 76.5zM103 188 q-5 -35 3.5 -65.5t28 -53t48.5 -35.5t64 -13t67.5 13t58.5 35.5t43.5 53t22.5 65.5t-4 65.5t-28.5 53.5t-48.5 36t-64 13t-67.5 -13t-58.5 -36t-43 -53.5t-22 -65.5zM222 612h28q18 -33 35.5 -66.5t35.5 -66.5h-24q-20 33 -38.5 66.5t-36.5 66.5z" />
<glyph unicode="&#xe1;" horiz-adv-x="551" d="M75 188q6 43 26.5 79t50.5 62t67.5 40t77.5 14q30 0 56 -8.5t46 -23.5t34 -35t20 -42q3 25 8 50t10 51h21l-52 -375h-25l6 50q2 13 4 25.5t4 26.5q-12 -22 -30.5 -41.5t-43 -34.5t-53 -24t-59.5 -9q-41 0 -74.5 15.5t-56 41.5t-33 61.5t-4.5 76.5zM103 188 q-5 -35 3.5 -65.5t28 -53t48.5 -35.5t64 -13t67.5 13t58.5 35.5t43.5 53t22.5 65.5t-4 65.5t-28.5 53.5t-48.5 36t-64 13t-67.5 -13t-58.5 -36t-43 -53.5t-22 -65.5zM299 479q27 33 54.5 66.5t54.5 66.5h30q-29 -33 -57.5 -66.5t-56.5 -66.5h-25z" />
<glyph unicode="&#xe2;" horiz-adv-x="551" d="M75 188q6 43 26.5 79t50.5 62t67.5 40t77.5 14q30 0 56 -8.5t46 -23.5t34 -35t20 -42q3 25 8 50t10 51h21l-52 -375h-25l6 50q2 13 4 25.5t4 26.5q-12 -22 -30.5 -41.5t-43 -34.5t-53 -24t-59.5 -9q-41 0 -74.5 15.5t-56 41.5t-33 61.5t-4.5 76.5zM103 188 q-5 -35 3.5 -65.5t28 -53t48.5 -35.5t64 -13t67.5 13t58.5 35.5t43.5 53t22.5 65.5t-4 65.5t-28.5 53.5t-48.5 36t-64 13t-67.5 -13t-58.5 -36t-43 -53.5t-22 -65.5zM205 479q36 45 72.5 90.5t72.5 90.5q24 -45 47.5 -90.5t47.5 -90.5h-25q-19 35 -37.5 69t-38.5 69 l-114 -138h-25z" />
<glyph unicode="&#xe3;" horiz-adv-x="551" d="M75 188q6 43 26.5 79t50.5 62t67.5 40t77.5 14q30 0 56 -8.5t46 -23.5t34 -35t20 -42q3 25 8 50t10 51h21l-52 -375h-25l6 50q2 13 4 25.5t4 26.5q-12 -22 -30.5 -41.5t-43 -34.5t-53 -24t-59.5 -9q-41 0 -74.5 15.5t-56 41.5t-33 61.5t-4.5 76.5zM103 188 q-5 -35 3.5 -65.5t28 -53t48.5 -35.5t64 -13t67.5 13t58.5 35.5t43.5 53t22.5 65.5t-4 65.5t-28.5 53.5t-48.5 36t-64 13t-67.5 -13t-58.5 -36t-43 -53.5t-22 -65.5zM176 472q4 19 14 32.5t23 22t28 12.5t29 4q20 0 35 -10t29 -27t25.5 -23t25.5 -6q8 0 18.5 2t21 8t19 16.5 t12.5 26.5q5 -1 9.5 -1t9.5 -1q-8 -38 -36.5 -54.5t-57.5 -16.5q-20 0 -35 10t-29 27q-13 17 -25 23t-26 6q-8 0 -18 -2t-20.5 -8t-19 -16.5t-12.5 -26.5q-5 1 -10 1t-10 1z" />
<glyph unicode="&#xe4;" horiz-adv-x="551" d="M75 188q6 43 26.5 79t50.5 62t67.5 40t77.5 14q30 0 56 -8.5t46 -23.5t34 -35t20 -42q3 25 8 50t10 51h21l-52 -375h-25l6 50q2 13 4 25.5t4 26.5q-12 -22 -30.5 -41.5t-43 -34.5t-53 -24t-59.5 -9q-41 0 -74.5 15.5t-56 41.5t-33 61.5t-4.5 76.5zM103 188 q-5 -35 3.5 -65.5t28 -53t48.5 -35.5t64 -13t67.5 13t58.5 35.5t43.5 53t22.5 65.5t-4 65.5t-28.5 53.5t-48.5 36t-64 13t-67.5 -13t-58.5 -36t-43 -53.5t-22 -65.5zM216 504q2 11 10.5 19t19.5 8t18 -8t5 -19t-10.5 -18.5t-19.5 -7.5t-18 7.5t-5 18.5zM381 504 q2 11 10.5 19t19.5 8t18 -8t5 -19t-10.5 -18.5t-19.5 -7.5t-18 7.5t-5 18.5z" />
<glyph unicode="&#xe5;" horiz-adv-x="551" d="M75 188q6 43 26.5 79t50.5 62t67.5 40t77.5 14q30 0 56 -8.5t46 -23.5t34 -35t20 -42q3 25 8 50t10 51h21l-52 -375h-25l6 50q2 13 4 25.5t4 26.5q-12 -22 -30.5 -41.5t-43 -34.5t-53 -24t-59.5 -9q-41 0 -74.5 15.5t-56 41.5t-33 61.5t-4.5 76.5zM103 188 q-5 -35 3.5 -65.5t28 -53t48.5 -35.5t64 -13t67.5 13t58.5 35.5t43.5 53t22.5 65.5t-4 65.5t-28.5 53.5t-48.5 36t-64 13t-67.5 -13t-58.5 -36t-43 -53.5t-22 -65.5zM257 540q5 29 27 48.5t51 19.5t45.5 -19.5t12.5 -48.5t-26 -48.5t-51 -19.5t-46 19.5t-13 48.5zM279 540 q-2 -19 10 -32.5t30 -13.5q19 0 34.5 13.5t17.5 32.5q3 18 -9 32t-30 14q-19 0 -34.5 -14t-18.5 -32z" />
<glyph unicode="&#xe6;" horiz-adv-x="629" d="M35 101q4 28 19.5 46.5t38 30t49.5 16.5t56 5h135l7 46q4 28 2.5 48.5t-13.5 34.5t-36 21t-66 7q-14 0 -30 -3t-31.5 -7.5t-29 -11t-22.5 -12.5q-4 5 -8 10.5t-8 10.5q11 8 27 15.5t34 13t37 8.5t36 3q36 0 61.5 -4t42.5 -14q39 18 85 18q59 0 100 -36.5t52 -95.5 q-54 -20 -108 -40.5t-108 -41.5l-3 -20l-3 -19q-5 -34 -15 -56.5t-32 -39.5q15 -6 31 -9.5t35 -3.5q33 0 64.5 12.5t56.5 33.5q4 -6 7 -11t8 -10q-30 -24 -65.5 -38t-74.5 -14q-49 0 -84 19q-39 -21 -105 -21q-35 0 -63.5 5t-47.5 18t-27.5 33.5t-3.5 52.5zM63 101 q-4 -26 6.5 -42t28.5 -25t41 -12t44 -3q22 0 45 4t42 13.5t32.5 27t17.5 44.5l9 62h-87h-44.5t-57 -5.5t-51 -20t-26.5 -43.5zM352 343q14 -14 17 -39t-2 -61l-6 -44q45 17 89.5 33.5t89.5 33.5q-14 40 -46 65t-77 25q-33 0 -65 -13z" />
<glyph unicode="&#xe7;" horiz-adv-x="385" d="M51 188q6 40 26 76t50 62t68 41.5t79 15.5q35 0 65 -11.5t52 -31.5l-21 -21q-20 17 -45 27t-55 10q-35 0 -67.5 -13t-58.5 -36t-43 -53.5t-22 -65.5t3.5 -65.5t28 -53t48 -35.5t63.5 -13q31 0 59 9.5t52 26.5q4 -5 8 -10.5t7 -10.5q-53 -39 -122 -43q-3 -26 10 -36 t25 -18q20 -15 26.5 -34t3.5 -35q-6 -48 -33 -71.5t-61 -25.5q-18 -1 -34 3q-19 6 -32 20t-18 37q5 2 10.5 4t11.5 4q3 -20 18 -33t39 -13q29 0 50 20t25 49q4 26 -6.5 40.5t-24 25t-24.5 21t-9 29.5l2 15q-38 2 -68.5 18t-51.5 42t-30 60t-4 73z" />
<glyph unicode="&#xe8;" horiz-adv-x="451" d="M62 188q6 44 25 80t48.5 61.5t67.5 39.5t81 14q60 0 100.5 -37t51.5 -95q-86 -33 -171 -65t-170 -65q12 -45 49 -72.5t90 -27.5q33 0 64 12t57 33q3 -5 6.5 -10t7.5 -10q-30 -25 -65 -39t-74 -14q-41 0 -74.5 15.5t-56 41.5t-33 61.5t-4.5 76.5zM89 147q79 30 157.5 59.5 t156.5 59.5q-14 40 -46 65t-77 25q-36 0 -67.5 -11.5t-56 -32.5t-41.5 -50t-23 -65q-4 -27 -3 -50zM198 612h28q18 -33 35.5 -66.5t35.5 -66.5h-24q-20 33 -38.5 66.5t-36.5 66.5z" />
<glyph unicode="&#xe9;" horiz-adv-x="451" d="M62 188q6 44 25 80t48.5 61.5t67.5 39.5t81 14q60 0 100.5 -37t51.5 -95q-86 -33 -171 -65t-170 -65q12 -45 49 -72.5t90 -27.5q33 0 64 12t57 33q3 -5 6.5 -10t7.5 -10q-30 -25 -65 -39t-74 -14q-41 0 -74.5 15.5t-56 41.5t-33 61.5t-4.5 76.5zM89 147q79 30 157.5 59.5 t156.5 59.5q-14 40 -46 65t-77 25q-36 0 -67.5 -11.5t-56 -32.5t-41.5 -50t-23 -65q-4 -27 -3 -50zM288 479q27 33 54.5 66.5t54.5 66.5h30q-29 -33 -57.5 -66.5t-56.5 -66.5h-25z" />
<glyph unicode="&#xea;" horiz-adv-x="451" d="M62 188q6 44 25 80t48.5 61.5t67.5 39.5t81 14q60 0 100.5 -37t51.5 -95q-86 -33 -171 -65t-170 -65q12 -45 49 -72.5t90 -27.5q33 0 64 12t57 33q3 -5 6.5 -10t7.5 -10q-30 -25 -65 -39t-74 -14q-41 0 -74.5 15.5t-56 41.5t-33 61.5t-4.5 76.5zM89 147q79 30 157.5 59.5 t156.5 59.5q-14 40 -46 65t-77 25q-36 0 -67.5 -11.5t-56 -32.5t-41.5 -50t-23 -65q-4 -27 -3 -50zM179 479q36 45 72.5 90.5t72.5 90.5q24 -45 47.5 -90.5t47.5 -90.5h-25q-19 35 -37.5 69t-38.5 69l-114 -138h-25z" />
<glyph unicode="&#xeb;" horiz-adv-x="451" d="M62 188q6 44 25 80t48.5 61.5t67.5 39.5t81 14q60 0 100.5 -37t51.5 -95q-86 -33 -171 -65t-170 -65q12 -45 49 -72.5t90 -27.5q33 0 64 12t57 33q3 -5 6.5 -10t7.5 -10q-30 -25 -65 -39t-74 -14q-41 0 -74.5 15.5t-56 41.5t-33 61.5t-4.5 76.5zM89 147q79 30 157.5 59.5 t156.5 59.5q-14 40 -46 65t-77 25q-36 0 -67.5 -11.5t-56 -32.5t-41.5 -50t-23 -65q-4 -27 -3 -50zM185 504q2 11 10.5 19t19.5 8t18 -8t5 -19t-10.5 -18.5t-19.5 -7.5t-18 7.5t-5 18.5zM350 504q2 11 10.5 19t19.5 8t18 -8t5 -19t-10.5 -18.5t-19.5 -7.5t-18 7.5t-5 18.5z " />
<glyph unicode="&#xec;" horiz-adv-x="174" d="M60 612h28q18 -33 35.5 -66.5t35.5 -66.5h-24q-20 33 -38.5 66.5t-36.5 66.5zM80 0l52 375h28l-52 -375h-28z" />
<glyph unicode="&#xed;" horiz-adv-x="199" d="M75 0l52 375h28l-52 -375h-28zM140 479q27 33 54.5 66.5t54.5 66.5h30q-29 -33 -57.5 -66.5t-56.5 -66.5h-25z" />
<glyph unicode="&#xee;" horiz-adv-x="239" d="M57 479q36 45 72.5 90.5t72.5 90.5q24 -45 47.5 -90.5t47.5 -90.5h-25q-19 35 -37.5 69t-38.5 69l-114 -138h-25zM102 0l52 375h28l-52 -375h-28z" />
<glyph unicode="&#xef;" horiz-adv-x="271" d="M96 504q2 11 10.5 19t19.5 8t18 -8t5 -19t-10.5 -18.5t-19.5 -7.5t-18 7.5t-5 18.5zM131 0l52 375h28l-52 -375h-28zM261 504q2 11 10.5 19t19.5 8t18 -8t5 -19t-10.5 -18.5t-19.5 -7.5t-18 7.5t-5 18.5z" />
<glyph unicode="&#xf0;" horiz-adv-x="493" d="M28 187q6 40 26 76t50 62.5t67.5 42.5t78.5 16q45 0 79 -20t54 -52q-5 53 -32 129t-87 161q-20 -19 -40 -37.5t-40 -37.5l-8.5 8.5t-7.5 8.5q21 19 42 38.5t41 38.5q-37 50 -81 89q5 5 10 9t10 9q41 -36 82 -87q19 18 38 35.5t37 35.5q5 -4 8.5 -8t7.5 -8 q-20 -18 -39 -36.5t-39 -37.5q33 -47 60.5 -100.5t46.5 -109.5t26.5 -112.5t0.5 -109.5q-6 -41 -26 -76.5t-50 -62t-67.5 -42t-78.5 -15.5t-74 14.5t-56 41t-33.5 61.5t-5.5 76zM55 188q-5 -35 4 -65.5t28.5 -53t48.5 -35.5t64 -13t67.5 13.5t58.5 36t43 53t22 65.5 q4 35 -4.5 66t-28 53.5t-48.5 35t-64 12.5t-67.5 -13t-58.5 -36t-43 -53.5t-22 -65.5z" />
<glyph unicode="&#xf1;" horiz-adv-x="523" d="M110 0l52 375h26l-6 -44q-2 -14 -4 -27t-5 -27q27 48 75 76.5t104 28.5q54 0 81.5 -31t21.5 -81l-37 -270h-28l37 268q4 35 -16 60t-63 27q-32 0 -62.5 -10.5t-55.5 -29.5t-42 -45.5t-21 -57.5l-29 -212h-28zM194 462q4 19 14 32.5t23 22t28 12.5t29 4q20 0 35 -10 t29 -27t25.5 -23t25.5 -6q8 0 18.5 2t21 8t19 16.5t12.5 26.5q5 -1 9.5 -1t9.5 -1q-8 -38 -36.5 -54.5t-57.5 -16.5q-20 0 -35 10t-29 27q-13 17 -25 23t-26 6q-8 0 -18 -2t-20.5 -8t-19 -16.5t-12.5 -26.5q-5 1 -10 1t-10 1z" />
<glyph unicode="&#xf2;" d="M62 188q6 45 25.5 81t49 61.5t67.5 39.5t80 14q41 0 74.5 -15.5t57 -42t34 -62.5t4.5 -76q-6 -46 -26 -82t-50 -61t-68 -38.5t-80 -13.5q-41 0 -74.5 15.5t-56 41.5t-33 61.5t-4.5 76.5zM90 188q-5 -35 4 -65.5t28.5 -53t48 -35.5t63.5 -13q34 0 66.5 12t58.5 34 t43.5 52.5t22.5 68.5q5 35 -4 65.5t-28.5 53.5t-48.5 36t-64 13q-37 0 -69.5 -12t-57.5 -34.5t-41.5 -53.5t-21.5 -68zM202 612h28q18 -33 35.5 -66.5t35.5 -66.5h-24q-20 33 -38.5 66.5t-36.5 66.5z" />
<glyph unicode="&#xf3;" d="M62 188q6 45 25.5 81t49 61.5t67.5 39.5t80 14q41 0 74.5 -15.5t57 -42t34 -62.5t4.5 -76q-6 -46 -26 -82t-50 -61t-68 -38.5t-80 -13.5q-41 0 -74.5 15.5t-56 41.5t-33 61.5t-4.5 76.5zM90 188q-5 -35 4 -65.5t28.5 -53t48 -35.5t63.5 -13q34 0 66.5 12t58.5 34 t43.5 52.5t22.5 68.5q5 35 -4 65.5t-28.5 53.5t-48.5 36t-64 13q-37 0 -69.5 -12t-57.5 -34.5t-41.5 -53.5t-21.5 -68zM295 479q27 33 54.5 66.5t54.5 66.5h30q-29 -33 -57.5 -66.5t-56.5 -66.5h-25z" />
<glyph unicode="&#xf4;" d="M62 188q6 45 25.5 81t49 61.5t67.5 39.5t80 14q41 0 74.5 -15.5t57 -42t34 -62.5t4.5 -76q-6 -46 -26 -82t-50 -61t-68 -38.5t-80 -13.5q-41 0 -74.5 15.5t-56 41.5t-33 61.5t-4.5 76.5zM90 188q-5 -35 4 -65.5t28.5 -53t48 -35.5t63.5 -13q34 0 66.5 12t58.5 34 t43.5 52.5t22.5 68.5q5 35 -4 65.5t-28.5 53.5t-48.5 36t-64 13q-37 0 -69.5 -12t-57.5 -34.5t-41.5 -53.5t-21.5 -68zM174 479q36 45 72.5 90.5t72.5 90.5q24 -45 47.5 -90.5t47.5 -90.5h-25q-19 35 -37.5 69t-38.5 69l-114 -138h-25z" />
<glyph unicode="&#xf5;" d="M62 188q6 45 25.5 81t49 61.5t67.5 39.5t80 14q41 0 74.5 -15.5t57 -42t34 -62.5t4.5 -76q-6 -46 -26 -82t-50 -61t-68 -38.5t-80 -13.5q-41 0 -74.5 15.5t-56 41.5t-33 61.5t-4.5 76.5zM90 188q-5 -35 4 -65.5t28.5 -53t48 -35.5t63.5 -13q34 0 66.5 12t58.5 34 t43.5 52.5t22.5 68.5q5 35 -4 65.5t-28.5 53.5t-48.5 36t-64 13q-37 0 -69.5 -12t-57.5 -34.5t-41.5 -53.5t-21.5 -68zM146 472q4 19 14 32.5t23 22t28 12.5t29 4q20 0 35 -10t29 -27t25.5 -23t25.5 -6q8 0 18.5 2t21 8t19 16.5t12.5 26.5q5 -1 9.5 -1t9.5 -1 q-8 -38 -36.5 -54.5t-57.5 -16.5q-20 0 -35 10t-29 27q-13 17 -25 23t-26 6q-8 0 -18 -2t-20.5 -8t-19 -16.5t-12.5 -26.5q-5 1 -10 1t-10 1z" />
<glyph unicode="&#xf6;" d="M62 188q6 45 25.5 81t49 61.5t67.5 39.5t80 14q41 0 74.5 -15.5t57 -42t34 -62.5t4.5 -76q-6 -46 -26 -82t-50 -61t-68 -38.5t-80 -13.5q-41 0 -74.5 15.5t-56 41.5t-33 61.5t-4.5 76.5zM90 188q-5 -35 4 -65.5t28.5 -53t48 -35.5t63.5 -13q34 0 66.5 12t58.5 34 t43.5 52.5t22.5 68.5q5 35 -4 65.5t-28.5 53.5t-48.5 36t-64 13q-37 0 -69.5 -12t-57.5 -34.5t-41.5 -53.5t-21.5 -68zM185 504q2 11 10.5 19t19.5 8t18 -8t5 -19t-10.5 -18.5t-19.5 -7.5t-18 7.5t-5 18.5zM350 504q2 11 10.5 19t19.5 8t18 -8t5 -19t-10.5 -18.5t-19.5 -7.5 t-18 7.5t-5 18.5z" />
<glyph unicode="&#xf7;" horiz-adv-x="501" d="M66 209l3 28h360l-3 -28h-360zM207 97q1 11 10 19t20 8t17.5 -8t4.5 -19t-10.5 -18.5t-19.5 -7.5t-17.5 7.5t-4.5 18.5zM242 347q2 11 10.5 19t19.5 8t17.5 -8t4.5 -19q-1 -11 -10 -18.5t-20 -7.5t-17.5 7.5t-4.5 18.5z" />
<glyph unicode="&#xf8;" horiz-adv-x="468" d="M26 2q11 13 23 24.5t24 23.5q-23 26 -33 61.5t-4 76.5q6 40 26 76t50 62t67.5 41.5t78.5 15.5q32 0 59 -9t48 -26q9 10 19 19.5t19 19.5q4 -4 7 -7.5t7 -7.5l-37 -37q27 -26 40 -64.5t7 -82.5q-6 -41 -26.5 -76.5t-50.5 -61.5t-68 -41.5t-79 -15.5q-35 0 -64 11.5 t-52 31.5q-12 -12 -23.5 -24t-23.5 -24zM64 188q-5 -35 3 -64.5t26 -52.5q63 64 125 128t125 128q-17 14 -40 21.5t-49 7.5q-35 0 -67 -13t-58 -36t-43 -53.5t-22 -65.5zM107 57q41 -36 100 -36q35 0 67.5 13t58.5 35.5t43.5 53t22.5 65.5q5 38 -6 70t-34 55l-126 -128z" />
<glyph unicode="&#xf9;" horiz-adv-x="529" d="M124 105l38 270h28l-38 -268q-3 -35 17 -60t62 -27q32 0 63 10.5t55.5 29.5t41.5 45.5t21 57.5l30 212h28l-52 -377h-28l7 55l9 45q-27 -48 -75 -76.5t-104 -28.5q-54 0 -81 31t-22 81zM240 612h28q18 -33 35.5 -66.5t35.5 -66.5h-24q-20 33 -38.5 66.5t-36.5 66.5z" />
<glyph unicode="&#xfa;" horiz-adv-x="529" d="M124 105l38 270h28l-38 -268q-3 -35 17 -60t62 -27q32 0 63 10.5t55.5 29.5t41.5 45.5t21 57.5l30 212h28l-52 -377h-28l7 55l9 45q-27 -48 -75 -76.5t-104 -28.5q-54 0 -81 31t-22 81zM294 479q27 33 54.5 66.5t54.5 66.5h30q-29 -33 -57.5 -66.5t-56.5 -66.5h-25z" />
<glyph unicode="&#xfb;" horiz-adv-x="529" d="M124 105l38 270h28l-38 -268q-3 -35 17 -60t62 -27q32 0 63 10.5t55.5 29.5t41.5 45.5t21 57.5l30 212h28l-52 -377h-28l7 55l9 45q-27 -48 -75 -76.5t-104 -28.5q-54 0 -81 31t-22 81zM205 479q36 45 72.5 90.5t72.5 90.5q24 -45 47.5 -90.5t47.5 -90.5h-25 q-19 35 -37.5 69t-38.5 69l-114 -138h-25z" />
<glyph unicode="&#xfc;" horiz-adv-x="529" d="M124 105l38 270h28l-38 -268q-3 -35 17 -60t62 -27q32 0 63 10.5t55.5 29.5t41.5 45.5t21 57.5l30 212h28l-52 -377h-28l7 55l9 45q-27 -48 -75 -76.5t-104 -28.5q-54 0 -81 31t-22 81zM217 504q2 11 10.5 19t19.5 8t18 -8t5 -19t-10.5 -18.5t-19.5 -7.5t-18 7.5t-5 18.5 zM382 504q2 11 10.5 19t19.5 8t18 -8t5 -19t-10.5 -18.5t-19.5 -7.5t-18 7.5t-5 18.5z" />
<glyph unicode="&#xfd;" horiz-adv-x="488" d="M71 -250q41 62 80 123.5t79 123.5q-34 95 -68 189t-68 189h31q13 -36 29 -81.5t33 -93t33 -93t29 -81.5q23 36 52.5 81.5t59.5 93t59 93t52 81.5h31q-100 -157 -199.5 -312.5t-200.5 -312.5h-32zM295 479q27 33 54.5 66.5t54.5 66.5h30q-29 -33 -57.5 -66.5t-56.5 -66.5 h-25z" />
<glyph unicode="&#xfe;" horiz-adv-x="557" d="M-3 -250l140 1000h28l-60 -421q-2 -14 -5.5 -29t-5.5 -29q12 22 31.5 42t44 35t53 24t58.5 9q41 0 74.5 -15.5t56 -41.5t33 -61.5t4.5 -75.5q-6 -41 -26 -76.5t-50 -61.5t-68 -41.5t-79 -15.5q-31 0 -57 8.5t-46 23.5t-33 34.5t-18 41.5q-2 -12 -2.5 -24t-2.5 -23 l-42 -303h-28zM86 187q-5 -35 3.5 -65.5t28 -53.5t48.5 -36t64 -13t67.5 13t58.5 36t43 53.5t22 65.5t-3.5 65.5t-28 53t-48.5 35.5t-64 13t-67.5 -13t-58.5 -35.5t-43 -53t-22 -65.5z" />
<glyph unicode="&#xff;" horiz-adv-x="488" d="M71 -250q41 62 80 123.5t79 123.5q-34 95 -68 189t-68 189h31q13 -36 29 -81.5t33 -93t33 -93t29 -81.5q23 36 52.5 81.5t59.5 93t59 93t52 81.5h31q-100 -157 -199.5 -312.5t-200.5 -312.5h-32zM203 504q2 11 10.5 19t19.5 8t18 -8t5 -19t-10.5 -18.5t-19.5 -7.5 t-18 7.5t-5 18.5zM368 504q2 11 10.5 19t19.5 8t18 -8t5 -19t-10.5 -18.5t-19.5 -7.5t-18 7.5t-5 18.5z" />
<glyph unicode="&#x2000;" horiz-adv-x="466" />
<glyph unicode="&#x2001;" horiz-adv-x="932" />
<glyph unicode="&#x2002;" horiz-adv-x="466" />
<glyph unicode="&#x2003;" horiz-adv-x="932" />
<glyph unicode="&#x2004;" horiz-adv-x="310" />
<glyph unicode="&#x2005;" horiz-adv-x="233" />
<glyph unicode="&#x2006;" horiz-adv-x="155" />
<glyph unicode="&#x2007;" horiz-adv-x="155" />
<glyph unicode="&#x2008;" horiz-adv-x="116" />
<glyph unicode="&#x2009;" horiz-adv-x="186" />
<glyph unicode="&#x200a;" horiz-adv-x="51" />
<glyph unicode="&#x2010;" horiz-adv-x="300" d="M51 177l3 27h184l-3 -27h-184z" />
<glyph unicode="&#x2011;" horiz-adv-x="300" d="M51 177l3 27h184l-3 -27h-184z" />
<glyph unicode="&#x2012;" horiz-adv-x="300" d="M51 177l3 27h184l-3 -27h-184z" />
<glyph unicode="&#x2013;" horiz-adv-x="509" d="M98 178l3 27h301l-3 -27h-301z" />
<glyph unicode="&#x2014;" horiz-adv-x="700" d="M97 178l3 27h502l-3 -27h-502z" />
<glyph unicode="&#x2018;" horiz-adv-x="164" d="M40.5 634q-7.5 37 6.5 77q6 -2 13 -3.5t12 -3.5q-11 -35 -6 -64.5t23 -49.5q-4 -5 -7.5 -9.5t-7.5 -9.5q-26 26 -33.5 63z" />
<glyph unicode="&#x2019;" horiz-adv-x="164" d="M46 590q24 20 37.5 49.5t11.5 64.5q7 2 14 3.5t13 3.5q3 -40 -14.5 -77t-50.5 -63q-5 10 -11 19z" />
<glyph unicode="&#x201a;" horiz-adv-x="146" d="M12 -29q24 20 37.5 49.5t11.5 64.5q7 2 13.5 3.5t13.5 3.5q2 -40 -15.5 -77t-49.5 -63q-6 9 -11 19z" />
<glyph unicode="&#x201c;" horiz-adv-x="249" d="M33.5 634q-7.5 37 6.5 77q6 -2 12.5 -3.5t12.5 -3.5q-11 -35 -6 -64.5t23 -49.5q-5 -5 -8 -9.5t-8 -9.5q-25 26 -32.5 63zM137.5 634q-7.5 37 6.5 77q6 -2 12.5 -3.5t12.5 -3.5q-11 -35 -6 -64.5t23 -49.5q-5 -5 -8 -9.5t-8 -9.5q-25 26 -32.5 63z" />
<glyph unicode="&#x201d;" horiz-adv-x="248" d="M30 590q23 20 37 49.5t12 64.5q7 2 13.5 3.5t12.5 3.5q3 -40 -14.5 -77t-50.5 -63q-2 5 -5 9.5t-5 9.5zM134 590q23 20 37 49.5t12 64.5q7 2 13.5 3.5t12.5 3.5q3 -40 -14.5 -77t-50.5 -63q-2 5 -5 9.5t-5 9.5z" />
<glyph unicode="&#x201e;" horiz-adv-x="255" d="M12 -29q24 20 37.5 49.5t11.5 64.5q7 2 13.5 3.5t13.5 3.5q2 -40 -15.5 -77t-49.5 -63q-6 9 -11 19zM116 -29q24 20 37.5 49.5t11.5 64.5q7 2 13.5 3.5t13.5 3.5q2 -40 -15.5 -77t-49.5 -63q-6 9 -11 19z" />
<glyph unicode="&#x2022;" horiz-adv-x="479" d="M161 300q5 33 31 55.5t58 22.5t51.5 -22.5t14.5 -55.5q-5 -32 -30.5 -54.5t-58.5 -22.5q-16 0 -29 6t-22 16.5t-13 24.5t-2 30z" />
<glyph unicode="&#x202f;" horiz-adv-x="186" />
<glyph unicode="&#x2039;" horiz-adv-x="392" d="M117 239q48 41 96.5 80.5t96.5 80.5l-4 -33q-36 -32 -72.5 -64t-72.5 -64q27 -33 54 -65.5t54 -64.5l-4 -32z" />
<glyph unicode="&#x203a;" horiz-adv-x="392" d="M94 77l4 32q36 32 72.5 64.5t73.5 65.5q-28 32 -55 64l-54 64l4 33q38 -41 74.5 -80.5t74.5 -80.5z" />
<glyph unicode="&#x205f;" horiz-adv-x="233" />
<glyph unicode="&#xe000;" horiz-adv-x="375" d="M0 0v375h375v-375h-375z" />
</font>
</defs>
</svg>
