<?xml version="1.0" standalone="no"?>
<!DOCTYPE svg PUBLIC "-//W3C//DTD SVG 1.1//EN" "http://www.w3.org/Graphics/SVG/1.1/DTD/svg11.dtd" >
<svg xmlns="http://www.w3.org/2000/svg">
<metadata></metadata>
<defs>
<font id="josefin_sanslight" horiz-adv-x="469" >
<font-face units-per-em="1000" ascent="750" descent="-250" />
<missing-glyph horiz-adv-x="300" />
<glyph horiz-adv-x="1000" />
<glyph horiz-adv-x="1000" />
<glyph unicode="&#xd;" horiz-adv-x="300" />
<glyph unicode=" "  horiz-adv-x="300" />
<glyph unicode="&#x09;" horiz-adv-x="300" />
<glyph unicode="&#xa0;" horiz-adv-x="300" />
<glyph unicode="!" horiz-adv-x="201" d="M74 55q0 12 8 19.5t18 7.5t18 -7.5t8 -19.5q0 -11 -8 -18.5t-18 -7.5t-18 7.5t-8 18.5zM86 166v584h28v-584h-28z" />
<glyph unicode="&#x22;" horiz-adv-x="301" d="M63 472v248h31q-1 -63 -2 -124t-2 -124h-27zM196 472v248h31q-1 -63 -2 -124t-2 -124h-27z" />
<glyph unicode="#" horiz-adv-x="571" d="M28 218l3 27h113q5 39 9 77.5t9 77.5h-111l3 27h112q6 54 12.5 108t13.5 108h28q-7 -54 -13.5 -108t-12.5 -108h156q6 54 12.5 108t13.5 108h28q-7 -54 -13.5 -108t-12.5 -108h129l-3 -27h-130q-5 -39 -9 -77.5t-9 -77.5h128q0 -7 -1 -13.5t-2 -13.5h-129 q-6 -55 -12 -109t-13 -109h-28q7 55 13 109t12 109h-156q-6 -55 -12 -109t-13 -109h-28q7 55 13 109t12 109h-112zM172 245h156q5 39 9 77.5t9 77.5h-156q-5 -39 -9 -77.5t-9 -77.5z" />
<glyph unicode="$" horiz-adv-x="567" d="M73 84l20 20q13 -14 30 -28t37.5 -26t44.5 -20.5t53 -9.5v342q-2 1 -5 1.5t-6 2.5q-19 6 -44.5 15.5t-48.5 26.5t-40 43.5t-19 65.5q-2 32 6.5 64t28.5 58.5t51.5 44t76.5 19.5v61h28v-61q35 -2 70 -15.5t70 -43.5q-5 -5 -8 -11t-8 -11q-17 15 -48 32.5t-76 21.5v-295 q31 -11 66 -24.5t64 -35t48.5 -54.5t19.5 -81q0 -43 -15.5 -77.5t-42.5 -59.5t-63 -39.5t-77 -16.5v-61h-28v61q-37 2 -67 12.5t-53 24.5t-39.5 28.5t-25.5 25.5zM123 527q0 -56 31.5 -84t86.5 -46q3 -2 7.5 -3.5t9.5 -2.5v285q-34 -2 -59.5 -15t-42 -33.5t-25 -46.5 t-8.5 -54zM286 20q33 2 64 14.5t54.5 33.5t37.5 50t14 65q0 40 -15.5 68t-39.5 47t-54.5 31.5t-60.5 22.5v-332z" />
<glyph unicode="%" horiz-adv-x="726" d="M104 389q0 23 9 43.5t24.5 35.5t36.5 24t44 9t43.5 -9t36.5 -24t25 -35.5t9 -43.5q0 -24 -9 -44.5t-25 -35.5t-36.5 -24t-43.5 -9t-44 9t-36.5 24t-24.5 35.5t-9 44.5zM132 388q0 -35 25 -59.5t61 -24.5t61 24.5t25 59.5t-25 60t-61 25t-61 -25t-25 -60zM201 0 q75 126 149 250t149 250h31q-75 -126 -149 -250t-149 -250h-31zM408 113q0 23 9 43.5t24.5 35.5t36.5 23.5t44 8.5t43.5 -8.5t36.5 -23.5t25 -35.5t9 -43.5q0 -24 -9 -44.5t-25 -35.5t-36.5 -24t-43.5 -9t-44 9t-36.5 24t-24.5 35.5t-9 44.5zM436 112q0 -35 25 -60t61 -25 t61 25t25 60t-25 60t-61 25t-61 -25t-25 -60z" />
<glyph unicode="&#x26;" horiz-adv-x="700" d="M106 187q0 36 12.5 68.5t34 58t51 42.5t64.5 23q-17 29 -35 58.5t-36 58.5q-18 30 -25.5 62t-2.5 63t23 58t51 47q28 17 57.5 20.5t57.5 -1.5t52.5 -16t43.5 -23l-6 -12t-5 -12q-21 12 -43.5 22.5t-45.5 15t-46.5 1.5t-46.5 -17q-29 -18 -45 -41.5t-20 -50t2.5 -53.5 t22.5 -53q57 -94 114.5 -186.5t114.5 -186.5q9 19 14.5 39.5t6.5 42.5v56q1 41 9.5 62.5t21.5 30.5t29 10t33 1h39v-27h-54q-31 0 -41.5 -24.5t-10.5 -85.5v-51q0 -25 -6.5 -48t-17.5 -43q16 -25 31 -49.5t31 -50.5q-5 -4 -10.5 -7.5t-11.5 -7.5q-14 22 -27.5 44.5 t-27.5 44.5q-27 -35 -67.5 -56t-89.5 -21q-41 0 -76.5 15t-62 41.5t-41.5 61.5t-15 76zM134 187q0 -35 13 -65.5t35.5 -53t53 -35.5t65.5 -13q45 0 82 20.5t59 55.5q-39 65 -78.5 128.5t-79.5 128.5q-32 -3 -59.5 -17t-47.5 -36t-31.5 -51t-11.5 -62z" />
<glyph unicode="'" horiz-adv-x="150" d="M62 472v248h31q-1 -63 -2 -124t-2 -124h-27z" />
<glyph unicode="(" horiz-adv-x="400" d="M141 292q0 75 14 143t37 126t52.5 105.5t61.5 80.5q4 -6 8 -11.5t9 -11.5q-29 -33 -56.5 -78t-49.5 -100t-35 -119t-13 -135t13 -135t35 -119t49.5 -100t56.5 -78q-5 -6 -9 -11.5t-8 -11.5q-32 33 -61.5 80.5t-52.5 105.5t-37 126t-14 143z" />
<glyph unicode=")" horiz-adv-x="400" d="M104 -141q29 33 56.5 78t49.5 100t35 119t13 135t-13 135t-35 119t-49.5 100t-56.5 78q4 6 8 11.5t9 11.5q31 -33 61 -80.5t53 -105.5t37 -126t14 -143t-14 -143t-37 -126t-53 -105.5t-61 -80.5q-5 6 -9 11.5t-8 11.5z" />
<glyph unicode="*" horiz-adv-x="335" d="M36 519q26 14 51 28.5t50 28.5l-50 30t-51 30q4 6 7.5 12t6.5 12l102 -60v120h31q-1 -30 -1 -60t-1 -60q26 14 52 29l52 30q4 -6 7.5 -12t6.5 -12q-26 -15 -51.5 -30t-51.5 -30q25 -14 50.5 -29t51.5 -29q-4 -7 -8 -13.5t-8 -13.5q-26 15 -50.5 30t-50.5 30 q-1 -29 -1 -58t-1 -58h-27v116q-26 -15 -50.5 -29.5t-49.5 -28.5q-4 7 -8 13.5t-8 13.5z" />
<glyph unicode="+" horiz-adv-x="543" d="M86 218v27h166v166h28v-166h166v-27h-166v-167h-28v167h-166z" />
<glyph unicode="," horiz-adv-x="200" d="M22 -120q20 52 38.5 103t38.5 103h35q-22 -52 -43 -103t-43 -103h-26z" />
<glyph unicode="-" horiz-adv-x="300" d="M53 177v27h184v-27h-184z" />
<glyph unicode="." horiz-adv-x="163" d="M59 26q0 11 8 19t19 8t18.5 -8t7.5 -19t-7.5 -18.5t-18.5 -7.5t-19 7.5t-8 18.5z" />
<glyph unicode="/" horiz-adv-x="334" d="M17 -19q70 190 139 377.5t139 377.5h28q-70 -190 -139 -377.5t-139 -377.5h-28z" />
<glyph unicode="0" horiz-adv-x="616" d="M36 327q0 53 16 111.5t49 107.5t84 80.5t123 31.5q70 0 120.5 -32.5t83 -81.5t47 -107.5t14.5 -112.5q0 -71 -22.5 -131.5t-59.5 -105t-86.5 -69.5t-103.5 -25t-102.5 26t-84.5 70.5t-57 105.5t-21 132zM65 328q0 -69 19.5 -125.5t53 -97t76.5 -63t89 -22.5t89.5 21.5 t77 61.5t54.5 96t21 124q0 66 -17 122t-48.5 97.5t-75.5 65t-97 23.5t-97.5 -22.5t-76.5 -63t-50 -96t-18 -121.5z" />
<glyph unicode="1" horiz-adv-x="254" d="M34 623v27h132v-650h-28v623h-104z" />
<glyph unicode="2" horiz-adv-x="500" d="M49 466q0 40 12 75t35.5 61t57.5 41t79 15q40 0 73.5 -15t57.5 -41.5t37 -62.5t13 -78q0 -56 -27 -111.5t-69.5 -109.5t-94.5 -107.5t-101 -105.5h336v-27h-405q64 62 124 122t106.5 117t74.5 110t28 100q0 52 -15 87t-38 56t-49.5 30t-50.5 9q-47 0 -77.5 -17t-48 -41.5 t-24 -53.5t-6.5 -53q0 -69 40 -112q-5 -5 -9 -8.5t-9 -7.5q-23 23 -36.5 55.5t-13.5 72.5z" />
<glyph unicode="3" horiz-adv-x="515" d="M86 59q5 5 10 11t10 11q23 -27 56.5 -44.5t72.5 -17.5q37 0 70 14.5t58 39t39.5 57t14.5 68.5q0 37 -14.5 69.5t-39.5 56.5t-58 38t-70 14q-17 0 -32.5 -6t-29.5 -16q50 68 99 134.5t99 133.5h-268v28h321q-47 -63 -93.5 -124.5t-94.5 -124.5q43 -1 80.5 -16.5t66 -42.5 t45 -64t16.5 -80t-16.5 -80.5t-44.5 -65.5t-65.5 -44t-80.5 -16q-45 0 -83.5 18t-67.5 49z" />
<glyph unicode="4" horiz-adv-x="510" d="M37 183q92 119 183 237.5t183 237.5v-448h97v-27h-97v-183h-28v183h-338zM95 210h280v366q-70 -92 -140 -183t-140 -183z" />
<glyph unicode="5" horiz-adv-x="543" d="M113 49q5 5 10 9.5t11 9.5q23 -23 53.5 -36t65.5 -13q37 0 70.5 14.5t58 39t39 57t14.5 68.5t-14.5 68t-39 56t-58 37.5t-70.5 13.5q-35 0 -64 -11.5t-46 -30.5v319h287v-27h-259v-241q20 8 40.5 13.5t43.5 5.5q42 0 80 -16t66 -43.5t44.5 -64.5t16.5 -79 q0 -43 -16.5 -80.5t-44.5 -65.5t-66 -44t-80 -16t-78 15t-64 42z" />
<glyph unicode="6" horiz-adv-x="520" d="M50 194q0 72 31 134.5t79 117t106.5 101t114.5 87.5q5 -6 9.5 -12t9.5 -11q-60 -40 -106.5 -78.5t-80.5 -73.5t-56.5 -66.5t-34.5 -56.5q23 29 57.5 47t76.5 18q43 0 80.5 -16t65.5 -44t44.5 -65.5t16.5 -79.5t-16.5 -79t-44.5 -65t-65.5 -44t-80.5 -16q-42 0 -79.5 16 t-65.5 43t-44.5 64t-16.5 79zM77 196q0 -37 14 -69t38 -56t56.5 -38t69.5 -14t70 14t57.5 38t38.5 56t14 69t-14 69t-38.5 56t-57.5 38t-70 14t-69.5 -14t-56.5 -38t-38 -56t-14 -69z" />
<glyph unicode="7" d="M14 622v28h403q-73 -164 -146 -325t-146 -325h-33q71 156 140.5 311t140.5 311h-359z" />
<glyph unicode="8" horiz-adv-x="510" d="M50 198q0 34 10.5 64.5t29 55.5t44.5 43.5t57 27.5q-38 15 -62 48.5t-24 76.5q0 30 11.5 56t32 45.5t47 31t56.5 11.5q31 0 57.5 -11.5t46.5 -31.5t31.5 -47t11.5 -57q0 -42 -22.5 -74t-59.5 -48q31 -9 57.5 -27t46 -43t30.5 -56t11 -65q0 -43 -16.5 -80.5t-44.5 -65.5 t-66 -44t-80 -16t-79.5 16t-65.5 44t-44 65.5t-16 80.5zM78 198q0 -36 13.5 -68.5t37 -57t55.5 -39t69 -14.5t70.5 14.5t58 39t39 57t14.5 68.5t-14.5 68t-39 56t-57.5 37.5t-70 13.5t-69 -13.5t-56 -37.5t-37.5 -56t-13.5 -68zM134 508q0 -23 9.5 -42.5t25.5 -33.5t38 -22 t47 -8t46.5 8t37.5 22t25 33.5t9 42.5q0 25 -9 47t-25 39t-37.5 27t-46.5 10t-47 -10t-38 -27t-25.5 -39t-9.5 -47z" />
<glyph unicode="9" horiz-adv-x="525" d="M49 429q0 42 16.5 79.5t44.5 65.5t65.5 44t80.5 16t80.5 -16t65.5 -44t44.5 -65.5t16.5 -79.5q0 -72 -31 -134t-79.5 -116t-107.5 -100.5t-114 -86.5q-9 11 -18 23q120 80 186.5 152t91.5 123q-23 -30 -58 -47.5t-77 -17.5q-43 0 -80.5 16t-65.5 44t-44.5 65t-16.5 79z M77 429q0 -37 14 -69t38.5 -56t57.5 -38t70 -14t69.5 14t56.5 38t38 56t14 69t-14 69t-38 56t-56.5 38t-69.5 14t-70 -14t-57.5 -38t-38.5 -56t-14 -69z" />
<glyph unicode=":" horiz-adv-x="175" d="M59 26q0 11 7.5 19t18.5 8t18.5 -8t7.5 -19t-7.5 -18.5t-18.5 -7.5t-18.5 7.5t-7.5 18.5zM59 276q0 11 7.5 19t18.5 8t18.5 -8t7.5 -19t-7.5 -18.5t-18.5 -7.5t-18.5 7.5t-7.5 18.5z" />
<glyph unicode=";" horiz-adv-x="201" d="M7 -120q20 52 38.5 103t38.5 103h35q-22 -52 -43 -103t-43 -103h-26zM83 276q0 11 8 19t19 8q10 0 18 -8t8 -19t-8 -18.5t-18 -7.5q-11 0 -19 7.5t-8 18.5z" />
<glyph unicode="&#x3c;" horiz-adv-x="680" d="M115 238q110 63 219 126.5t219 126.5v-36q-95 -54 -189 -108.5t-189 -108.5q95 -54 189 -108.5t189 -108.5v-36q-110 63 -219 126.5t-219 126.5z" />
<glyph unicode="=" horiz-adv-x="708" d="M100 142v28h506v-28h-506zM100 336v28h506v-28h-506z" />
<glyph unicode="&#x3e;" horiz-adv-x="650" d="M115 -15v36q95 54 189 108.5t189 108.5q-95 54 -189 108.5t-189 108.5v36q110 -63 219 -126.5t219 -126.5q-110 -63 -219 -126.5t-219 -126.5z" />
<glyph unicode="?" horiz-adv-x="452" d="M33 595q9 27 26 52t41 44t54.5 30t66.5 11q41 0 77 -15.5t62.5 -42t41.5 -62t15 -75.5q0 -54 -26.5 -95t-71.5 -73q-18 -14 -35 -23.5t-29.5 -22t-20 -31t-7.5 -50.5v-78h-28v97q0 31 11 50t29.5 34t41.5 28.5t47 34.5q32 27 46.5 59.5t14.5 69.5q0 36 -13 66.5t-35.5 53 t-53 35.5t-66.5 13q-59 0 -102.5 -32t-60.5 -86q-6 2 -12.5 4t-12.5 4zM187 46q0 12 8 19.5t18 7.5t18 -7.5t8 -19.5q0 -11 -8 -18.5t-18 -7.5t-18 7.5t-8 18.5z" />
<glyph unicode="@" horiz-adv-x="990" d="M88 189q0 83 31.5 156t86 127.5t127.5 86t156 31.5t156 -31.5t127.5 -86t86 -127.5t31.5 -157q-2 -58 -16 -94.5t-34.5 -57.5t-46 -28.5t-50.5 -7.5h-84v47q0 14 0.5 27.5t0.5 27.5q-9 -23 -25 -42.5t-38.5 -34t-49.5 -23.5t-58 -9q-41 0 -76.5 15.5t-62 41.5t-41.5 61.5 t-15 76.5q0 40 15 75.5t41.5 62t62 42t76.5 15.5q30 0 56.5 -8.5t49 -23.5t39 -35t25.5 -42q0 25 1.5 50t2.5 51h22v-348h63q51 0 81.5 38t32.5 123q0 78 -29.5 146t-80 119t-118.5 80.5t-145 29.5t-145 -29.5t-118.5 -80.5t-80 -119t-29.5 -146q0 -77 29.5 -145t80 -118.5 t118.5 -80t145 -29.5q61 0 116 19t101 51q5 -6 8.5 -11t8.5 -10q-50 -36 -109 -56t-125 -20q-83 0 -156 31.5t-127.5 86t-86 127.5t-31.5 156zM322 188q0 -35 13 -65.5t35.5 -53t53 -35.5t65.5 -13t66 13t53.5 35.5t35.5 53t13 65.5t-13 65.5t-35.5 53.5t-53.5 36t-66 13 t-65.5 -13t-53 -36t-35.5 -53.5t-13 -65.5z" />
<glyph unicode="A" horiz-adv-x="740" d="M60 0q78 184 155 366t155 366q78 -184 155 -366t155 -366h-28q-33 77 -65.5 154t-65.5 154h-302q-32 -77 -64.5 -154t-65.5 -154h-29zM231 335h278q-32 78 -64.5 154t-65.5 154l-9 27q-31 -86 -67.5 -168.5t-71.5 -166.5z" />
<glyph unicode="B" horiz-adv-x="535" d="M79 0v700h152q46 0 84 -10t65.5 -31t42.5 -54.5t15 -79.5q0 -62 -31 -109t-95 -64q30 -6 57.5 -20t48.5 -36t33.5 -51t12.5 -65q0 -45 -18 -78.5t-48 -56t-68.5 -34t-80.5 -11.5h-170zM107 27h140q39 0 73 9.5t60 28.5t41 48t15 67q0 41 -17.5 71t-46.5 49.5t-66 28.5 t-77 9h-122v-311zM107 365h139q37 0 67.5 11.5t52 32.5t33 50.5t11.5 65.5q0 40 -12.5 68t-34.5 46t-53 26t-68 8h-135v-308z" />
<glyph unicode="C" horiz-adv-x="670" d="M62 349q0 74 28 139.5t76.5 114t113.5 77t139 28.5q51 0 96.5 -13t86.5 -37q-6 -10 -16 -23q-75 46 -167 46q-68 0 -128 -26.5t-104.5 -71.5t-70.5 -105.5t-26 -129.5q0 -68 26 -128t70 -104.5t103.5 -70.5t127.5 -26q46 0 88 12t80 34l16 -23q-40 -23 -85.5 -36.5 t-96.5 -13.5q-74 0 -139 28t-113.5 76.5t-76.5 113.5t-28 139z" />
<glyph unicode="D" horiz-adv-x="652" d="M81 0v700h142q72 0 136 -24.5t112 -70t76 -110.5t28 -145q0 -59 -20.5 -121t-66.5 -113t-119.5 -83.5t-179.5 -32.5h-108zM109 28h92q91 0 156.5 28.5t108 74.5t62.5 103.5t20 115.5q0 74 -25.5 134t-69.5 102t-102.5 64.5t-124.5 22.5h-117v-645z" />
<glyph unicode="E" horiz-adv-x="601" d="M90 0v700h410v-27h-382v-307h343v-27h-343v-312h396v-27h-424z" />
<glyph unicode="F" horiz-adv-x="587" d="M90 0v700h410v-27h-382v-307h343v-27h-343v-339h-28z" />
<glyph unicode="G" horiz-adv-x="678" d="M62 349q0 74 28 139.5t76.5 114t113.5 77t139 28.5q51 0 96.5 -13t86.5 -37q-6 -10 -16 -23q-75 46 -167 46q-68 0 -128 -26.5t-104.5 -71.5t-70.5 -105.5t-26 -129.5q0 -68 26 -128t70 -104.5t103.5 -70.5t127.5 -26q84 0 156 40v133v57q0 11 -6 17.5t-22 6.5h-130v27 h130q30 0 43 -9.5t13 -38.5v-210q-40 -23 -85.5 -36.5t-96.5 -13.5q-74 0 -139 28t-113.5 76.5t-76.5 113.5t-28 139z" />
<glyph unicode="H" horiz-adv-x="700" d="M99 0v700h28v-334h446v334h31q0 -176 -1 -350t-2 -350h-28v339h-446v-339h-28z" />
<glyph unicode="I" horiz-adv-x="238" d="M105 0v700h28v-700h-28z" />
<glyph unicode="J" horiz-adv-x="302" d="M18 -115q36 2 67 16.5t53.5 41t35 64.5t12.5 86v607h28v-610q0 -56 -15.5 -98.5t-42 -71.5t-62.5 -45t-76 -17v27z" />
<glyph unicode="K" horiz-adv-x="600" d="M72 0v700h28v-327q-1 -8 -1.5 -14.5t-0.5 -14.5q5 5 9 10t9 10q88 85 175.5 168t176.5 168h38q-74 -70 -146 -139t-146 -139q85 -106 167.5 -211t166.5 -211h-36q-80 102 -158.5 202t-159.5 202q-24 -23 -47.5 -45t-47.5 -45q0 -79 0.5 -157.5t0.5 -156.5h-28z" />
<glyph unicode="L" horiz-adv-x="593" d="M90 0v700h28v-673h396v-27h-424z" />
<glyph unicode="M" horiz-adv-x="937" d="M100 0v732q92 -119 183 -237.5t183 -237.5q92 119 183 237.5t183 237.5v-732h-28v438v172q0 11 0.5 21t1.5 21q-84 -113 -169.5 -223t-170.5 -222q-69 91 -137 179t-137 179l-55 72q-2 4 -5 7.5t-6 7.5q1 -11 1.5 -21t0.5 -21v-610h-28z" />
<glyph unicode="N" horiz-adv-x="813" d="M100 0v732q143 -171 283.5 -337.5t283.5 -336.5q5 -7 9.5 -13t9.5 -13q-1 8 -1.5 16t-1.5 16v636h28v-732q-143 168 -283.5 334.5t-283.5 335.5q-5 7 -9.5 13t-9.5 13q1 -8 1.5 -16t1.5 -16v-632h-28z" />
<glyph unicode="O" horiz-adv-x="840" d="M62 349q0 74 28 139.5t76.5 114t113.5 77t139 28.5t139.5 -28.5t114 -77t77 -114t28.5 -139.5t-28.5 -139t-77 -113.5t-114 -76.5t-139.5 -28t-139 28t-113.5 76.5t-76.5 113.5t-28 139zM90 348q0 -68 26 -128t70 -104.5t103.5 -70.5t127.5 -26t128.5 26t106 71t72 105 t26.5 128t-26 128.5t-71 105.5t-105.5 71.5t-128.5 26.5t-128 -26.5t-104.5 -71.5t-70.5 -105.5t-26 -129.5z" />
<glyph unicode="P" horiz-adv-x="455" d="M79 0v700h145q30 0 66 -10t67.5 -31.5t52.5 -56t21 -82.5q0 -85 -55 -135t-158 -50h-111v-335h-28zM107 362h109q55 0 91 15t57.5 38.5t30 51t8.5 53.5q0 30 -14 58t-39 49t-59 33.5t-74 12.5h-110v-311z" />
<glyph unicode="Q" horiz-adv-x="842" d="M62 349q0 74 28 139.5t76.5 114t113.5 77t139 28.5t139.5 -28.5t114 -77t77 -114t28.5 -139.5q0 -54 -15.5 -104t-44 -91.5t-67.5 -74t-86 -52.5h235v-27h-307q-38 -8 -74 -8q-74 0 -139 28t-113.5 76.5t-76.5 113.5t-28 139zM90 348q0 -68 26 -128t70 -104.5 t103.5 -70.5t127.5 -26t128.5 26t106 71t72 105t26.5 128t-26.5 128.5t-71.5 105.5t-105 71.5t-128 26.5t-128 -26.5t-104.5 -71.5t-70.5 -105.5t-26 -129.5z" />
<glyph unicode="R" horiz-adv-x="501" d="M79 0v700h145q30 0 66 -10t67.5 -31.5t52.5 -56t21 -82.5q0 -71 -38.5 -118t-112.5 -62l80 -170t81 -170h-30q-40 85 -80 169t-80 169q-20 -3 -41 -3h-103v-335h-28zM107 362h109q55 0 91 15t57.5 38.5t30 51t8.5 53.5q0 30 -14 58t-39 49t-59 33.5t-74 12.5h-110v-311z " />
<glyph unicode="S" horiz-adv-x="548" d="M73 84l20 20q14 -15 32 -30t40 -27t48 -20t57 -8q36 0 69.5 11.5t59.5 32.5t41.5 51.5t15.5 68.5q0 46 -20 76.5t-50.5 50.5t-66.5 32l-69 23q-18 5 -44 14.5t-50 27t-41.5 44t-19.5 66.5v11q-1 28 7 56q10 34 31.5 60.5t56 43t82.5 16.5q38 0 76 -13t78 -47 q-5 -5 -8 -11t-8 -11q-9 8 -22.5 17.5t-31 18t-39.5 14t-47 5.5q-37 0 -64.5 -12.5t-46 -33.5t-27.5 -48t-9 -56q0 -30 9 -51.5t26 -36.5t41 -26t54 -21q31 -11 71 -23.5t75.5 -35t60 -57.5t24.5 -90q0 -44 -16.5 -80t-45.5 -61.5t-67.5 -39t-81.5 -13.5q-39 0 -71.5 10.5 t-57.5 25t-43 30t-28 26.5z" />
<glyph unicode="T" horiz-adv-x="553" d="M0 673v27h553v-27h-263v-673h-28v673h-262z" />
<glyph unicode="U" horiz-adv-x="652" d="M97 226v474h28v-471q0 -51 15 -90t42 -65.5t64 -40.5t81 -14t81 14t64 40.5t42.5 65.5t15.5 90v471h28v-474q0 -57 -18 -101t-49 -73.5t-73 -44.5t-91 -15q-50 0 -92 15t-72.5 44.5t-48 73.5t-17.5 101z" />
<glyph unicode="V" horiz-adv-x="722" d="M54 700h29q68 -161 135.5 -321.5t136.5 -321.5l9 -27l9 27q69 161 136.5 321.5t135.5 321.5h29q-78 -184 -155 -366t-155 -366q-78 184 -155 366t-155 366z" />
<glyph unicode="W" horiz-adv-x="1108" d="M54 700h29q67 -161 134.5 -321.5t137.5 -321.5l9 -27q37 105 83 206.5t88 204.5q-27 66 -54 129.5t-55 129.5h29q68 -161 135 -321.5t137 -321.5l9 -27l9 27q69 161 136.5 321.5t136.5 321.5h28q-78 -184 -155 -366t-155 -366l-177 417q-2 6 -4.5 12.5t-4.5 12.5 q-44 -111 -91.5 -221.5t-94.5 -220.5q-78 184 -155 366t-155 366z" />
<glyph unicode="X" horiz-adv-x="700" d="M93 0q58 91 115 180t116 179q-56 86 -111 171l-110 170h33q50 -77 99.5 -153t99.5 -152q2 -4 4.5 -8t4.5 -8q2 4 4.5 8t4.5 8l98 152t98 153h33q-55 -87 -110.5 -172.5t-110.5 -172.5q58 -90 115.5 -177.5t115.5 -177.5h-34l-180 275q-10 14 -18.5 30.5t-19.5 30.5 q-2 -4 -4.5 -8t-4.5 -8q-51 -81 -102.5 -160t-102.5 -160h-33z" />
<glyph unicode="Y" horiz-adv-x="638" d="M41 700h34q58 -97 116 -193t115 -193l12 -27h1q3 7 5.5 13.5t5.5 13.5q58 97 115 193t115 193h34q-65 -110 -130 -218.5t-130 -218.5v-263h-32v264q-66 109 -130.5 218t-130.5 218z" />
<glyph unicode="Z" horiz-adv-x="700" d="M81 0v27q125 162 247 323t247 323h-414q-31 0 -47 10t-16 39v13h29v-12q0 -11 6.5 -17t23.5 -6h454v-27q-125 -162 -247 -323t-247 -323h523v-27h-559z" />
<glyph unicode="[" horiz-adv-x="338" d="M83 -149v895h169v-27h-140v-841h140v-27h-169z" />
<glyph unicode="\" horiz-adv-x="333" d="M14 736h30q70 -190 139 -377.5t139 -377.5h-30q-70 190 -139 377.5t-139 377.5z" />
<glyph unicode="]" horiz-adv-x="342" d="M82 -122h140v841h-140v27h169v-895h-169v27z" />
<glyph unicode="^" horiz-adv-x="470" d="M112 479q30 45 60 90.5t60 90.5q30 -45 60 -90.5t60 -90.5h-25q-24 35 -47.5 69t-47.5 69q-24 -35 -47.5 -69t-47.5 -69h-25z" />
<glyph unicode="_" horiz-adv-x="600" d="M100 0v27h400v-27h-400z" />
<glyph unicode="`" horiz-adv-x="200" d="M-21 612h29q23 -33 45 -66.5t45 -66.5h-24q-24 33 -48 66.5t-47 66.5z" />
<glyph unicode="a" horiz-adv-x="500" d="M49 188q0 40 15 75.5t41.5 62t62 42t76.5 15.5q30 0 57 -8.5t49.5 -23.5t39 -35t25.5 -42q0 25 1 50t3 51h21v-375h-25v50v52q-17 -45 -62.5 -76.5t-108.5 -32.5q-41 0 -76.5 15.5t-62 41.5t-41.5 61.5t-15 76.5zM77 188q0 -35 13 -65.5t35.5 -53t53 -35.5t65.5 -13 t66 13t54 35.5t36 53t13 65.5t-13 65.5t-36 53.5t-54 36t-66 13t-65.5 -13t-53 -36t-35.5 -53.5t-13 -65.5z" />
<glyph unicode="b" horiz-adv-x="528" d="M82 0v750h28v-426q-1 -13 -1.5 -25t-0.5 -25q8 22 24.5 42t38.5 35t49.5 23.5t57.5 8.5q41 0 76.5 -15.5t62 -41.5t41.5 -62t15 -76q0 -41 -15 -76.5t-41.5 -61.5t-62 -41.5t-76.5 -15.5q-62 1 -108 32.5t-63 76.5q0 -14 0.5 -26.5t0.5 -25.5v-50h-26zM110 188 q0 -35 13 -65.5t35.5 -53t53.5 -35.5t66 -13t65.5 13t53 35.5t35.5 53t13 65.5t-13 65.5t-35.5 53.5t-53 36t-65.5 13t-66 -13t-53.5 -36t-35.5 -53.5t-13 -65.5z" />
<glyph unicode="c" horiz-adv-x="385" d="M36 188q0 40 15.5 76t41.5 62t61.5 41.5t76.5 15.5q36 0 67.5 -11.5t56.5 -31.5q-5 -5 -9.5 -10.5t-8.5 -10.5q-22 17 -49 27t-57 10q-35 0 -65.5 -13t-53 -36t-35.5 -53.5t-13 -65.5t13 -65.5t35.5 -53t53 -35.5t65.5 -13q31 0 57.5 9.5t48.5 26.5q4 -5 8.5 -10.5 t9.5 -10.5q-26 -20 -57.5 -31.5t-66.5 -11.5q-41 0 -76.5 15.5t-61.5 41.5t-41.5 61.5t-15.5 76.5z" />
<glyph unicode="d" horiz-adv-x="523" d="M54 188q0 40 15 76t41.5 62t62 41.5t76.5 15.5q30 0 57.5 -8.5t49.5 -23.5t38.5 -35t24.5 -42q0 13 -0.5 25t-1.5 25v426h28v-750h-26v50q0 13 0.5 25.5t0.5 26.5q-17 -45 -62.5 -76.5t-108.5 -32.5q-41 0 -76.5 15.5t-62 41.5t-41.5 61.5t-15 76.5zM82 188 q0 -35 13 -65.5t35.5 -53t53 -35.5t65.5 -13t66 13t53.5 35.5t35.5 53t13 65.5t-13 65.5t-35.5 53.5t-53.5 36t-66 13t-65.5 -13t-53 -36t-35.5 -53.5t-13 -65.5z" />
<glyph unicode="e" horiz-adv-x="451" d="M36 188q0 40 15.5 76t41.5 62t61.5 41.5t76.5 15.5q60 0 105.5 -37t65.5 -95q-81 -33 -162 -65t-162 -65q19 -45 59.5 -72.5t93.5 -27.5q34 0 63 12t52 33l8 -10t9 -10q-26 -25 -59.5 -39t-72.5 -14q-41 0 -76.5 15.5t-61.5 41.5t-41.5 61.5t-15.5 76.5zM65 197v-11 q1 -8 1 -15q2 -12 3 -24q75 30 148.5 59.5t148.5 59.5q-19 40 -54.5 65t-80.5 25q-34 0 -63.5 -12.5t-52 -34t-36 -50.5t-14.5 -62z" />
<glyph unicode="f" horiz-adv-x="283" d="M22 347v27h65v144q0 55 15.5 98t42 72t62 44.5t76.5 17.5v-27q-34 0 -64.5 -14.5t-53.5 -40.5t-36.5 -63.5t-13.5 -84.5v-146h127v-27h-127v-347h-28v347h-65z" />
<glyph unicode="g" horiz-adv-x="518" d="M49 188q0 40 15 75.5t41.5 62t62 42t76.5 15.5q30 0 57 -8.5t49.5 -23.5t39 -35t25.5 -42q0 25 1 50t3 51h21v-393v-8q0 -53 -14.5 -94t-40 -69.5t-59.5 -44t-73 -16.5q-42 2 -84.5 15.5t-68.5 44.5q5 5 10.5 9.5t10.5 9.5q23 -27 59.5 -39t71.5 -12q33 0 62.5 14 t51 39.5t34.5 61.5t13 80v74q0 14 1 27t1 27q-9 -22 -25.5 -41.5t-38.5 -34t-49.5 -23t-57.5 -8.5q-41 0 -76.5 15t-62 41.5t-41.5 61.5t-15 76zM77 188q0 -35 13 -65.5t35.5 -53t53 -35.5t65.5 -13t66 13t54 35.5t36 53t13 65.5t-13 65.5t-36 53.5t-54 36t-66 13t-65.5 -13 t-53 -36t-35.5 -53.5t-13 -65.5z" />
<glyph unicode="h" horiz-adv-x="491" d="M110 0v750h28v-428l-3 -45q20 48 63.5 76.5t100.5 28.5q54 0 85.5 -31t33.5 -81v-270h-28v268q-2 35 -25 60t-66 27q-32 0 -61.5 -10.5t-51.5 -29.5t-35 -45.5t-13 -57.5v-212h-28z" />
<glyph unicode="i" horiz-adv-x="183" d="M68 504q0 11 8 19t19 8q10 0 18 -8t8 -19t-8 -18.5t-18 -7.5q-11 0 -19 7.5t-8 18.5zM80 0v375h28v-375h-28z" />
<glyph unicode="j" horiz-adv-x="225" d="M49 -161q25 26 40 64.5t15 88.5v383h28v-381q0 -58 -16.5 -101.5t-45.5 -72.5q-5 5 -10.5 9.5t-10.5 9.5zM92 504q0 11 7.5 19t18.5 8t19 -8t8 -19t-8 -18.5t-19 -7.5t-18.5 7.5t-7.5 18.5z" />
<glyph unicode="k" horiz-adv-x="449" d="M84 0v750h27v-567q56 52 108 100.5t108 100.5q5 -5 8.5 -9t8.5 -9q-38 -35 -71.5 -67.5t-70.5 -67.5l168 -231h-33q-39 54 -78.5 106t-78.5 106q-17 -16 -34 -32.5t-35 -32.5v-147h-27z" />
<glyph unicode="l" horiz-adv-x="185" d="M80 0v750h28v-750h-28z" />
<glyph unicode="m" horiz-adv-x="796" d="M110 0v375h26v-44q-1 -14 -1 -27v-27q20 48 63.5 76.5t100.5 28.5q51 0 82 -27.5t36 -72.5q21 45 64.5 72.5t98.5 27.5q54 0 85 -31t33 -81v-270h-28v268q-2 35 -25 60t-66 27q-32 0 -60.5 -10.5t-50.5 -28.5t-35.5 -43.5t-14.5 -55.5v-217h-28v268q-2 35 -25 60t-66 27 q-32 0 -61.5 -10.5t-51.5 -29.5t-35 -45.5t-13 -57.5v-212h-28z" />
<glyph unicode="n" horiz-adv-x="495" d="M110 0v375h26v-44q-1 -14 -1 -27v-27q20 48 64 76.5t100 28.5q54 0 85.5 -31t33.5 -81v-270h-28v268q-2 35 -25 60t-66 27q-32 0 -61.5 -10.5t-51.5 -29.5t-35 -45.5t-13 -57.5v-212h-28z" />
<glyph unicode="o" d="M36 188q0 40 15.5 76t41.5 62.5t61.5 42t76.5 15.5t77 -15.5t62.5 -42t42 -62.5t15.5 -76q0 -41 -15.5 -76.5t-42 -61.5t-62.5 -41.5t-77 -15.5t-76.5 15.5t-61.5 41.5t-41.5 61.5t-15.5 76.5zM64 188q0 -35 13 -65.5t35.5 -53t53 -35.5t65.5 -13t65.5 13t53.5 35.5 t36 53t13 65.5t-13 65.5t-36 53.5t-53.5 36t-65.5 13t-65.5 -13t-53 -36t-35.5 -53.5t-13 -65.5z" />
<glyph unicode="p" horiz-adv-x="525" d="M67 -250v625h25v-104q9 22 25 42.5t38.5 35.5t50 24t57.5 9q41 0 76.5 -15.5t62 -41.5t41.5 -62t15 -76q0 -41 -15 -76.5t-41.5 -61.5t-62 -41.5t-76.5 -15.5q-31 0 -58 8.5t-49.5 23.5t-38.5 34.5t-24 41.5q0 -12 1 -24t2 -23v-303h-29zM95 187q0 -35 13 -65.5 t35.5 -53.5t53.5 -36t66 -13t65.5 13t53 36t35.5 53.5t13 65.5t-13 65.5t-35.5 53t-53 35.5t-65.5 13t-66 -13t-53.5 -35.5t-35.5 -53t-13 -65.5z" />
<glyph unicode="q" horiz-adv-x="512" d="M52 187q0 40 15.5 76t42 62t62 41.5t76.5 15.5q30 0 57 -9t49.5 -24t39 -35.5t25.5 -42.5v104h25v-625h-29v303q1 11 1.5 23t1.5 24q-9 -22 -25 -41.5t-38 -34.5t-49 -23.5t-58 -8.5q-41 0 -76.5 15.5t-62 41.5t-42 61.5t-15.5 76.5zM80 187q0 -35 13 -65.5t35.5 -53.5 t53.5 -36t66 -13t65.5 13t53.5 36t36 53.5t13 65.5t-13 65.5t-36 53t-53.5 35.5t-65.5 13t-66 -13t-53.5 -35.5t-35.5 -53t-13 -65.5z" />
<glyph unicode="r" horiz-adv-x="331" d="M110 0v375h26v-44q-1 -14 -1 -27v-27q22 49 66 76.5t95 28.5l-1 -27q-32 -1 -60.5 -12t-50 -30t-34 -45t-12.5 -56v-212h-28z" />
<glyph unicode="s" horiz-adv-x="351" d="M57 39l9.5 9.5l9.5 9.5q7 -9 19 -16t25.5 -12t28 -8t27.5 -3q12 0 27 5t28.5 15t22.5 25t9 36q0 28 -14 43.5t-35.5 25t-46.5 16t-46.5 16.5t-36 27.5t-14.5 49.5q0 25 9.5 44t24.5 32t34 19.5t37 6.5q21 0 50.5 -9.5t50.5 -33.5q-4 -5 -8.5 -10t-8.5 -10 q-14 17 -38.5 26.5t-46.5 9.5q-12 0 -25.5 -4t-24.5 -12t-18.5 -22t-7.5 -33q0 -26 14.5 -40t36 -23t46.5 -16t46.5 -18.5t35.5 -30t14 -51.5q0 -18 -6.5 -37.5t-21 -36t-37 -27t-54.5 -10.5q-28 0 -61 10.5t-54 36.5z" />
<glyph unicode="t" horiz-adv-x="282" d="M42 343v27h88v249h27v-249h122v-27h-122v-343h-27v343h-88z" />
<glyph unicode="u" horiz-adv-x="529" d="M110 105v270h28v-268q2 -35 25 -60t66 -27q32 0 61.5 10.5t51.5 29.5t35 45.5t13 57.5v212h28v-377h-28v55l3 45q-20 -48 -64.5 -76.5t-99.5 -28.5q-54 0 -85.5 31t-33.5 81z" />
<glyph unicode="v" horiz-adv-x="500" d="M54 375h29q43 -85 87 -171.5t86 -173.5q41 87 85 173l88 172h28q-51 -100 -100.5 -199t-100.5 -199q-102 200 -202 398z" />
<glyph unicode="w" horiz-adv-x="772" d="M56 375h29q42 -86 85 -172.5t85 -172.5q29 63 60 124.5t61 123.5q-12 24 -24 48.5t-24 48.5h29q42 -86 85 -172.5t85 -172.5q42 87 84.5 173t85.5 172h29q-100 -199 -199 -398q-34 69 -68 136.5t-68 136.5q-34 -69 -68 -136.5t-68 -136.5q-99 199 -199 398z" />
<glyph unicode="x" horiz-adv-x="403" d="M41 0q35 48 68.5 95t68.5 95q-34 47 -68 92.5t-68 92.5h35l123 -168q30 42 60 83.5t60 83.5h34q-35 -48 -69 -95.5t-68 -95.5l135 -183h-34q-31 42 -61.5 83.5t-61.5 83.5q-30 -42 -59.5 -83.5t-59.5 -83.5h-35z" />
<glyph unicode="y" horiz-adv-x="489" d="M42 375h31l88 -174t86 -175q41 88 85 175l88 174h31q-78 -157 -156 -312.5t-156 -312.5h-32q32 62 62.5 123.5t61.5 123.5z" />
<glyph unicode="z" horiz-adv-x="451" d="M42 0v27q80 81 152.5 160.5t151.5 160.5h-220q-31 0 -47 10t-16 39v13h29v-12q0 -11 6.5 -17t23.5 -6h262v-27q-80 -81 -152.5 -160.5t-151.5 -160.5h322v-27h-360z" />
<glyph unicode="{" horiz-adv-x="282" d="M30 281v35q24 1 39.5 14.5t24.5 33.5t12 43.5t3 43.5v177q0 46 8 70t20.5 34.5t29 12t34.5 1.5h43v-27h-55q-31 0 -41.5 -24.5t-10.5 -86.5v-145q0 -44 -5.5 -72.5t-14.5 -46.5t-21 -28t-25 -17q13 -7 25 -17.5t21 -29t14.5 -46.5t5.5 -71v-146q0 -61 10.5 -85.5 t41.5 -24.5h55v-27h-43q-20 0 -37 1.5t-29 15t-19 43.5t-7 87v147q0 20 -3 43.5t-12 43.5t-24.5 33.5t-39.5 14.5z" />
<glyph unicode="|" horiz-adv-x="229" d="M97 -232v932h28v-932h-28z" />
<glyph unicode="}" horiz-adv-x="320" d="M76 -121h55q31 0 41.5 24.5t10.5 85.5v176q0 33 7 56t17 38.5t21.5 24.5t20.5 15q-13 7 -25 17t-21 28t-14.5 46.5t-5.5 72.5v145q0 62 -10.5 86.5t-41.5 24.5h-55v27h43q18 0 34.5 -1t29 -11.5t20.5 -35t8 -70.5v-148q0 -18 1 -45.5t8.5 -53t23.5 -45t46 -20.5v-35 q-30 -2 -46 -21t-23.5 -45t-8.5 -53t-1 -45v-147q0 -46 -8 -70.5t-20.5 -35t-29 -11.5t-34.5 -1h-43v27z" />
<glyph unicode="~" horiz-adv-x="489" d="M130 472q1 19 9 32.5t20 22t26.5 12.5t28.5 4q20 0 37 -10t33 -27t28 -23t26 -6q7 0 17.5 2t20 8t16.5 16.5t9 26.5q5 -1 10 -1t10 -1q-1 -19 -9 -32.5t-20 -22t-26.5 -12.5t-28.5 -4q-20 0 -37.5 10t-33.5 27t-27.5 23t-25.5 6q-8 0 -18 -2t-20 -8t-17 -16.5t-9 -26.5 q-5 1 -9.5 1t-9.5 1z" />
<glyph unicode="&#xa1;" horiz-adv-x="200" d="M74 485q0 -12 8 -19.5t18 -7.5t18 7.5t8 19.5q0 11 -8 18.5t-18 7.5t-18 -7.5t-8 -18.5zM86 -210h28v584h-28v-584z" />
<glyph unicode="&#xa2;" horiz-adv-x="385" d="M36 188q0 37 13 70.5t36 59.5t54.5 42.5t68.5 20.5v57h28v-55q34 -1 64.5 -12t54.5 -31q-5 -5 -9.5 -10.5t-8.5 -10.5q-44 34 -101 36v-334q29 1 54.5 10.5t46.5 25.5q4 -5 8.5 -10.5t9.5 -10.5q-51 -40 -119 -42v-62h-28v64q-37 4 -68.5 20.5t-54.5 42t-36 58.5t-13 71z M64 188q0 -32 11 -60t30.5 -50t45.5 -36.5t57 -18.5v329q-31 -3 -57 -17.5t-45.5 -36t-30.5 -50t-11 -60.5z" />
<glyph unicode="&#xa3;" horiz-adv-x="574" d="M27 0v27h44q17 0 27.5 6.5t16 22.5t7 43t1.5 68v136h-65v28h65v169q0 70 46.5 102t124.5 32q67 0 102.5 -25.5t55.5 -65.5l-10 -6l-10 -6q-11 20 -23 34.5t-28 23.5t-37 13.5t-50 4.5q-41 0 -68.5 -8.5t-44 -23t-23.5 -34t-7 -42.5v-168h126v-28h-126v-151v-32 q0 -29 -4.5 -54t-18.5 -39h199h33q61 0 85.5 10.5t24.5 41.5v55h28v-48q0 -17 -2 -32.5t-13 -27.5t-35 -19t-68 -7h-353z" />
<glyph unicode="&#xa4;" horiz-adv-x="500" d="M104 234l38 38q-33 38 -33 89q0 24 8 45.5t22 39.5l-35 35l20 20l35 -35q18 15 40 24t48 9t48.5 -9t39.5 -25l35 35l20 -19l-35 -35q30 -36 30 -85q0 -26 -9 -48t-23 -40l37 -38l-20 -20l-38 38q-36 -30 -85 -30q-24 0 -46 7.5t-39 21.5l-38 -38zM137 361q0 -23 8.5 -43 t23.5 -35t35 -24t43 -9t43 9t35 24t23.5 35t8.5 43t-8.5 43t-23.5 35t-35 24t-43 9t-43 -9t-35 -24t-23.5 -35t-8.5 -43z" />
<glyph unicode="&#xa5;" horiz-adv-x="638" d="M41 700h34q58 -97 115.5 -193t115.5 -193l12 -27h1q3 7 5.5 13.5t5.5 13.5q58 97 115 193t115 193h34q-62 -103 -122.5 -205t-122.5 -205h134v-27h-149v-136h149v-27h-149v-100h-32v100h-152v27h152v136h-152v27h136q-62 103 -122.5 205t-122.5 205z" />
<glyph unicode="&#xa6;" horiz-adv-x="215" d="M95 117h28v-350h-28v350zM95 350v350h28v-350h-28z" />
<glyph unicode="&#xa7;" horiz-adv-x="500" d="M141 344q-3 23 2 45t18 41t33 32q25 14 52.5 14t51.5 -11q-15 25 -29 50.5t-29 51.5t-22 45t-8 33t3 24.5t11 18.5q11 15 33.5 27t39.5 21q3 -5 6.5 -11t7.5 -12q-13 -8 -24.5 -14t-23.5 -14q-26 -15 -23.5 -40.5t31.5 -75.5q22 -38 43.5 -75.5t43.5 -75.5 q13 -21 16 -43.5t-2.5 -44.5t-19 -40.5t-33.5 -31.5q-24 -15 -51.5 -15.5t-52.5 11.5l60 -102q15 -26 22 -45t8 -33.5t-3 -25t-11 -18.5q-12 -16 -34 -27.5t-39 -20.5q-3 6 -6.5 12t-7.5 12q13 7 24.5 13.5t23.5 13.5q26 15 23 41.5t-33 78.5q-29 48 -48.5 82t-37.5 65 q-12 21 -15 44zM167.5 363q-0.5 -22 9.5 -42q12 -27 37 -40.5t54 -11.5q19 1 34.5 10.5t26.5 23.5t16 31t3 35q-3 20 -12.5 36t-23.5 27t-31 16t-34 4q-26 -2 -43.5 -15.5t-26.5 -32.5t-9.5 -41z" />
<glyph unicode="&#xa8;" horiz-adv-x="370" d="M75 504q0 11 8 19t19 8t18.5 -8t7.5 -19t-7.5 -18.5t-18.5 -7.5t-19 7.5t-8 18.5zM241 504q0 11 7.5 19t18.5 8t18.5 -8t7.5 -19t-7.5 -18.5t-18.5 -7.5t-18.5 7.5t-7.5 18.5z" />
<glyph unicode="&#xa9;" horiz-adv-x="793" d="M143 372q0 55 20 102t54.5 81.5t81.5 53.5t101 19t101 -19t81.5 -53.5t54.5 -81.5t20 -102t-20 -102t-54.5 -81t-81.5 -53t-101 -19t-101 19t-81.5 53t-54.5 81t-20 102zM163 371q0 -50 18.5 -93.5t50.5 -75t75 -49.5t92 -18t92.5 18t76 49.5t51 75t18.5 93.5 q0 52 -18.5 95.5t-51 75.5t-76 50t-92.5 18t-92 -18t-75 -50t-50.5 -75.5t-18.5 -95.5zM244 375q0 34 12.5 63.5t34.5 51.5t51.5 34.5t62.5 12.5q45 0 83 -22q-2 -3 -3.5 -5.5t-3.5 -5.5q-33 21 -76 21q-30 0 -57 -12t-47.5 -32.5t-32 -48t-11.5 -58.5t11.5 -58t31.5 -47 t47 -31.5t57 -11.5q42 0 76 20l8 -10q-18 -11 -39 -17t-44 -6q-33 0 -62.5 13t-51.5 35t-34.5 51.5t-12.5 62.5z" />
<glyph unicode="&#xaa;" horiz-adv-x="585" d="M77 357q0 28 11 54t30 45t44.5 30t55.5 11q22 0 41.5 -6t35.5 -17t28 -25.5t18 -29.5q0 18 1 36l2 36h15v-270h-18v36v38q-12 -33 -45 -55.5t-78 -23.5q-30 0 -55.5 11t-44.5 30t-30 44.5t-11 55.5zM98 357q0 -26 9 -48t25.5 -38t38.5 -25.5t47 -9.5t47.5 9.5t39 25.5 t26 38t9.5 48q0 25 -9.5 47t-26 38.5t-39 26t-47.5 9.5t-47 -9.5t-38.5 -26t-25.5 -38.5t-9 -47z" />
<glyph unicode="&#xab;" horiz-adv-x="601" d="M117 239q43 41 85.5 80.5t85.5 80.5v-33q-32 -32 -63.5 -64t-63.5 -64q32 -33 63.5 -65.5t63.5 -64.5v-32zM288 239q43 41 85.5 80.5t85.5 80.5v-32q-32 -32 -63.5 -64.5t-63.5 -64.5q32 -33 63.5 -65.5t63.5 -64.5v-32z" />
<glyph unicode="&#xac;" horiz-adv-x="559" d="M100 219v23h360v-94h-28v71h-332z" />
<glyph unicode="&#xad;" horiz-adv-x="300" d="M53 177v27h184v-27h-184z" />
<glyph unicode="&#xae;" horiz-adv-x="801" d="M143 372q0 55 20 102t54.5 81.5t81.5 53.5t101 19t101 -19t81.5 -53.5t54.5 -81.5t20 -102t-20 -102t-54.5 -81t-81.5 -53t-101 -19t-101 19t-81.5 53t-54.5 81t-20 102zM163 371q0 -50 18.5 -93.5t50.5 -75t75 -49.5t92 -18t92.5 18t76 49.5t51 75t18.5 93.5 q0 52 -18.5 95.5t-51 75.5t-76 50t-92.5 18t-92 -18t-75 -50t-50.5 -75.5t-18.5 -95.5zM331 210v331h69q14 0 31 -4.5t32 -15t25 -26.5t10 -39q0 -34 -18.5 -56t-53.5 -29q19 -41 38 -81l38 -80h-14q-19 40 -37.5 79.5t-37.5 80.5q-5 -1 -10 -1.5t-10 -0.5h-48v-158h-14z M345 381h51q26 0 43 7t27 18.5t14 24.5t4 25q0 29 -25 50.5t-63 21.5h-51v-147z" />
<glyph unicode="&#xaf;" horiz-adv-x="399" d="M85 489v22h230v-22h-230z" />
<glyph unicode="&#xb0;" horiz-adv-x="282" d="M56 559q0 35 23.5 58.5t58.5 23.5q34 0 57.5 -23.5t23.5 -58.5q0 -34 -23.5 -57t-57.5 -23q-35 0 -58.5 23t-23.5 57zM78 560q0 -26 17.5 -42.5t42.5 -16.5t42 16.5t17 42.5q0 25 -17 42t-42 17t-42.5 -17t-17.5 -42z" />
<glyph unicode="&#xb1;" horiz-adv-x="524" d="M86 129v27h360v-27h-360zM86 378v27h166v166h28v-166h166v-27h-166v-167h-28v167h-166z" />
<glyph unicode="&#xb2;" horiz-adv-x="398" d="M62 415q0 20 6 37t17.5 30t28.5 20.5t39 7.5q20 0 36.5 -7.5t28.5 -20.5t18.5 -31t6.5 -38q0 -28 -13.5 -55.5t-34.5 -54t-46.5 -53t-50.5 -52.5h167v-13h-201q32 31 61.5 60.5t52.5 57.5t37 54.5t14 49.5q0 25 -7.5 42.5t-19 28t-24.5 15t-25 4.5q-23 0 -38 -8.5 t-23.5 -20.5t-12 -26.5t-3.5 -26.5q0 -34 20 -55q-3 -3 -5 -4.5t-4 -3.5q-11 11 -18 27t-7 36z" />
<glyph unicode="&#xb3;" horiz-adv-x="419" d="M67 216l5.5 5.5t4.5 5.5q12 -13 28.5 -22t35.5 -9q18 0 34.5 7.5t28.5 19.5t19.5 28t7.5 34t-7.5 34t-19.5 27.5t-28.5 18.5t-34.5 7q-9 0 -16.5 -3t-14.5 -8q25 34 49 66.5t49 65.5h-132v14h158q-23 -31 -46 -61.5t-47 -61.5q22 0 40.5 -7.5t32.5 -21t22 -31.5t8 -39 q0 -22 -8 -40.5t-22 -32t-32.5 -21.5t-39.5 -8q-22 0 -41 9t-34 24z" />
<glyph unicode="&#xb4;" horiz-adv-x="229" d="M100 479q23 33 45 66.5t45 66.5h30q-24 -33 -48 -66.5t-47 -66.5h-25z" />
<glyph unicode="&#xb5;" horiz-adv-x="545" d="M110 -201v576h28v-268q2 -35 25 -60t66 -27q32 0 61.5 10.5t51.5 29.5t35 45.5t13 57.5v212h28v-377h-28v55l3 45q-20 -48 -64 -76.5t-100 -28.5q-32 0 -55 12t-36 34v-240h-28z" />
<glyph unicode="&#xb6;" horiz-adv-x="501" d="M38 586q0 34 12.5 64t34.5 52t52 35t64 13h191v-750h-28v723h-135v-723h-28v423q-34 0 -64 12.5t-52 34.5t-34.5 52t-12.5 64z" />
<glyph unicode="&#xb7;" horiz-adv-x="164" d="M59 280q0 11 8 19t19 8t18.5 -8t7.5 -19t-7.5 -18.5t-18.5 -7.5t-19 7.5t-8 18.5z" />
<glyph unicode="&#xb8;" horiz-adv-x="452" d="M121 -167q5 2 10.5 4t10.5 4q6 -20 23 -33t40 -13q30 0 48 20t18 49q0 26 -12.5 40.5t-27.5 25t-27.5 21t-12.5 29.5v20h22v-6q0 -14 4 -22.5t10 -14.5t13.5 -10t13.5 -8q22 -15 31.5 -34t9.5 -35q0 -50 -25.5 -74t-62.5 -24q-28 0 -51.5 15t-34.5 46z" />
<glyph unicode="&#xb9;" horiz-adv-x="254" d="M40 471v12h60v-299h-13v287h-47z" />
<glyph unicode="&#xba;" d="M73 357q0 28 11 54t30 45.5t44.5 30.5t55.5 11q29 0 55 -11t45 -30.5t30.5 -45.5t11.5 -54q0 -30 -11.5 -55.5t-30.5 -44.5t-45 -30t-55 -11q-30 0 -55.5 11t-44.5 30t-30 44.5t-11 55.5zM93 357q0 -26 9.5 -48t25.5 -38t38 -25.5t48 -9.5q25 0 47 9.5t38.5 25.5t26 38 t9.5 48q0 25 -9.5 47t-26 38.5t-38.5 26t-47 9.5q-26 0 -48 -9.5t-38 -26t-25.5 -38.5t-9.5 -47z" />
<glyph unicode="&#xbb;" horiz-adv-x="601" d="M117 77l171 162q-43 41 -85.5 80.5t-85.5 80.5v-32q32 -32 63.5 -64.5t63.5 -64.5q-32 -33 -63.5 -65.5t-63.5 -64.5v-32zM288 77l171 162q-43 41 -85.5 80.5t-85.5 80.5v-33q32 -32 63.5 -64t63.5 -64q-32 -33 -63.5 -65.5t-63.5 -64.5v-32z" />
<glyph unicode="&#xbc;" horiz-adv-x="968" d="M103 608v19h94v-461h-20v442h-74zM287 -19q70 190 139 377t139 377h28q-70 -190 -139 -377t-139 -377h-28zM379 136q69 89 136.5 177t135.5 177v-334h72v-20h-72v-136h-20v136h-252zM423 156h208v273q-52 -69 -104 -136.5t-104 -136.5z" />
<glyph unicode="&#xbd;" horiz-adv-x="1069" d="M93 608v19h94v-461h-20v442h-74zM287 -19q70 190 139 377t139 377h28q-70 -190 -139 -377t-139 -377h-28zM420 330q0 28 8.5 52.5t25 43t40.5 29t56 10.5q28 0 51.5 -10.5t40.5 -29t26.5 -44t9.5 -55.5q0 -40 -19 -79t-49.5 -77t-67 -76t-71.5 -75h238v-19h-287 q46 44 88.5 86.5t75 82.5t52.5 77.5t20 71.5q0 36 -10.5 61t-27 40t-35 21t-35.5 6q-33 0 -55 -12t-34 -29t-17 -37.5t-5 -37.5q0 -49 29 -80q-4 -3 -6.5 -5.5t-6.5 -5.5q-16 16 -25.5 39t-9.5 52z" />
<glyph unicode="&#xbe;" horiz-adv-x="1276" d="M131 205q4 3 8 8t8 9q17 -21 43 -34.5t56 -13.5q29 0 54.5 11t44.5 30t30.5 44t11.5 53t-11.5 53.5t-30.5 44t-44.5 29t-54.5 10.5q-13 0 -25 -4.5t-23 -12.5q39 53 77 104.5t76 102.5h-207v22h248q-36 -49 -72 -96.5t-73 -95.5q33 -1 62 -13t51 -33t34.5 -49.5 t12.5 -61.5t-12.5 -62t-34 -50.5t-50.5 -34t-62 -12.5q-35 0 -64.5 14t-52.5 38zM457 -19q70 190 139 377.5t139 377.5h28q-70 -190 -139 -377.5t-139 -377.5h-28zM528 136q68 89 136 177t136 177v-334h72v-20h-72v-136h-21v136h-251zM571 156h208v273q-52 -69 -104 -136.5 t-104 -136.5z" />
<glyph unicode="&#xbf;" horiz-adv-x="418" d="M36 2q0 54 26.5 95t71.5 73q18 14 35 23.5t29.5 22t20 31t7.5 50.5v78h28v-97q0 -31 -11 -50t-29.5 -34t-41.5 -28.5t-47 -34.5q-32 -27 -46.5 -59.5t-14.5 -69.5q0 -36 13 -66.5t35.5 -53t53 -35.5t66.5 -13q59 0 102.5 32t60.5 86q6 -2 12.5 -4t12.5 -4q-9 -27 -26 -52 t-41 -44t-54.5 -30t-66.5 -11q-41 0 -77 15.5t-62.5 42t-41.5 62t-15 75.5zM214 493q0 11 8 18.5t18 7.5t18 -7.5t8 -18.5q0 -12 -8 -19.5t-18 -7.5t-18 7.5t-8 19.5z" />
<glyph unicode="&#xc0;" horiz-adv-x="740" d="M60 0q78 184 155 366t155 366q78 -184 155 -366t155 -366h-28q-33 77 -65.5 154t-65.5 154h-302q-32 -77 -64.5 -154t-65.5 -154h-29zM231 335h278q-32 78 -64.5 154t-65.5 154l-9 27q-31 -86 -67.5 -168.5t-71.5 -166.5zM269 883h29q23 -33 45 -66.5t45 -66.5h-24 q-24 33 -48 66.5t-47 66.5z" />
<glyph unicode="&#xc1;" horiz-adv-x="740" d="M60 0q78 184 155 366t155 366q78 -184 155 -366t155 -366h-28q-33 77 -65.5 154t-65.5 154h-302q-32 -77 -64.5 -154t-65.5 -154h-29zM231 335h278q-32 78 -64.5 154t-65.5 154l-9 27q-31 -86 -67.5 -168.5t-71.5 -166.5zM353 750q23 33 45 66.5t45 66.5h30 q-24 -33 -48 -66.5t-47 -66.5h-25z" />
<glyph unicode="&#xc2;" horiz-adv-x="740" d="M60 0q78 184 155 366t155 366q78 -184 155 -366t155 -366h-28q-33 77 -65.5 154t-65.5 154h-302q-32 -77 -64.5 -154t-65.5 -154h-29zM231 335h278q-32 78 -64.5 154t-65.5 154l-9 27q-31 -86 -67.5 -168.5t-71.5 -166.5zM251 750q30 45 60 90.5t60 90.5q30 -45 60 -90.5 t60 -90.5h-25q-24 35 -47.5 69t-47.5 69q-24 -35 -47.5 -69t-47.5 -69h-25z" />
<glyph unicode="&#xc3;" horiz-adv-x="740" d="M60 0q78 184 155 366t155 366q78 -184 155 -366t155 -366h-28q-33 77 -65.5 154t-65.5 154h-302q-32 -77 -64.5 -154t-65.5 -154h-29zM221 763q1 19 9 32.5t20 22t26.5 12.5t28.5 4q20 0 37 -10t33 -27t28 -23t26 -6q7 0 17.5 2t20 8t16.5 16.5t9 26.5q5 -1 10 -1t10 -1 q-1 -19 -9 -32.5t-20 -22t-26.5 -12.5t-28.5 -4q-20 0 -37.5 10t-33.5 27t-27.5 23t-25.5 6q-8 0 -18 -2t-20 -8t-17 -16.5t-9 -26.5q-5 1 -9.5 1t-9.5 1zM231 335h278q-32 78 -64.5 154t-65.5 154l-9 27q-31 -86 -67.5 -168.5t-71.5 -166.5z" />
<glyph unicode="&#xc4;" horiz-adv-x="740" d="M60 0q78 184 155 366t155 366q78 -184 155 -366t155 -366h-28q-33 77 -65.5 154t-65.5 154h-302q-32 -77 -64.5 -154t-65.5 -154h-29zM231 335h278q-32 78 -64.5 154t-65.5 154l-9 27q-31 -86 -67.5 -168.5t-71.5 -166.5zM262 794q0 11 8 19t19 8t18.5 -8t7.5 -19 t-7.5 -18.5t-18.5 -7.5t-19 7.5t-8 18.5zM428 794q0 11 7.5 19t18.5 8t18.5 -8t7.5 -19t-7.5 -18.5t-18.5 -7.5t-18.5 7.5t-7.5 18.5z" />
<glyph unicode="&#xc5;" horiz-adv-x="740" d="M60 0q78 184 155 366t155 366q78 -184 155 -366t155 -366h-28q-33 77 -65.5 154t-65.5 154h-302q-32 -77 -64.5 -154t-65.5 -154h-29zM231 335h278q-32 78 -64.5 154t-65.5 154l-9 27q-31 -86 -67.5 -168.5t-71.5 -166.5zM303 835q0 29 19.5 48.5t48.5 19.5t48.5 -19.5 t19.5 -48.5t-19.5 -48.5t-48.5 -19.5t-48.5 19.5t-19.5 48.5zM325 835q0 -19 14 -32.5t32 -13.5q19 0 32.5 13.5t13.5 32.5q0 18 -13.5 31.5t-32.5 13.5q-18 0 -32 -13.5t-14 -31.5z" />
<glyph unicode="&#xc6;" horiz-adv-x="790" d="M60 0q75 176 148 350t148 350h329v-27h-298v-307h259v-27h-259v-312h312v-27h-340v306h-141l-129 -306h-29zM230 333h129v309q-29 -79 -63 -155t-66 -154z" />
<glyph unicode="&#xc7;" horiz-adv-x="670" d="M62 349q0 74 28 139.5t76.5 114t113.5 77t139 28.5q51 0 96.5 -13t86.5 -37q-6 -10 -16 -23q-75 46 -167 46q-68 0 -128 -26.5t-104.5 -71.5t-70.5 -105.5t-26 -129.5q0 -68 26 -128t70 -104.5t103.5 -70.5t127.5 -26q46 0 88 12t80 34l16 -23q-39 -23 -84 -36t-95 -14 q0 -13 4 -21t10 -14t13.5 -10t13.5 -8q23 -15 32 -34t9 -35q0 -50 -25.5 -74t-62.5 -24q-28 0 -51.5 15t-34.5 46q5 2 11 4t11 4q5 -20 22 -33t41 -13q29 0 47.5 20t18.5 49q0 26 -12.5 40.5t-28 25t-28 21t-12.5 29.5v13q-71 3 -132.5 32.5t-107 77.5t-72 111t-26.5 135z " />
<glyph unicode="&#xc8;" horiz-adv-x="601" d="M90 0v700h410v-27h-382v-307h343v-27h-343v-312h396v-27h-424zM189 883h29q23 -33 45 -66.5t45 -66.5h-24q-24 33 -48 66.5t-47 66.5z" />
<glyph unicode="&#xc9;" horiz-adv-x="601" d="M90 0v700h410v-27h-382v-307h343v-27h-343v-312h396v-27h-424zM274 750q23 33 45 66.5t45 66.5h30q-24 -33 -48 -66.5t-47 -66.5h-25z" />
<glyph unicode="&#xca;" horiz-adv-x="601" d="M90 0v700h410v-27h-382v-307h343v-27h-343v-312h396v-27h-424zM180 750q30 45 60 90.5t60 90.5q30 -45 60 -90.5t60 -90.5h-25q-24 35 -47.5 69t-47.5 69q-24 -35 -47.5 -69t-47.5 -69h-25z" />
<glyph unicode="&#xcb;" horiz-adv-x="601" d="M90 0v700h410v-27h-382v-307h343v-27h-343v-312h396v-27h-424zM186 794q0 11 8 19t19 8t18.5 -8t7.5 -19t-7.5 -18.5t-18.5 -7.5t-19 7.5t-8 18.5zM352 794q0 11 7.5 19t18.5 8t18.5 -8t7.5 -19t-7.5 -18.5t-18.5 -7.5t-18.5 7.5t-7.5 18.5z" />
<glyph unicode="&#xcc;" horiz-adv-x="236" d="M15 883h29q23 -33 45 -66.5t45 -66.5h-24q-24 33 -48 66.5t-47 66.5zM105 0v700h28v-700h-28z" />
<glyph unicode="&#xcd;" horiz-adv-x="236" d="M101 750q23 33 45 66.5t45 66.5h30q-24 -33 -48 -66.5t-47 -66.5h-25zM105 0v700h28v-700h-28z" />
<glyph unicode="&#xce;" horiz-adv-x="246" d="M0 750q30 45 60 90.5t60 90.5q30 -45 60 -90.5t60 -90.5h-25q-24 35 -47.5 69t-47.5 69q-24 -35 -47.5 -69t-47.5 -69h-25zM105 0v700h28v-700h-28z" />
<glyph unicode="&#xcf;" horiz-adv-x="236" d="M10 794q0 11 8 19t19 8t18.5 -8t7.5 -19t-7.5 -18.5t-18.5 -7.5t-19 7.5t-8 18.5zM105 0v700h28v-700h-28zM176 794q0 11 7.5 19t18.5 8t18.5 -8t7.5 -19t-7.5 -18.5t-18.5 -7.5t-18.5 7.5t-7.5 18.5z" />
<glyph unicode="&#xd0;" horiz-adv-x="646" d="M22 339v27h59v334h140q73 0 138.5 -24.5t114.5 -70t78 -110.5t29 -145q0 -59 -21 -121t-68.5 -113t-122.5 -83.5t-183 -32.5h-105v339h-59zM109 27h95q74 0 138 23t111 65t74 101.5t27 133.5q0 75 -26 134.5t-72.5 101.5t-110.5 64.5t-141 22.5h-95v-307h215v-27h-215 v-312z" />
<glyph unicode="&#xd1;" horiz-adv-x="813" d="M100 0v732q143 -171 283.5 -337.5t283.5 -336.5q5 -7 9.5 -13t9.5 -13q-1 8 -1.5 16t-1.5 16v636h28v-732q-143 168 -283.5 334.5t-283.5 335.5q-5 7 -9.5 13t-9.5 13q1 -8 1.5 -16t1.5 -16v-632h-28zM267 765q1 19 9 32.5t20 22t26.5 12.5t28.5 4q20 0 37 -10t33 -27 t28 -23t26 -6q7 0 17.5 2t20 8t16.5 16.5t9 26.5q5 -1 10 -1t10 -1q-1 -19 -9 -32.5t-20 -22t-26.5 -12.5t-28.5 -4q-20 0 -37.5 10t-33.5 27t-27.5 23t-25.5 6q-8 0 -18 -2t-20 -8t-17 -16.5t-9 -26.5q-5 1 -9.5 1t-9.5 1z" />
<glyph unicode="&#xd2;" horiz-adv-x="839" d="M62 349q0 74 28 139.5t76.5 114t113.5 77t139 28.5t139.5 -28.5t114 -77t77 -114t28.5 -139.5t-28.5 -139t-77 -113.5t-114 -76.5t-139.5 -28t-139 28t-113.5 76.5t-76.5 113.5t-28 139zM90 348q0 -68 26 -128t70 -104.5t103.5 -70.5t127.5 -26t128.5 26t106 71t72 105 t26.5 128t-26 128.5t-71 105.5t-105.5 71.5t-128.5 26.5t-128 -26.5t-104.5 -71.5t-70.5 -105.5t-26 -129.5zM315 883h29q23 -33 45 -66.5t45 -66.5h-24q-24 33 -48 66.5t-47 66.5z" />
<glyph unicode="&#xd3;" horiz-adv-x="840" d="M62 349q0 74 28 139.5t76.5 114t113.5 77t139 28.5t139.5 -28.5t114 -77t77 -114t28.5 -139.5t-28.5 -139t-77 -113.5t-114 -76.5t-139.5 -28t-139 28t-113.5 76.5t-76.5 113.5t-28 139zM90 348q0 -68 26 -128t70 -104.5t103.5 -70.5t127.5 -26t128.5 26t106 71t72 105 t26.5 128t-26 128.5t-71 105.5t-105.5 71.5t-128.5 26.5t-128 -26.5t-104.5 -71.5t-70.5 -105.5t-26 -129.5zM400 750q23 33 45 66.5t45 66.5h30q-24 -33 -48 -66.5t-47 -66.5h-25z" />
<glyph unicode="&#xd4;" horiz-adv-x="839" d="M62 349q0 74 28 139.5t76.5 114t113.5 77t139 28.5t139.5 -28.5t114 -77t77 -114t28.5 -139.5t-28.5 -139t-77 -113.5t-114 -76.5t-139.5 -28t-139 28t-113.5 76.5t-76.5 113.5t-28 139zM90 348q0 -68 26 -128t70 -104.5t103.5 -70.5t127.5 -26t128.5 26t106 71t72 105 t26.5 128t-26 128.5t-71 105.5t-105.5 71.5t-128.5 26.5t-128 -26.5t-104.5 -71.5t-70.5 -105.5t-26 -129.5zM296 750q30 45 60 90.5t60 90.5q30 -45 60 -90.5t60 -90.5h-25q-24 35 -47.5 69t-47.5 69q-24 -35 -47.5 -69t-47.5 -69h-25z" />
<glyph unicode="&#xd5;" horiz-adv-x="839" d="M62 349q0 74 28 139.5t76.5 114t113.5 77t139 28.5t139.5 -28.5t114 -77t77 -114t28.5 -139.5t-28.5 -139t-77 -113.5t-114 -76.5t-139.5 -28t-139 28t-113.5 76.5t-76.5 113.5t-28 139zM90 348q0 -68 26 -128t70 -104.5t103.5 -70.5t127.5 -26t128.5 26t106 71t72 105 t26.5 128t-26 128.5t-71 105.5t-105.5 71.5t-128.5 26.5t-128 -26.5t-104.5 -71.5t-70.5 -105.5t-26 -129.5zM271 799q1 19 9 32.5t20 22t26.5 12.5t28.5 4q20 0 37 -10t33 -27t28 -23t26 -6q7 0 17.5 2t20 8t16.5 16.5t9 26.5q5 -1 10 -1t10 -1q-1 -19 -9 -32.5t-20 -22 t-26.5 -12.5t-28.5 -4q-20 0 -37.5 10t-33.5 27t-27.5 23t-25.5 6q-8 0 -18 -2t-20 -8t-17 -16.5t-9 -26.5q-5 1 -9.5 1t-9.5 1z" />
<glyph unicode="&#xd6;" horiz-adv-x="839" d="M62 349q0 74 28 139.5t76.5 114t113.5 77t139 28.5t139.5 -28.5t114 -77t77 -114t28.5 -139.5t-28.5 -139t-77 -113.5t-114 -76.5t-139.5 -28t-139 28t-113.5 76.5t-76.5 113.5t-28 139zM90 348q0 -68 26 -128t70 -104.5t103.5 -70.5t127.5 -26t128.5 26t106 71t72 105 t26.5 128t-26 128.5t-71 105.5t-105.5 71.5t-128.5 26.5t-128 -26.5t-104.5 -71.5t-70.5 -105.5t-26 -129.5zM310 794q0 11 8 19t19 8t18.5 -8t7.5 -19t-7.5 -18.5t-18.5 -7.5t-19 7.5t-8 18.5zM476 794q0 11 7.5 19t18.5 8t18.5 -8t7.5 -19t-7.5 -18.5t-18.5 -7.5 t-18.5 7.5t-7.5 18.5z" />
<glyph unicode="&#xd7;" horiz-adv-x="500" d="M126 20l58.5 58.5t58.5 59.5l-116 116l19 20l117 -117q29 30 59 59t59 59q5 -5 9.5 -10t9.5 -10l-117 -117q29 -29 58.5 -59t59.5 -59l-20 -20q-30 29 -59.5 59t-58.5 59q-30 -29 -59 -59t-58 -59q-11 9 -20 20z" />
<glyph unicode="&#xd8;" horiz-adv-x="840" d="M62 349q0 74 28 139.5t76.5 114t113.5 77t139 28.5q61 0 116 -19t100 -54q16 19 31 37.5t31 37.5q5 -5 9.5 -8.5t9.5 -7.5q-16 -19 -31 -37t-31 -37q57 -50 90.5 -120t33.5 -151q0 -74 -28.5 -139t-77 -113.5t-114 -76.5t-139.5 -28q-64 0 -121.5 21t-103.5 59 q-17 -20 -34.5 -41t-34.5 -41q-5 5 -9.5 8.5t-9.5 8.5q18 20 35 41t34 41q-53 48 -83 115t-30 145zM90 348q0 -72 27 -133t75 -106q107 128 212.5 252.5t211.5 252.5q-42 32 -92 49.5t-105 17.5q-68 0 -128 -26.5t-104.5 -71.5t-70.5 -105.5t-26 -129.5zM211 93 q43 -35 94.5 -54.5t111.5 -19.5q68 0 128.5 26t106 71t72 105t26.5 128q0 75 -31 139t-84 110q-106 -127 -212 -252.5t-212 -252.5z" />
<glyph unicode="&#xd9;" horiz-adv-x="652" d="M99 226v474h28v-471q0 -51 15 -90t42 -65.5t64 -40.5t81 -14t81 14t64 40.5t42.5 65.5t15.5 90v471h28v-474q0 -57 -18 -101t-49 -73.5t-73 -44.5t-91 -15q-50 0 -92 15t-72.5 44.5t-48 73.5t-17.5 101zM224 883h29q23 -33 45 -66.5t45 -66.5h-24q-24 33 -48 66.5 t-47 66.5z" />
<glyph unicode="&#xda;" horiz-adv-x="652" d="M99 226v474h28v-471q0 -51 15 -90t42 -65.5t64 -40.5t81 -14t81 14t64 40.5t42.5 65.5t15.5 90v471h28v-474q0 -57 -18 -101t-49 -73.5t-73 -44.5t-91 -15q-50 0 -92 15t-72.5 44.5t-48 73.5t-17.5 101zM300 750q23 33 45 66.5t45 66.5h30q-24 -33 -48 -66.5t-47 -66.5 h-25z" />
<glyph unicode="&#xdb;" horiz-adv-x="652" d="M99 226v474h28v-471q0 -51 15 -90t42 -65.5t64 -40.5t81 -14t81 14t64 40.5t42.5 65.5t15.5 90v471h28v-474q0 -57 -18 -101t-49 -73.5t-73 -44.5t-91 -15q-50 0 -92 15t-72.5 44.5t-48 73.5t-17.5 101zM206 790q30 45 60 90.5t60 90.5q30 -45 60 -90.5t60 -90.5h-25 q-24 35 -47.5 69t-47.5 69q-24 -35 -47.5 -69t-47.5 -69h-25z" />
<glyph unicode="&#xdc;" horiz-adv-x="652" d="M99 226v474h28v-471q0 -51 15 -90t42 -65.5t64 -40.5t81 -14t81 14t64 40.5t42.5 65.5t15.5 90v471h28v-474q0 -57 -18 -101t-49 -73.5t-73 -44.5t-91 -15q-50 0 -92 15t-72.5 44.5t-48 73.5t-17.5 101zM220 794q0 11 8 19t19 8t18.5 -8t7.5 -19t-7.5 -18.5t-18.5 -7.5 t-19 7.5t-8 18.5zM386 794q0 11 7.5 19t18.5 8t18.5 -8t7.5 -19t-7.5 -18.5t-18.5 -7.5t-18.5 7.5t-7.5 18.5z" />
<glyph unicode="&#xdd;" horiz-adv-x="638" d="M41 700h34q58 -97 116 -193t115 -193l12 -27h1q3 7 5.5 13.5t5.5 13.5q58 97 115 193t115 193h34q-65 -110 -130 -218.5t-130 -218.5v-263h-32v264q-66 109 -130.5 218t-130.5 218zM299 750q23 33 45 66.5t45 66.5h30q-24 -33 -48 -66.5t-47 -66.5h-25z" />
<glyph unicode="&#xde;" horiz-adv-x="501" d="M100 0v700h28v-165h117q30 0 66 -10t67.5 -31.5t52.5 -56t21 -82.5q0 -85 -55 -135t-158 -50h-111v-170h-28zM128 197h109q55 0 91.5 15t58 38.5t30 51t8.5 53.5q0 30 -14.5 58t-39.5 49t-59 33.5t-74 12.5h-110v-311z" />
<glyph unicode="&#xdf;" horiz-adv-x="573" d="M27 363v27h64v35q0 55 15.5 98t41.5 72.5t60.5 45.5t72.5 17q30 -1 56 -12.5t45.5 -31.5t31 -46.5t11.5 -56.5q0 -42 -22.5 -74t-59.5 -48q31 -9 57.5 -27t46 -43t30.5 -56t11 -65q0 -43 -16.5 -80.5t-44.5 -65.5t-66 -44t-80 -16q-29 0 -54 7t-48 20q2 7 5 12.5t6 11.5 q41 -25 89 -25q37 0 70.5 14.5t58 39t39 57.5t14.5 69t-14 67.5t-38.5 55.5t-57.5 38t-70 14v14v14q24 0 45.5 8t37 22t25 33.5t9.5 43.5t-8.5 46t-24 39t-37 27t-46.5 10q-33 0 -62.5 -14t-52 -40.5t-35.5 -64t-13 -83.5v-428h-28v363h-64z" />
<glyph unicode="&#xe0;" horiz-adv-x="551" d="M49 188q0 40 15 75.5t41.5 62t62 42t76.5 15.5q30 0 57 -8.5t49.5 -23.5t39 -35t25.5 -42q0 25 1 50t3 51h21v-375h-25v50v52q-17 -45 -62.5 -76.5t-108.5 -32.5q-41 0 -76.5 15.5t-62 41.5t-41.5 61.5t-15 76.5zM77 188q0 -35 13 -65.5t35.5 -53t53 -35.5t65.5 -13 t66 13t54 35.5t36 53t13 65.5t-13 65.5t-36 53.5t-54 36t-66 13t-65.5 -13t-53 -36t-35.5 -53.5t-13 -65.5zM144 612h29q23 -33 45 -66.5t45 -66.5h-24q-24 33 -48 66.5t-47 66.5z" />
<glyph unicode="&#xe1;" horiz-adv-x="551" d="M49 188q0 40 15 75.5t41.5 62t62 42t76.5 15.5q30 0 57 -8.5t49.5 -23.5t39 -35t25.5 -42q0 25 1 50t3 51h21v-375h-25v50v52q-17 -45 -62.5 -76.5t-108.5 -32.5q-41 0 -76.5 15.5t-62 41.5t-41.5 61.5t-15 76.5zM77 188q0 -35 13 -65.5t35.5 -53t53 -35.5t65.5 -13 t66 13t54 35.5t36 53t13 65.5t-13 65.5t-36 53.5t-54 36t-66 13t-65.5 -13t-53 -36t-35.5 -53.5t-13 -65.5zM232 479q23 33 45 66.5t45 66.5h30q-24 -33 -48 -66.5t-47 -66.5h-25z" />
<glyph unicode="&#xe2;" horiz-adv-x="551" d="M49 188q0 40 15 75.5t41.5 62t62 42t76.5 15.5q30 0 57 -8.5t49.5 -23.5t39 -35t25.5 -42q0 25 1 50t3 51h21v-375h-25v50v52q-17 -45 -62.5 -76.5t-108.5 -32.5q-41 0 -76.5 15.5t-62 41.5t-41.5 61.5t-15 76.5zM77 188q0 -35 13 -65.5t35.5 -53t53 -35.5t65.5 -13 t66 13t54 35.5t36 53t13 65.5t-13 65.5t-36 53.5t-54 36t-66 13t-65.5 -13t-53 -36t-35.5 -53.5t-13 -65.5zM141 479q30 45 60 90.5t60 90.5q30 -45 60 -90.5t60 -90.5h-25q-24 35 -47.5 69t-47.5 69q-24 -35 -47.5 -69t-47.5 -69h-25z" />
<glyph unicode="&#xe3;" horiz-adv-x="551" d="M49 188q0 40 15 75.5t41.5 62t62 42t76.5 15.5q30 0 57 -8.5t49.5 -23.5t39 -35t25.5 -42q0 25 1 50t3 51h21v-375h-25v50v52q-17 -45 -62.5 -76.5t-108.5 -32.5q-41 0 -76.5 15.5t-62 41.5t-41.5 61.5t-15 76.5zM77 188q0 -35 13 -65.5t35.5 -53t53 -35.5t65.5 -13 t66 13t54 35.5t36 53t13 65.5t-13 65.5t-36 53.5t-54 36t-66 13t-65.5 -13t-53 -36t-35.5 -53.5t-13 -65.5zM125 472q1 19 9 32.5t20 22t26.5 12.5t28.5 4q20 0 37 -10t33 -27t28 -23t26 -6q7 0 17.5 2t20 8t16.5 16.5t9 26.5q5 -1 10 -1t10 -1q-1 -19 -9 -32.5t-20 -22 t-26.5 -12.5t-28.5 -4q-20 0 -37.5 10t-33.5 27t-27.5 23t-25.5 6q-8 0 -18 -2t-20 -8t-17 -16.5t-9 -26.5q-5 1 -9.5 1t-9.5 1z" />
<glyph unicode="&#xe4;" horiz-adv-x="551" d="M49 188q0 40 15 75.5t41.5 62t62 42t76.5 15.5q30 0 57 -8.5t49.5 -23.5t39 -35t25.5 -42q0 25 1 50t3 51h21v-375h-25v50v52q-17 -45 -62.5 -76.5t-108.5 -32.5q-41 0 -76.5 15.5t-62 41.5t-41.5 61.5t-15 76.5zM77 188q0 -35 13 -65.5t35.5 -53t53 -35.5t65.5 -13 t66 13t54 35.5t36 53t13 65.5t-13 65.5t-36 53.5t-54 36t-66 13t-65.5 -13t-53 -36t-35.5 -53.5t-13 -65.5zM154 504q0 11 8 19t19 8t18.5 -8t7.5 -19t-7.5 -18.5t-18.5 -7.5t-19 7.5t-8 18.5zM320 504q0 11 7.5 19t18.5 8t18.5 -8t7.5 -19t-7.5 -18.5t-18.5 -7.5t-18.5 7.5 t-7.5 18.5z" />
<glyph unicode="&#xe5;" horiz-adv-x="551" d="M49 188q0 40 15 75.5t41.5 62t62 42t76.5 15.5q30 0 57 -8.5t49.5 -23.5t39 -35t25.5 -42q0 25 1 50t3 51h21v-375h-25v50v52q-17 -45 -62.5 -76.5t-108.5 -32.5q-41 0 -76.5 15.5t-62 41.5t-41.5 61.5t-15 76.5zM77 188q0 -35 13 -65.5t35.5 -53t53 -35.5t65.5 -13 t66 13t54 35.5t36 53t13 65.5t-13 65.5t-36 53.5t-54 36t-66 13t-65.5 -13t-53 -36t-35.5 -53.5t-13 -65.5zM182 540q0 29 19.5 48.5t48.5 19.5t48.5 -19.5t19.5 -48.5t-19.5 -48.5t-48.5 -19.5t-48.5 19.5t-19.5 48.5zM204 540q0 -19 14 -32.5t32 -13.5q19 0 32.5 13.5 t13.5 32.5q0 18 -13.5 32t-32.5 14q-18 0 -32 -14t-14 -32z" />
<glyph unicode="&#xe6;" horiz-adv-x="629" d="M48 101q0 28 12.5 46.5t33.5 30t47.5 16.5t55.5 5h135v46q0 28 -4.5 48.5t-18 34.5t-38.5 21t-67 7q-14 0 -29.5 -3t-30.5 -7.5t-28 -11t-20 -12.5q-5 5 -10 10.5t-10 10.5q10 8 25 15.5t32.5 13t36 8.5t35.5 3q36 0 62.5 -4t43.5 -14q37 18 83 18q59 0 105 -36.5 t65 -95.5q-51 -20 -102 -40.5t-102 -41.5v-20v-19q0 -34 -7 -56.5t-27 -39.5q16 -6 32.5 -9.5t35.5 -3.5q33 0 62.5 12.5t51.5 33.5q5 -6 9 -11t9 -10q-26 -24 -59.5 -38t-72.5 -14q-49 0 -87 19q-36 -21 -102 -21q-35 0 -64 5t-49.5 18t-32 33.5t-11.5 52.5zM76 101 q0 -26 12.5 -42t32 -25t42.5 -12t44 -3q22 0 44.5 4t40.5 13.5t29 27t11 44.5v62h-86h-44.5t-56.5 -5.5t-48.5 -20t-20.5 -43.5zM331 343q17 -14 23 -39t6 -61v-44q42 17 84.5 33.5t84.5 33.5q-19 40 -55 65t-80 25q-32 0 -63 -13z" />
<glyph unicode="&#xe7;" horiz-adv-x="385" d="M36 188q0 40 15.5 76t41.5 62t61.5 41.5t76.5 15.5q36 0 67.5 -11.5t56.5 -31.5q-5 -5 -9.5 -10.5t-8.5 -10.5q-22 17 -49 27t-57 10q-35 0 -65.5 -13t-53 -36t-35.5 -53.5t-13 -65.5t13 -65.5t35.5 -53t53 -35.5t65.5 -13q31 0 57.5 9.5t48.5 26.5q4 -5 8.5 -10.5 t9.5 -10.5q-51 -39 -116 -43q0 -26 14 -36t27 -18q23 -15 32 -34t9 -35q0 -48 -23.5 -71.5t-56.5 -25.5q-17 -1 -35 3q-20 6 -35 20t-23 37q5 2 10.5 4t10.5 4q6 -20 22.5 -33t40.5 -13q29 0 47.5 20t18.5 49q0 26 -12.5 40.5t-27.5 25t-27.5 21t-12.5 29.5v15 q-38 2 -71.5 18t-58 42t-38.5 60t-14 73z" />
<glyph unicode="&#xe8;" horiz-adv-x="451" d="M36 188q0 40 15.5 76t41.5 62t61.5 41.5t76.5 15.5q60 0 105.5 -37t65.5 -95q-81 -33 -162 -65t-162 -65q19 -45 59.5 -72.5t93.5 -27.5q34 0 63 12t52 33l8 -10t9 -10q-26 -25 -59.5 -39t-72.5 -14q-41 0 -76.5 15.5t-61.5 41.5t-41.5 61.5t-15.5 76.5zM65 197 q-1 -14 0.5 -26t3.5 -24q75 30 148.5 59.5t148.5 59.5q-19 40 -54.5 65t-80.5 25q-34 0 -63.5 -12.5t-52 -34t-36 -50.5t-14.5 -62zM113 612h29q23 -33 45 -66.5t45 -66.5h-24q-24 33 -48 66.5t-47 66.5z" />
<glyph unicode="&#xe9;" horiz-adv-x="451" d="M36 188q0 40 15.5 76t41.5 62t61.5 41.5t76.5 15.5q60 0 105.5 -37t65.5 -95q-81 -33 -162 -65t-162 -65q19 -45 59.5 -72.5t93.5 -27.5q34 0 63 12t52 33l8 -10t9 -10q-26 -25 -59.5 -39t-72.5 -14q-41 0 -76.5 15.5t-61.5 41.5t-41.5 61.5t-15.5 76.5zM65 197 q-1 -14 0.5 -26t3.5 -24q75 30 148.5 59.5t148.5 59.5q-19 40 -54.5 65t-80.5 25q-34 0 -63.5 -12.5t-52 -34t-36 -50.5t-14.5 -62zM230 479q23 33 45 66.5t45 66.5h30q-24 -33 -48 -66.5t-47 -66.5h-25z" />
<glyph unicode="&#xea;" horiz-adv-x="451" d="M36 188q0 40 15.5 76t41.5 62t61.5 41.5t76.5 15.5q60 0 105.5 -37t65.5 -95q-81 -33 -162 -65t-162 -65q19 -45 59.5 -72.5t93.5 -27.5q34 0 63 12t52 33l8 -10t9 -10q-26 -25 -59.5 -39t-72.5 -14q-41 0 -76.5 15.5t-61.5 41.5t-41.5 61.5t-15.5 76.5zM65 197 q-1 -14 0.5 -26t3.5 -24q75 30 148.5 59.5t148.5 59.5q-19 40 -54.5 65t-80.5 25q-34 0 -63.5 -12.5t-52 -34t-36 -50.5t-14.5 -62zM112 479q30 45 60 90.5t60 90.5q30 -45 60 -90.5t60 -90.5h-25q-24 35 -47.5 69t-47.5 69q-24 -35 -47.5 -69t-47.5 -69h-25z" />
<glyph unicode="&#xeb;" horiz-adv-x="451" d="M36 188q0 40 15.5 76t41.5 62t61.5 41.5t76.5 15.5q60 0 105.5 -37t65.5 -95q-81 -33 -162 -65t-162 -65q19 -45 59.5 -72.5t93.5 -27.5q34 0 63 12t52 33l8 -10t9 -10q-26 -25 -59.5 -39t-72.5 -14q-41 0 -76.5 15.5t-61.5 41.5t-41.5 61.5t-15.5 76.5zM65 197 q-1 -14 0.5 -26t3.5 -24q75 30 148.5 59.5t148.5 59.5q-19 40 -54.5 65t-80.5 25q-34 0 -63.5 -12.5t-52 -34t-36 -50.5t-14.5 -62zM120 504q0 11 8 19t19 8t18.5 -8t7.5 -19t-7.5 -18.5t-18.5 -7.5t-19 7.5t-8 18.5zM286 504q0 11 7.5 19t18.5 8t18.5 -8t7.5 -19 t-7.5 -18.5t-18.5 -7.5t-18.5 7.5t-7.5 18.5z" />
<glyph unicode="&#xec;" horiz-adv-x="174" d="M-13 612h29q23 -33 45 -66.5t45 -66.5h-24q-24 33 -48 66.5t-47 66.5zM80 0v375h28v-375h-28z" />
<glyph unicode="&#xed;" horiz-adv-x="199" d="M75 0v375h28v-375h-28zM78 479q23 33 45 66.5t45 66.5h30q-24 -33 -48 -66.5t-47 -66.5h-25z" />
<glyph unicode="&#xee;" horiz-adv-x="239" d="M-4 479q30 45 60 90.5t60 90.5q30 -45 60 -90.5t60 -90.5h-25q-24 35 -47.5 69t-47.5 69q-24 -35 -47.5 -69t-47.5 -69h-25zM102 0v375h28v-375h-28z" />
<glyph unicode="&#xef;" horiz-adv-x="271" d="M32 504q0 11 8 19t19 8t18.5 -8t7.5 -19t-7.5 -18.5t-18.5 -7.5t-19 7.5t-8 18.5zM131 0v375h28v-375h-28zM198 504q0 11 7.5 19t18.5 8t18.5 -8t7.5 -19t-7.5 -18.5t-18.5 -7.5t-18.5 7.5t-7.5 18.5z" />
<glyph unicode="&#xf0;" horiz-adv-x="493" d="M52 187q0 40 15 76t41 62.5t61.5 42.5t76.5 16q45 0 82 -20t61 -52q-13 53 -50 129t-109 161l-69 -75q-5 5 -9 8.5t-9 8.5q18 19 36 38.5t36 38.5q-22 24 -45 46.5t-49 42.5l9 9t8 9q25 -18 48.5 -40t46.5 -47q17 18 33 35.5t32 35.5q5 -4 9 -8t9 -8q-17 -18 -33.5 -36.5 t-33.5 -37.5q39 -47 74 -100.5t62 -109.5t42.5 -112.5t15.5 -109.5q0 -41 -15 -76.5t-41 -62t-62 -42t-76 -15.5q-41 0 -76.5 14.5t-62.5 41t-42.5 61.5t-15.5 76zM80 188q0 -35 13 -65.5t35.5 -53t53.5 -35.5t66 -13t66 13.5t53.5 36t35.5 53t13 65.5t-13.5 66t-36.5 53.5 t-53.5 35t-65.5 12.5t-65.5 -13t-53 -36t-35.5 -53.5t-13 -65.5z" />
<glyph unicode="&#xf1;" horiz-adv-x="523" d="M110 0v375h26v-44q-1 -14 -1 -27v-27q20 48 64 76.5t100 28.5q54 0 85.5 -31t33.5 -81v-270h-28v268q-2 35 -25 60t-66 27q-32 0 -61.5 -10.5t-51.5 -29.5t-35 -45.5t-13 -57.5v-212h-28zM136 462q1 19 9 32.5t20 22t26.5 12.5t28.5 4q20 0 37 -10t33 -27t28 -23t26 -6 q7 0 17.5 2t20 8t16.5 16.5t9 26.5q5 -1 10 -1t10 -1q-1 -19 -9 -32.5t-20 -22t-26.5 -12.5t-28.5 -4q-20 0 -37.5 10t-33.5 27t-27.5 23t-25.5 6q-8 0 -18 -2t-20 -8t-17 -16.5t-9 -26.5q-5 1 -9.5 1t-9.5 1z" />
<glyph unicode="&#xf2;" d="M36 188q0 40 15.5 76t41.5 62.5t61.5 42t76.5 15.5t77 -15.5t62.5 -42t42 -62.5t15.5 -76q0 -41 -15.5 -76.5t-42 -61.5t-62.5 -41.5t-77 -15.5t-76.5 15.5t-61.5 41.5t-41.5 61.5t-15.5 76.5zM64 188q0 -35 13 -65.5t35.5 -53t53 -35.5t65.5 -13t65.5 13t53.5 35.5 t36 53t13 65.5t-13 65.5t-36 53.5t-53.5 36t-65.5 13t-65.5 -13t-53 -36t-35.5 -53.5t-13 -65.5zM113 612h29q23 -33 45 -66.5t45 -66.5h-24q-24 33 -48 66.5t-47 66.5z" />
<glyph unicode="&#xf3;" d="M36 188q0 40 15.5 76t41.5 62.5t61.5 42t76.5 15.5t77 -15.5t62.5 -42t42 -62.5t15.5 -76q0 -41 -15.5 -76.5t-42 -61.5t-62.5 -41.5t-77 -15.5t-76.5 15.5t-61.5 41.5t-41.5 61.5t-15.5 76.5zM64 188q0 -35 13 -65.5t35.5 -53t53 -35.5t65.5 -13t65.5 13t53.5 35.5 t36 53t13 65.5t-13 65.5t-36 53.5t-53.5 36t-65.5 13t-65.5 -13t-53 -36t-35.5 -53.5t-13 -65.5zM231 479q23 33 45 66.5t45 66.5h30q-24 -33 -48 -66.5t-47 -66.5h-25z" />
<glyph unicode="&#xf4;" d="M36 188q0 40 15.5 76t41.5 62.5t61.5 42t76.5 15.5t77 -15.5t62.5 -42t42 -62.5t15.5 -76q0 -41 -15.5 -76.5t-42 -61.5t-62.5 -41.5t-77 -15.5t-76.5 15.5t-61.5 41.5t-41.5 61.5t-15.5 76.5zM64 188q0 -35 13 -65.5t35.5 -53t53 -35.5t65.5 -13t65.5 13t53.5 35.5 t36 53t13 65.5t-13 65.5t-36 53.5t-53.5 36t-65.5 13t-65.5 -13t-53 -36t-35.5 -53.5t-13 -65.5zM111 479q30 45 60 90.5t60 90.5q30 -45 60 -90.5t60 -90.5h-25q-24 35 -47.5 69t-47.5 69q-24 -35 -47.5 -69t-47.5 -69h-25z" />
<glyph unicode="&#xf5;" d="M36 188q0 40 15.5 76t41.5 62.5t61.5 42t76.5 15.5t77 -15.5t62.5 -42t42 -62.5t15.5 -76q0 -41 -15.5 -76.5t-42 -61.5t-62.5 -41.5t-77 -15.5t-76.5 15.5t-61.5 41.5t-41.5 61.5t-15.5 76.5zM64 188q0 -35 13 -65.5t35.5 -53t53 -35.5t65.5 -13t65.5 13t53.5 35.5 t36 53t13 65.5t-13 65.5t-36 53.5t-53.5 36t-65.5 13t-65.5 -13t-53 -36t-35.5 -53.5t-13 -65.5zM90 472q1 19 9 32.5t20 22t26.5 12.5t28.5 4q20 0 37 -10t33 -27t28 -23t26 -6q7 0 17.5 2t20 8t16.5 16.5t9 26.5q5 -1 10 -1t10 -1q-1 -19 -9 -32.5t-20 -22t-26.5 -12.5 t-28.5 -4q-20 0 -37.5 10t-33.5 27t-27.5 23t-25.5 6q-8 0 -18 -2t-20 -8t-17 -16.5t-9 -26.5q-5 1 -9.5 1t-9.5 1z" />
<glyph unicode="&#xf6;" d="M36 188q0 40 15.5 76t41.5 62.5t61.5 42t76.5 15.5t77 -15.5t62.5 -42t42 -62.5t15.5 -76q0 -41 -15.5 -76.5t-42 -61.5t-62.5 -41.5t-77 -15.5t-76.5 15.5t-61.5 41.5t-41.5 61.5t-15.5 76.5zM64 188q0 -35 13 -65.5t35.5 -53t53 -35.5t65.5 -13t65.5 13t53.5 35.5 t36 53t13 65.5t-13 65.5t-36 53.5t-53.5 36t-65.5 13t-65.5 -13t-53 -36t-35.5 -53.5t-13 -65.5zM125 504q0 11 8 19t19 8t18.5 -8t7.5 -19t-7.5 -18.5t-18.5 -7.5t-19 7.5t-8 18.5zM291 504q0 11 7.5 19t18.5 8t18.5 -8t7.5 -19t-7.5 -18.5t-18.5 -7.5t-18.5 7.5t-7.5 18.5 z" />
<glyph unicode="&#xf7;" horiz-adv-x="501" d="M68 209v28h360v-28h-360zM225 97q0 11 7.5 19t18.5 8t18.5 -8t7.5 -19t-7.5 -18.5t-18.5 -7.5t-18.5 7.5t-7.5 18.5zM225 347q0 11 7.5 19t18.5 8t18.5 -8t7.5 -19t-7.5 -18.5t-18.5 -7.5t-18.5 7.5t-7.5 18.5z" />
<glyph unicode="&#xf8;" horiz-adv-x="468" d="M36 188q0 40 15.5 76t41.5 62t61.5 41.5t76.5 15.5q32 0 60.5 -9t51.5 -26q8 10 16 19.5t16 19.5q5 -4 8.5 -7.5t8.5 -7.5q-8 -9 -16 -18.5t-16 -18.5q31 -26 49 -64.5t18 -82.5q0 -41 -15.5 -76.5t-42 -61.5t-62 -41.5t-76.5 -15.5q-35 0 -66 11.5t-56 31.5 q-11 -12 -20.5 -24t-19.5 -24q-4 4 -8 7t-8 7q10 13 19.5 24.5t19.5 23.5q-26 26 -41 61.5t-15 76.5zM64 188q0 -35 12.5 -64.5t33.5 -52.5q54 64 107 128t107 128q-20 14 -43.5 21.5t-49.5 7.5q-35 0 -65.5 -13t-53 -36t-35.5 -53.5t-13 -65.5zM126 57q45 -36 105 -36 q35 0 66 13t53.5 35.5t35.5 53t13 65.5q0 38 -15.5 70t-41.5 55l-108 -128z" />
<glyph unicode="&#xf9;" horiz-adv-x="529" d="M110 105v270h28v-268q2 -35 25 -60t66 -27q32 0 61.5 10.5t51.5 29.5t35 45.5t13 57.5v212h28v-377h-28v55l3 45q-20 -48 -64.5 -76.5t-99.5 -28.5q-54 0 -85.5 31t-33.5 81zM166 612h29q23 -33 45 -66.5t45 -66.5h-24q-24 33 -48 66.5t-47 66.5z" />
<glyph unicode="&#xfa;" horiz-adv-x="529" d="M110 105v270h28v-268q2 -35 25 -60t66 -27q32 0 61.5 10.5t51.5 29.5t35 45.5t13 57.5v212h28v-377h-28v55l3 45q-20 -48 -64.5 -76.5t-99.5 -28.5q-54 0 -85.5 31t-33.5 81zM231 479q23 33 45 66.5t45 66.5h30q-24 -33 -48 -66.5t-47 -66.5h-25z" />
<glyph unicode="&#xfb;" horiz-adv-x="529" d="M110 105v270h28v-268q2 -35 25 -60t66 -27q32 0 61.5 10.5t51.5 29.5t35 45.5t13 57.5v212h28v-377h-28v55l3 45q-20 -48 -64.5 -76.5t-99.5 -28.5q-54 0 -85.5 31t-33.5 81zM146 479q30 45 60 90.5t60 90.5q30 -45 60 -90.5t60 -90.5h-25q-24 35 -47.5 69t-47.5 69 q-24 -35 -47.5 -69t-47.5 -69h-25z" />
<glyph unicode="&#xfc;" horiz-adv-x="529" d="M110 105v270h28v-268q2 -35 25 -60t66 -27q32 0 61.5 10.5t51.5 29.5t35 45.5t13 57.5v212h28v-377h-28v55l3 45q-20 -48 -64.5 -76.5t-99.5 -28.5q-54 0 -85.5 31t-33.5 81zM151 504q0 11 8 19t19 8t18.5 -8t7.5 -19t-7.5 -18.5t-18.5 -7.5t-19 7.5t-8 18.5zM317 504 q0 11 7.5 19t18.5 8t18.5 -8t7.5 -19t-7.5 -18.5t-18.5 -7.5t-18.5 7.5t-7.5 18.5z" />
<glyph unicode="&#xfd;" horiz-adv-x="488" d="M42 375h31l88 -174t86 -175q41 88 85 175l88 174h31q-78 -157 -156 -312.5t-156 -312.5h-32q32 62 62.5 123.5t61.5 123.5zM241 479q23 33 45 66.5t45 66.5h30q-24 -33 -48 -66.5t-47 -66.5h-25z" />
<glyph unicode="&#xfe;" horiz-adv-x="557" d="M67 -250v1000h28v-421q-1 -14 -1.5 -29t-1.5 -29q9 22 25 42t38.5 35t50 24t57.5 9q41 0 76.5 -15.5t62 -41.5t41.5 -61.5t15 -75.5q0 -41 -15 -76.5t-41.5 -61.5t-62 -41.5t-76.5 -15.5q-31 0 -58 8.5t-49.5 23.5t-38.5 34.5t-24 41.5q0 -12 1 -24t2 -23v-303h-29z M95 187q0 -35 13 -65.5t35.5 -53.5t53.5 -36t66 -13t65.5 13t53 36t35.5 53.5t13 65.5t-13 65.5t-35.5 53t-53 35.5t-65.5 13t-66 -13t-53.5 -35.5t-35.5 -53t-13 -65.5z" />
<glyph unicode="&#xff;" horiz-adv-x="488" d="M42 375h31l88 -174t86 -175q41 88 85 175l88 174h31q-78 -157 -156 -312.5t-156 -312.5h-32q32 62 62.5 123.5t61.5 123.5zM146 504q0 11 8 19t19 8t18.5 -8t7.5 -19t-7.5 -18.5t-18.5 -7.5t-19 7.5t-8 18.5zM312 504q0 11 7.5 19t18.5 8t18.5 -8t7.5 -19t-7.5 -18.5 t-18.5 -7.5t-18.5 7.5t-7.5 18.5z" />
<glyph unicode="&#x2000;" horiz-adv-x="485" />
<glyph unicode="&#x2001;" horiz-adv-x="971" />
<glyph unicode="&#x2002;" horiz-adv-x="485" />
<glyph unicode="&#x2003;" horiz-adv-x="971" />
<glyph unicode="&#x2004;" horiz-adv-x="323" />
<glyph unicode="&#x2005;" horiz-adv-x="242" />
<glyph unicode="&#x2006;" horiz-adv-x="161" />
<glyph unicode="&#x2007;" horiz-adv-x="161" />
<glyph unicode="&#x2008;" horiz-adv-x="121" />
<glyph unicode="&#x2009;" horiz-adv-x="194" />
<glyph unicode="&#x200a;" horiz-adv-x="53" />
<glyph unicode="&#x2010;" horiz-adv-x="300" d="M53 177v27h184v-27h-184z" />
<glyph unicode="&#x2011;" horiz-adv-x="300" d="M53 177v27h184v-27h-184z" />
<glyph unicode="&#x2012;" horiz-adv-x="300" d="M53 177v27h184v-27h-184z" />
<glyph unicode="&#x2013;" horiz-adv-x="509" d="M100 178v27h301v-27h-301z" />
<glyph unicode="&#x2014;" horiz-adv-x="700" d="M99 178v27h502v-27h-502z" />
<glyph unicode="&#x2018;" horiz-adv-x="164" d="M38 711q6 -2 13 -3.5t13 -3.5q-7 -35 2.5 -64.5t30.5 -49.5q-4 -5 -7 -9.5t-6 -9.5q-29 26 -41.5 63t-4.5 77z" />
<glyph unicode="&#x2019;" horiz-adv-x="164" d="M54 590q21 20 30.5 49.5t2.5 64.5q6 2 13 3.5t13 3.5q8 -40 -4.5 -77t-41.5 -63q-3 5 -6 9.5t-7 9.5z" />
<glyph unicode="&#x201a;" horiz-adv-x="146" d="M20 -29q21 20 30.5 49.5t2.5 64.5q6 2 12.5 3.5t12.5 3.5q8 -40 -4 -77t-41 -63q-4 5 -7 9.5t-6 9.5z" />
<glyph unicode="&#x201c;" horiz-adv-x="249" d="M31 711q6 -2 12.5 -3.5t13.5 -3.5q-7 -35 2.5 -64.5t30.5 -49.5q-4 -5 -7 -9.5t-6 -9.5q-29 26 -41.5 63t-4.5 77zM135 711q6 -2 12.5 -3.5t13.5 -3.5q-7 -35 2.5 -64.5t30.5 -49.5q-4 -5 -7 -9.5t-6 -9.5q-29 26 -41.5 63t-4.5 77z" />
<glyph unicode="&#x201d;" horiz-adv-x="248" d="M37 590q21 20 30.5 49.5t2.5 64.5q7 2 13.5 3.5t12.5 3.5q8 -40 -4.5 -77t-41.5 -63q-3 5 -6 9.5t-7 9.5zM141 590q21 20 30.5 49.5t2.5 64.5q7 2 13.5 3.5t12.5 3.5q8 -40 -4.5 -77t-41.5 -63q-3 5 -6 9.5t-7 9.5z" />
<glyph unicode="&#x201e;" horiz-adv-x="255" d="M20 -29q21 20 30.5 49.5t2.5 64.5q6 2 12.5 3.5t12.5 3.5q8 -40 -4 -77t-41 -63q-4 5 -7 9.5t-6 9.5zM124 -29q21 20 30.5 49.5t2.5 64.5q6 2 12.5 3.5t12.5 3.5q8 -40 -4 -77t-41 -63q-4 5 -7 9.5t-6 9.5z" />
<glyph unicode="&#x2022;" horiz-adv-x="479" d="M162 300q0 33 22.5 55.5t54.5 22.5q33 0 55.5 -22.5t22.5 -55.5q0 -32 -22.5 -54.5t-55.5 -22.5q-32 0 -54.5 22.5t-22.5 54.5z" />
<glyph unicode="&#x202f;" horiz-adv-x="194" />
<glyph unicode="&#x2039;" horiz-adv-x="392" d="M117 239q43 41 85.5 80.5t85.5 80.5v-33q-32 -32 -63.5 -64t-63.5 -64q32 -33 63.5 -65.5t63.5 -64.5v-32z" />
<glyph unicode="&#x203a;" horiz-adv-x="392" d="M117 77l171 162q-43 41 -85.5 80.5t-85.5 80.5v-33q32 -32 63.5 -64t63.5 -64q-32 -33 -63.5 -65.5t-63.5 -64.5v-32z" />
<glyph unicode="&#x205f;" horiz-adv-x="242" />
<glyph unicode="&#xe000;" horiz-adv-x="375" d="M0 0v375h375v-375h-375z" />
</font>
</defs>
</svg>
