<?xml version="1.0" standalone="no"?>
<!DOCTYPE svg PUBLIC "-//W3C//DTD SVG 1.1//EN" "http://www.w3.org/Graphics/SVG/1.1/DTD/svg11.dtd" >
<svg xmlns="http://www.w3.org/2000/svg">
<metadata></metadata>
<defs>
<font id="josefin_sansitalic" horiz-adv-x="300" >
<font-face units-per-em="1000" ascent="750" descent="-250" />
<missing-glyph horiz-adv-x="500" />
<glyph horiz-adv-x="1000" />
<glyph horiz-adv-x="1000" />
<glyph unicode="&#xd;" />
<glyph unicode=" " />
<glyph unicode="!" horiz-adv-x="201" d="M20 55q1 14 13 23.5t24 9.5t20.5 -9.5t6.5 -23.5t-13 -23.5t-24 -9.5q-12 0 -20 9.5t-7 23.5zM47 166l82 584h41l-82 -584h-41z" />
<glyph unicode="&#x22;" horiz-adv-x="310" d="M45 472l35 248h44q-10 -63 -19.5 -124t-19.5 -124h-40zM178 472l35 248h44q-10 -63 -19.5 -124t-19.5 -124h-40z" />
<glyph unicode="#" horiz-adv-x="571" d="M11 210q3 11 5.5 20.5t5.5 20.5h107q10 35 19 70.5t18 71.5h-106q2 10 4.5 20t4.5 20h107q14 53 28 105t28 105h42q-14 -53 -28 -105t-28 -105h142q14 53 28 105t28 105h42q-14 -53 -28 -105t-28 -105h123q-2 -10 -5 -20t-5 -20h-123q-9 -36 -18 -71.5t-19 -70.5h122 q-2 -11 -5 -20.5t-5 -20.5h-123l-54 -210h-42l54 210h-142l-54 -210h-42l54 210h-107zM171 251h142q10 35 19 70.5t18 71.5h-142q-9 -36 -18 -71.5t-19 -70.5z" />
<glyph unicode="$" horiz-adv-x="567" d="M30 89l31 28q11 -13 25.5 -27t32 -26t39.5 -20.5t48 -10.5l45 321q-3 2 -13 6q-18 6 -41 16.5t-43 28.5t-32.5 45.5t-8.5 66.5q3 31 15.5 63t36 58t57.5 44t79 21l8 61h42l-8 -62q32 -2 64.5 -16t64.5 -45q-8 -8 -14 -16t-14 -16q-14 14 -40.5 31t-66.5 22l-39 -279 q29 -11 60.5 -25.5t56.5 -37t38.5 -55t7.5 -79.5q-6 -42 -26 -76t-49 -59t-66 -40t-77 -18l-9 -61h-42l9 62q-35 3 -63 13.5t-49.5 24.5t-36 29.5t-22.5 27.5zM155 524q-7 -51 17 -76.5t68 -41.5q9 -6 18 -7l37 263q-31 -3 -55 -15.5t-42 -31.5t-28.5 -42.5t-14.5 -48.5z M249 35q30 3 58.5 14.5t52 30.5t39 45.5t20.5 58.5q5 36 -4.5 61.5t-28.5 43t-44 29.5t-50 21z" />
<glyph unicode="%" horiz-adv-x="726" d="M120 389q3 24 15.5 45t30.5 36.5t40.5 24.5t46.5 9t44 -9t33.5 -24.5t20 -36.5t3.5 -45t-15.5 -45.5t-30.5 -37t-40.5 -24.5t-46.5 -9t-44 9t-34 24.5t-20.5 37t-2.5 45.5zM158 0q93 126 184.5 250t184.5 250h46q-93 -126 -184.5 -250t-184.5 -250h-46zM162 388 q-5 -31 14 -52.5t51 -21.5t56 21.5t29 52.5q5 32 -14 53.5t-51 21.5t-56 -21.5t-29 -53.5zM385 112q3 24 15.5 45t30.5 36.5t40.5 24.5t46.5 9t44 -9t34 -24.5t20.5 -36.5t2.5 -45q-3 -24 -15.5 -45.5t-30.5 -37t-40.5 -24.5t-46.5 -9t-44 9t-34 24.5t-20 37t-3 45.5z M427 112q-5 -32 14 -53.5t51 -21.5t56 21.5t29 53.5q5 31 -14 53t-51 22t-56 -22t-29 -53z" />
<glyph unicode="&#x26;" horiz-adv-x="700" d="M79 187q5 36 21.5 68.5t42 58t57.5 42.5t68 23q-14 29 -27.5 58.5t-27.5 58.5q-14 30 -16.5 62t6.5 63t31 58t58 47q31 17 60.5 20.5t56.5 -1.5t50.5 -16t40.5 -23q-11 -19 -22 -34q-16 10 -35.5 19.5t-40.5 14t-43.5 2.5t-44.5 -15q-59 -34 -72 -85t10 -100 q41 -85 80.5 -170t80.5 -170q10 18 17 36.5t11 38.5l6 42q8 36 20.5 54.5t27.5 26.5t31.5 8.5t34.5 0.5h41l-6 -41h-52q-15 0 -25.5 -5t-18 -17.5t-13 -33t-9.5 -51.5l-6 -40q-2 -22 -10.5 -41.5t-19.5 -37.5q13 -26 25.5 -52.5t24.5 -52.5q-9 -5 -17.5 -11t-17.5 -11 q-11 22 -21 44t-21 43q-32 -35 -75.5 -55.5t-91.5 -20.5q-41 0 -75 15.5t-56.5 41.5t-33 61.5t-4.5 76.5zM120 187q-5 -32 3 -60t26 -49t45 -33t60 -12q43 0 80.5 20.5t61.5 53.5q-27 59 -54.5 117t-55.5 117q-32 -3 -60 -15.5t-50 -32.5t-37 -47.5t-19 -58.5z" />
<glyph unicode="'" horiz-adv-x="153" d="M39 472l35 248h44q-10 -63 -19.5 -124t-19.5 -124h-40z" />
<glyph unicode="(" horiz-adv-x="406" d="M127.5 149q-4.5 68 6.5 143q10 75 33.5 143t55 126t67.5 105.5t72 80.5q7 -6 14 -11.5t14 -11.5q-33 -33 -67 -78t-63.5 -100t-51.5 -119t-32 -135t-6 -135t18 -119t35.5 -100t45.5 -78q-8 -6 -17 -11.5t-17 -11.5q-27 33 -50 80.5t-38 105.5t-19.5 126z" />
<glyph unicode=")" horiz-adv-x="400" d="M35 -142q33 33 67 78t63.5 100t52 119t32.5 135t5.5 135t-18.5 119t-35.5 100t-45.5 78q8 6 17 11.5t17 11.5q27 -33 50 -80.5t38 -105.5t19.5 -126t-5.5 -143q-11 -75 -34.5 -143t-55 -126t-67.5 -105.5t-72 -80.5q-7 6 -14 11.5t-14 11.5z" />
<glyph unicode="*" horiz-adv-x="335" d="M26 525q24 13 48.5 25.5t49.5 25.5q-21 14 -41.5 27t-41.5 27q6 9 12.5 18t11.5 17q22 -14 43 -27t42 -27l16 109h44q-5 -27 -8.5 -54t-8.5 -55q26 14 51 27l50 26q9 -16 15 -35q-25 -14 -50 -27t-51 -27q22 -13 43 -26t42 -27q-6 -9 -13 -18.5t-14 -19.5l-84 54 q-5 -26 -8.5 -52t-8.5 -52h-40l15 104q-48 -25 -98 -52q-4 10 -8 19.5t-8 19.5z" />
<glyph unicode="+" horiz-adv-x="543" d="M83 211l6 41h159l22 159h42l-22 -159h159l-6 -41h-159l-23 -160h-42l23 160h-159z" />
<glyph unicode="," horiz-adv-x="200" d="M2 -120q27 52 53 103t53 103h47q-29 -52 -57.5 -103t-57.5 -103h-38z" />
<glyph unicode="-" d="M50 169l5 41h184l-5 -41h-184z" />
<glyph unicode="." horiz-adv-x="163" d="M52 33q2 14 13.5 23.5t24.5 9.5q12 0 21 -9.5t7 -23.5t-13.5 -23.5t-23.5 -9.5q-13 0 -22 9.5t-7 23.5z" />
<glyph unicode="/" horiz-adv-x="345" d="M-36 -19q97 190 192 377.5t192 377.5h42q-97 -190 -192 -377.5t-192 -377.5h-42z" />
<glyph unicode="0" horiz-adv-x="616" d="M36 327q9 59 34 118.5t65.5 106.5t95.5 76.5t123 29.5q67 0 112.5 -30t72 -78t34.5 -107.5t-1 -118.5q-11 -72 -41.5 -133t-74 -105t-96 -68.5t-105.5 -24.5t-98 25.5t-75.5 70t-43.5 105.5t-2 133zM79 327q-9 -65 1.5 -119t36 -92.5t63.5 -60.5t82 -22q43 0 87 21t81 59 t64 91.5t36 118.5q9 59 1 112t-31 93.5t-61.5 64.5t-91.5 24t-98 -23t-80 -63t-58.5 -93t-31.5 -111z" />
<glyph unicode="1" horiz-adv-x="259" d="M73 609l6 41h137l-91 -650h-42l85 609h-95z" />
<glyph unicode="2" horiz-adv-x="505" d="M6 0q72 62 140 121.5t122 116t89.5 109t42.5 99.5q7 49 -3 81.5t-29 52.5t-43.5 28.5t-46.5 8.5q-45 0 -76 -16t-51 -39t-30 -50t-13 -49q-10 -67 24 -110q-8 -6 -14.5 -12t-14.5 -13q-23 23 -32.5 59.5t-4.5 75.5q6 40 23.5 75.5t45 62t65.5 42t84 15.5q42 0 74.5 -15.5 t53 -42.5t29 -63.5t2.5 -78.5q-8 -54 -40 -107.5t-78 -105.5t-101.5 -103t-109.5 -101h313l-6 -41h-415z" />
<glyph unicode="3" horiz-adv-x="515" d="M42 60q8 8 17.5 15.5t17.5 15.5q18 -26 47 -42t66 -16q35 0 68 13.5t59 36.5t44 53.5t23 64.5t-4.5 64.5t-29.5 53.5t-49 36t-64 13q-17 0 -33.5 -5.5t-32.5 -15.5q56 66 110.5 131t109.5 131h-248l6 41h323q-53 -62 -105.5 -123t-106.5 -123q40 -3 73 -19.5t55.5 -43.5 t33 -62.5t4.5 -77.5q-6 -43 -28.5 -81t-55 -66.5t-73 -45t-83.5 -16.5q-46 0 -82.5 18.5t-61.5 49.5z" />
<glyph unicode="4" horiz-adv-x="515" d="M16 183q109 119 216.5 237.5t216.5 237.5l-61 -434h97l-6 -41h-97l-26 -183h-42l26 183h-324zM107 224h239l43 311q-71 -78 -141 -155.5t-141 -155.5z" />
<glyph unicode="5" horiz-adv-x="543" d="M72 50q9 7 17.5 14t17.5 14q18 -21 45 -33t60 -12q35 0 68 13.5t59 36.5t44 53.5t23 64.5q4 34 -5 64t-29 52.5t-49 35.5t-64 13t-66 -12t-51 -33l47 329h287l-6 -41h-245l-30 -217q17 7 34.5 11t36.5 4q43 0 79 -16t61 -44t36.5 -65.5t5.5 -80.5t-28.5 -81t-55.5 -66.5 t-73.5 -45t-83.5 -16.5q-42 0 -76.5 15.5t-58.5 42.5z" />
<glyph unicode="6" horiz-adv-x="520" d="M32 195q10 72 49.5 134.5t95.5 117t121.5 101t127.5 87.5q5 -8 10.5 -17t11.5 -17q-117 -70 -187 -133.5t-103 -109.5q22 22 51.5 35.5t61.5 13.5q43 0 79 -16.5t60.5 -44.5t36 -66t5.5 -81t-28 -80.5t-54.5 -65.5t-73.5 -44.5t-84 -16.5q-42 0 -77.5 16t-60 43.5 t-36 64.5t-6.5 79zM75 199q-5 -35 4 -65t28.5 -52.5t47.5 -35.5t63 -13q34 0 66.5 13t59 35.5t44.5 52.5t23 65q4 34 -5 64.5t-29 53.5t-49 36t-63 13q-35 0 -67 -13t-57.5 -36t-43 -53.5t-22.5 -64.5z" />
<glyph unicode="7" horiz-adv-x="469" d="M33 0l360 609h-340l6 41h406q-96 -164 -191.5 -325t-191.5 -325h-49z" />
<glyph unicode="8" horiz-adv-x="510" d="M28 201q9 66 53 116.5t105 72.5q-31 16 -47 48t-10 72q4 30 19 57t38.5 47.5t52 32t59.5 11.5t57 -12t43.5 -32.5t25.5 -47.5t4 -58q-5 -39 -30 -70t-60 -48q57 -21 87.5 -72t21.5 -117q-6 -43 -28.5 -81t-55 -66.5t-73 -45t-83.5 -16.5t-78.5 16.5t-60 45t-35.5 66.5 t-5 81zM71 201q-5 -34 3.5 -64.5t27.5 -54t47 -37t63 -13.5t68 13.5t59 37t43.5 54t22.5 64.5t-4 63.5t-29 52t-49 36t-63 13.5q-35 0 -67 -13t-57.5 -35.5t-42.5 -52.5t-22 -64zM170 506q-6 -43 21.5 -71t73.5 -28t80.5 28t40.5 71q3 22 -2 42t-17 35.5t-30.5 24.5t-41.5 9 t-44 -9t-38 -24.5t-28.5 -35.5t-14.5 -42z" />
<glyph unicode="9" horiz-adv-x="525" d="M59 427q6 43 28 80.5t54.5 65.5t73 44.5t83.5 16.5t79 -16.5t60.5 -44.5t35.5 -65.5t5 -80.5q-10 -71 -49.5 -133t-96 -116t-121.5 -100t-126 -86q-11 16 -22 33q117 71 187 134t103 110q-23 -23 -52 -36t-61 -13q-44 0 -79.5 16t-60.5 44t-36 66t-5 81zM100 427 q-5 -35 4.5 -65t29 -53t48.5 -36t64 -13q34 0 66.5 13t58 36t43 53t22.5 65q5 34 -4 64.5t-28.5 53t-48 35.5t-62.5 13q-35 0 -67.5 -13t-58.5 -35.5t-44 -53t-23 -64.5z" />
<glyph unicode=":" horiz-adv-x="175" d="M34 33q2 14 13.5 23.5t24.5 9.5q12 0 20.5 -9.5t6.5 -23.5t-13 -23.5t-24 -9.5t-21.5 9.5t-6.5 23.5zM69 283q2 14 13.5 23.5t24.5 9.5q12 0 20.5 -9.5t6.5 -23.5t-13 -23.5t-24 -9.5t-21.5 9.5t-6.5 23.5z" />
<glyph unicode=";" horiz-adv-x="201" d="M-28 -120q26 52 52 103t53 103h48q-29 -52 -57.5 -103t-57.5 -103h-38zM104 283q2 14 13 23.5t24 9.5t21.5 -9.5t6.5 -23.5t-13 -23.5t-24 -9.5t-21.5 9.5t-6.5 23.5z" />
<glyph unicode="&#x3c;" horiz-adv-x="680" d="M115 238q118 63 236 126.5t237 126.5l-8 -55q-93 -50 -185 -99t-186 -99q79 -50 157.5 -99t158.5 -99l-8 -55q-101 63 -201 126.5t-201 126.5z" />
<glyph unicode="=" horiz-adv-x="708" d="M83 135l6 41h506l-6 -41h-506zM110 329l6 41h506l-6 -41h-506z" />
<glyph unicode="&#x3e;" horiz-adv-x="650" d="M79 -15l8 55q93 50 185.5 99t186.5 99q-79 50 -158 99t-158 99l7 55q101 -63 201 -126.5t202 -126.5q-119 -63 -237 -126.5t-237 -126.5z" />
<glyph unicode="?" horiz-adv-x="452" d="M65 591q12 26 32 51t46.5 45t59.5 32.5t73 12.5q41 0 75 -15.5t56.5 -42t33 -62t4.5 -75.5q-8 -54 -40 -95.5t-83 -73.5q-19 -13 -36.5 -23t-32 -22.5t-25.5 -31.5t-15 -49l-11 -78h-42l14 97q4 31 18 50.5t33.5 34.5t44 28.5t51.5 33.5q37 27 56.5 59.5t24.5 69.5 q4 33 -3.5 61t-25 49t-44 32.5t-59.5 11.5q-58 0 -102 -30t-68 -83q-8 4 -17.5 7t-17.5 6zM132 48q2 14 13.5 23.5t23.5 9.5t21 -9.5t7 -23.5t-13.5 -23.5t-23.5 -9.5t-21 9.5t-7 23.5z" />
<glyph unicode="@" horiz-adv-x="990" d="M82 189q12 84 54 158t105 129t142 87t163 32t153.5 -32t116.5 -87t68.5 -129t9.5 -159q-11 -57 -31 -93.5t-45.5 -57.5t-53.5 -29t-54 -8h-90l6 40q2 12 3.5 23.5t3.5 22.5q-9 -17 -26 -34t-39.5 -30t-50 -21t-57.5 -8q-41 0 -75 15.5t-57 41.5t-33.5 61.5t-4.5 76.5 q6 40 26.5 75.5t51 62t68.5 42t79 15.5q29 0 53.5 -8.5t43.5 -22t31 -30.5t17 -35l8 44t9 44h34l-47 -335h55q49 0 84 35t49 113q11 76 -8 143t-61.5 116.5t-105 78t-137.5 28.5q-76 0 -146.5 -28.5t-127 -78t-94.5 -116.5t-49 -143q-10 -76 9.5 -142t62 -115.5t105 -78 t137.5 -28.5q61 0 117.5 18t107.5 50l21 -30q-55 -38 -120.5 -58.5t-131.5 -20.5q-84 0 -153.5 32t-116.5 87t-69 129t-10 158zM332 188q-5 -32 3 -60t26 -49t45 -33t60 -12t62.5 12t53.5 33t39.5 49t20.5 60t-3 60.5t-26 49.5t-44.5 33t-59.5 12t-62.5 -12t-53.5 -33 t-40 -49.5t-21 -60.5z" />
<glyph unicode="A" horiz-adv-x="740" d="M8 0q103 184 206.5 366t206.5 366l207 -732h-42l-42 150t-43 150h-281q-42 -75 -84.5 -150t-84.5 -150h-43zM243 340h246q-18 69 -37 136t-39 135l-2 14t-3 14q-2 -5 -6.5 -14t-6.5 -14q-38 -71 -75.5 -136t-76.5 -135z" />
<glyph unicode="B" horiz-adv-x="535" d="M24 0l99 700h160q47 0 84 -10t61 -31q26 -21 36 -55q6 -20 6 -44q0 -16 -3 -35q-8 -62 -45 -109t-103 -64q28 -6 53.5 -20t43.5 -36t26 -51q5 -18 5 -39q0 -12 -2 -26q-6 -45 -29 -78.5t-56.5 -56t-74.5 -34t-83 -11.5h-178zM71 40h133q37 0 71 9t61 27t45 44.5t23 62.5 q2 13 2 25q0 32 -14 54q-19 30 -48.5 45.5t-62 20t-53.5 4.5h-116zM118 372h131q72 0 119 41.5t57 108.5q2 15 2 28q0 52 -31 78q-39 32 -109 32h-128z" />
<glyph unicode="C" horiz-adv-x="670" d="M61 349q10 74 47.5 139.5t93 114t124.5 77t143 28.5q51 0 94.5 -13t81.5 -37q-8 -8 -14.5 -17t-13.5 -17q-32 21 -71 32.5t-83 11.5q-65 0 -126 -25.5t-109.5 -69t-82 -101.5t-42.5 -124q-3 -23 -3 -45q0 -39 10 -77q16 -58 53 -101t90.5 -68t118.5 -25q44 0 86 11.5 t80 32.5l19 -34q-43 -23 -90.5 -36.5t-98.5 -13.5q-74 0 -135 28t-102.5 76.5t-60.5 113.5q-12 43 -12 89q0 24 3 50z" />
<glyph unicode="D" horiz-adv-x="652" d="M26 0l99 700h147q72 0 132.5 -24.5t102 -70t60.5 -110.5q12 -41 12 -88q0 -27 -4 -57q-9 -63 -37 -125.5t-80.5 -112.5t-131 -81t-187.5 -31h-113zM73 41h87q85 0 151 25.5t112.5 68t74 98.5t36.5 117q4 27 4 52q0 40 -10 76q-16 58 -53.5 98.5t-91 62t-117.5 21.5h-105 q-23 -155 -44.5 -309.5t-43.5 -309.5z" />
<glyph unicode="E" horiz-adv-x="601" d="M35 0l99 700h415l-6 -40h-373l-41 -287h335l-6 -40h-335l-41 -293h388l-6 -40h-429z" />
<glyph unicode="F" horiz-adv-x="587" d="M35 0l99 700h415l-6 -40h-373l-41 -287h335l-6 -40h-335l-47 -333h-41z" />
<glyph unicode="G" horiz-adv-x="682" d="M61 349q10 74 47.5 139.5t93 114t124.5 77t143 28.5q51 0 94.5 -13t81.5 -37q-8 -8 -14.5 -17t-13.5 -17q-32 21 -71 32.5t-83 11.5q-65 0 -126 -25.5t-109.5 -69t-82 -101.5t-42.5 -124q-3 -23 -3 -45q0 -40 10 -77q17 -58 53.5 -101t90 -68t118.5 -25q76 0 147 34 l17 126l6 42q2 12 -2 19t-21 7h-117l5 40h132q30 0 41 -11q8 -8 8 -24q0 -7 -2 -16l-29 -207q-43 -23 -90.5 -36.5t-98.5 -13.5q-74 0 -135 28t-102.5 76.5t-60.5 113.5q-12 43 -12 89q0 24 3 50z" />
<glyph unicode="H" horiz-adv-x="700" d="M44 0l99 700h41l-46 -327h429l47 327h44q-26 -176 -51 -350t-51 -350h-41l47 333h-430l-47 -333h-41z" />
<glyph unicode="I" horiz-adv-x="248" d="M54 0l99 700h41l-99 -700h-41z" />
<glyph unicode="J" horiz-adv-x="312" d="M-41 -143l5 40q36 2 68 16t57.5 39t43 60.5t23.5 80.5l86 607h42l-86 -610q-8 -56 -30 -98.5t-54 -72t-72 -45.5t-83 -17z" />
<glyph unicode="K" horiz-adv-x="600" d="M17 0l99 700h41l-44 -314q-2 -8 -3.5 -15t-2.5 -15q5 6 10.5 11t10.5 10q96 81 191.5 161.5t192.5 161.5h54q-85 -70 -167 -139.5t-166 -139.5q69 -106 136.5 -210.5t136.5 -210.5h-51q-64 99 -127.5 196.5t-127.5 197.5q-25 -21 -49 -41.5t-49 -41.5q-11 -78 -22 -155.5 t-22 -155.5h-41z" />
<glyph unicode="L" horiz-adv-x="593" d="M35 0l99 700h41l-93 -660h388l-6 -40h-429z" />
<glyph unicode="M" horiz-adv-x="937" d="M48 0l103 732q75 -119 149.5 -237.5t149.5 -237.5q109 119 216.5 237.5t216.5 237.5l-103 -732h-42l63 446l18 129q2 10 4 19.5t4 20.5q-95 -110 -192.5 -215.5t-194.5 -212.5q-56 90 -111 177.5t-111 177.5l-34 54q-2 5 -5 9.5t-5 9.5q-1 -11 -1.5 -20.5t-1.5 -19.5 l-81 -575h-42z" />
<glyph unicode="N" horiz-adv-x="813" d="M50 0l103 732q117 -163 231.5 -322.5t231.5 -321.5q4 -7 8 -13t8 -13v16t1 16l85 606h42l-103 -732q-117 161 -232 319.5t-232 319.5q-3 7 -7 13t-8 13q-1 -8 -1 -16t-1 -16l-84 -601h-42z" />
<glyph unicode="O" horiz-adv-x="840" d="M61 349q10 74 47.5 139.5t93 114t124.5 77t143 28.5t135 -28.5t103 -77t61 -114.5q12 -43 12 -89q0 -25 -3 -50q-10 -74 -47.5 -139t-93 -113.5t-125 -76.5t-143.5 -28t-135 28t-102.5 76.5t-60.5 113.5q-12 43 -12 89q0 24 3 50zM103 348q-3 -23 -3 -46q0 -42 10 -78 q16 -58 53 -100t90.5 -67t118.5 -25q66 0 127.5 25t111 68t82.5 100.5t42 123.5q3 23 3 46q0 41 -10 78q-16 58 -53.5 101.5t-91.5 68.5t-119 25t-126 -25.5t-110 -69t-82.5 -101.5t-42.5 -124z" />
<glyph unicode="P" horiz-adv-x="464" d="M24 0l99 700h150q31 0 67 -10t65 -32t47 -57q12 -25 12 -57q0 -13 -2 -27q-13 -86 -75 -137t-165 -51h-110l-47 -329h-41zM117 370h104q52 0 88.5 14t60 36t35.5 47.5t15 49.5q1 8 1 16q0 20 -7 38q-10 26 -31 46t-51.5 31.5t-68.5 11.5h-104z" />
<glyph unicode="Q" horiz-adv-x="842" d="M61 349q10 74 47.5 139.5t93 114t124.5 77t143 28.5t135.5 -28.5t103.5 -77t60 -114.5q13 -42 13 -88q0 -25 -4 -51q-7 -51 -27.5 -98t-51.5 -86.5t-70.5 -71.5t-84.5 -53h213l-6 -40h-307q-38 -8 -75 -8q-74 0 -135 28t-102.5 76.5t-60.5 113.5q-12 43 -12 89q0 24 3 50 zM103 348q-3 -23 -3 -45q0 -40 10 -77q17 -58 53.5 -101t90 -68t118.5 -25t126.5 25t111 68t83 100.5t42.5 123.5q3 23 3 46q0 40 -10 78q-17 58 -54 101.5t-91.5 68.5t-119.5 25t-126 -25.5t-109.5 -69t-82 -101.5t-42.5 -124z" />
<glyph unicode="R" horiz-adv-x="505" d="M24 0l99 700h150q31 0 67 -10t65 -32t47 -57q12 -25 12 -57q0 -13 -2 -27q-11 -72 -56 -119.5t-120 -62.5q28 -85 55 -168t55 -167h-45q-27 84 -54.5 166t-54.5 165q-9 -1 -18 -1.5t-18 -0.5h-94l-47 -329h-41zM117 370h104q52 0 88.5 14t60 36t35.5 47.5t15 49.5 q1 8 1 16q0 20 -7 38q-10 26 -31 46t-51.5 31.5t-68.5 11.5h-104z" />
<glyph unicode="S" horiz-adv-x="552" d="M30 89l31 28q12 -15 28 -30.5t35.5 -27.5t44.5 -19.5t55 -7.5q34 0 66.5 10.5t59.5 30.5t45.5 48t23.5 63q2 13 2 24q1 29 -11 50q-16 29 -43.5 47.5t-61 30t-61.5 21.5q-21 8 -45.5 19.5t-45 29.5t-32.5 45q-9 20 -9 47q0 9 1 19q3 33 17 66.5t40 60t63.5 43.5t87.5 17 q38 0 75.5 -13t75.5 -50q-8 -8 -14 -15.5t-13 -15.5q-8 8 -19.5 17.5t-27.5 17.5t-37 13.5t-47 5.5q-35 0 -62.5 -12t-47.5 -31.5t-32.5 -44.5t-16.5 -52q-2 -12 -2 -22q0 -15 4 -27q6 -20 20.5 -34t36 -24t48.5 -20q30 -11 68 -25t70 -38q32 -22 50 -58q13 -26 13 -62 q0 -13 -2 -28q-6 -44 -28 -80t-54.5 -61.5t-72.5 -39t-83 -13.5q-39 0 -71 10t-56 25t-40.5 32t-25.5 30z" />
<glyph unicode="T" horiz-adv-x="553" d="M43 660l6 40h553l-6 -40h-255l-94 -660h-41l93 660h-256z" />
<glyph unicode="U" horiz-adv-x="652" d="M75 226l66 474h41l-66 -471q-2 -19 -2 -37q0 -26 5 -48q9 -36 31.5 -61t56.5 -38t76 -13t79.5 13t67 38t49 61.5t26.5 84.5l66 471h42l-66 -474q-8 -57 -32.5 -101t-60.5 -73.5t-81.5 -44.5t-95.5 -15q-51 0 -92 15t-68 44.5t-39 73.5q-7 26 -6 56q0 22 3 45z" />
<glyph unicode="V" horiz-adv-x="722" d="M105 700h42q44 -154 87 -305.5t86 -305.5q2 -7 2.5 -14t2.5 -14q3 7 6.5 14t6.5 14q87 154 172.5 305.5t172.5 305.5h42q-103 -184 -206.5 -366t-206.5 -366z" />
<glyph unicode="W" horiz-adv-x="1108" d="M105 700h42q43 -154 85.5 -306t87.5 -305q2 -7 2.5 -14t2.5 -14q48 100 107 199t114 197q-17 62 -34.5 122t-34.5 121h43q42 -154 85 -306t88 -305l2 -14t3 -14l6 14t7 14q87 154 172 305.5t172 305.5h42q-103 -184 -206.5 -366t-206.5 -366l-118 417q-2 7 -3 13.5 t-2 13.5q-56 -111 -121.5 -223t-127.5 -221z" />
<glyph unicode="X" horiz-adv-x="700" d="M43 0q71 91 141 179.5t141 179.5q-43 85 -86.5 170.5t-86.5 170.5h50q75 -145 149 -292q2 -5 4 -9t4 -9l12 18q57 73 114.5 146t114.5 146h50q-68 -87 -135.5 -173t-135.5 -173q45 -89 90 -177t90 -177h-51l-138 271q-7 12 -12.5 26t-12.5 26q-3 -5 -6.5 -9.5t-6.5 -9.5 q-60 -76 -119 -151.5t-119 -152.5h-51z" />
<glyph unicode="Y" horiz-adv-x="638" d="M83 700h51q42 -94 84 -185t84 -185q2 -8 4.5 -14.5t4.5 -13.5h1q4 7 7 13.5t7 14.5q69 93 136.5 184.5t136.5 185.5h51q-81 -109 -160 -217.5t-160 -217.5l-37 -265h-50l38 265z" />
<glyph unicode="Z" horiz-adv-x="700" d="M81 0l5 40q142 156 282 310.5t283 309.5h-395q-31 0 -47 12q-13 10 -13 30q0 5 1 11l4 22h42l-2 -12q-2 -12 4 -17.5t23 -5.5h441l-6 -40q-142 -155 -282 -309.5t-282 -310.5h506l-5 -40h-559z" />
<glyph unicode="[" horiz-adv-x="338" d="M20 -149l125 895h175l-6 -41h-132l-114 -813h132l-5 -41h-175z" />
<glyph unicode="\" horiz-adv-x="346" d="M63 736h46q43 -190 85.5 -377.5t85.5 -377.5h-46q-43 190 -85.5 377.5t-85.5 377.5z" />
<glyph unicode="]" horiz-adv-x="342" d="M14 -149l5 41h132l114 813h-132l5 41h175l-125 -895h-174z" />
<glyph unicode="^" horiz-adv-x="470" d="M99 479q36 45 72.5 90.5t72.5 90.5q24 -45 47.5 -90.5t47.5 -90.5h-33q-18 30 -35.5 60.5t-34.5 60.5q-26 -30 -52 -60.5t-52 -60.5h-33z" />
<glyph unicode="_" horiz-adv-x="600" d="M97 0l5 41h400l-5 -41h-400z" />
<glyph unicode="`" horiz-adv-x="200" d="M-19 612h42q18 -33 35.5 -66.5t35.5 -66.5h-33q-20 33 -40 66.5t-40 66.5z" />
<glyph unicode="a" horiz-adv-x="503" d="M75 188q6 43 26.5 79t51 61.5t68 40t78.5 14.5q29 0 54 -8.5t44 -22t31.5 -31t16.5 -34.5q3 22 7.5 44t8.5 44h34l-52 -375h-38l6 45q2 11 3.5 21t2.5 21q-9 -17 -25.5 -34t-39 -30.5t-50 -21.5t-58.5 -8q-41 0 -75 15.5t-56.5 41.5t-32.5 62q-7 23 -7 47q0 14 2 29z M117 188q-2 -12 -2 -24q0 -19 5 -36q8 -28 26 -49t44.5 -33t59.5 -12t63 12t54 33t39.5 49t20.5 60q1 11 1 21q0 21 -5 39q-8 28 -26 49.5t-44.5 33.5t-59.5 12t-62.5 -12t-53.5 -33t-40 -49.5t-20 -60.5z" />
<glyph unicode="b" horiz-adv-x="529" d="M82 0l105 750h42l-59 -417q-2 -11 -5 -22.5t-5 -22.5q9 17 26 34t39.5 30.5t50 22t56.5 8.5q41 0 75 -15.5t57 -41.5q24 -26 34 -62q7 -23 6 -48q0 -14 -2 -28q-6 -42 -26 -77.5t-50 -61.5t-68 -41t-80 -15q-31 0 -56.5 8t-44 21.5t-30.5 30.5t-16 34l-6 -42l-5 -45h-38z M150 188q-2 -12 -2 -24q0 -19 5 -36q8 -28 26 -49t45 -33t60 -12t62.5 12t53.5 33t39.5 49t20.5 60q1 11 1 21q0 21 -5 39q-8 28 -26 49.5t-44.5 33.5t-59.5 12t-62.5 -12t-53.5 -33t-40 -49.5t-20 -60.5z" />
<glyph unicode="c" horiz-adv-x="388" d="M62 188q6 44 26 80t50 61.5t68 39.5t79 14q36 0 66.5 -11.5t52.5 -31.5l-15.5 -15.5l-15.5 -15.5q-18 16 -41.5 25t-51.5 9q-33 0 -63 -12t-53.5 -33t-39.5 -49.5t-20 -60.5q-2 -12 -2 -24q0 -19 5 -36q8 -28 26 -49t44.5 -33t59.5 -12q29 0 54.5 8.5t47.5 24.5 q5 -8 10.5 -15.5t11.5 -15.5q-29 -20 -62 -31.5t-68 -11.5q-41 0 -74.5 15.5t-56.5 41.5q-24 26 -34 62q-7 23 -6 47q0 14 2 29z" />
<glyph unicode="d" horiz-adv-x="524" d="M79 188q6 42 26 77.5t50 61.5t68 41t79 15q30 0 55 -8.5t44 -22t31.5 -30.5t16.5 -34q1 11 1 22.5t1 22.5l59 417h41l-105 -750h-37l6 45q1 11 2.5 21t3.5 21q-9 -17 -25.5 -34t-39 -30.5t-50 -21.5t-58.5 -8q-41 0 -75 15.5t-56.5 41.5t-32.5 62q-7 23 -7 47q0 14 2 29z M121 188q-2 -12 -2 -24q0 -19 5 -36q8 -28 26 -49t44.5 -33t59.5 -12t63 12t54 33t39.5 49t20.5 60q1 11 1 21q0 21 -5 39q-8 28 -26 49.5t-44.5 33.5t-59.5 12t-63 -12t-53.5 -33t-39.5 -49.5t-20 -60.5z" />
<glyph unicode="e" horiz-adv-x="451" d="M62 188q6 45 25.5 81t49 61.5t67.5 39t81 13.5q30 0 55.5 -10.5t45.5 -29t33.5 -44t18.5 -56.5q-82 -31 -164 -61.5t-164 -61.5q12 -38 45.5 -62t81.5 -24q31 0 59.5 11t51.5 31q5 -8 10.5 -15.5t10.5 -15.5q-29 -24 -64.5 -38t-73.5 -14q-41 0 -74.5 15.5t-56.5 41.5 q-24 26 -34 62q-7 23 -6 47q0 14 2 29zM103 159q72 27 143 53.5t142 53.5q-13 34 -41.5 55.5t-66.5 21.5q-32 0 -60.5 -10t-51 -28t-38 -43.5t-21.5 -56.5q-6 -24 -6 -46z" />
<glyph unicode="f" horiz-adv-x="294" d="M69 336l5 41h65l20 141q8 55 30 98t54.5 72t72 44.5t83.5 17.5l-6 -40q-34 -1 -66 -14t-58 -38t-44 -60t-24 -79l-20 -142h124l-5 -41h-125l-47 -336h-41l46 336h-64z" />
<glyph unicode="g" horiz-adv-x="518" d="M71 -190q8 8 17 15.5t17 15.5q19 -24 51 -36t65 -12q31 0 60.5 12.5t53 35.5t40 55.5t21.5 71.5l10 72q3 11 6 23t5 23q-10 -18 -27 -34.5t-39.5 -29.5t-49.5 -21t-57 -8q-41 0 -75 15.5t-56.5 41.5t-32.5 62q-7 22 -7 47q0 14 2 29q6 44 26 80t50.5 61.5t68.5 39.5 t79 14q29 0 54 -8.5t44 -22t31.5 -31t16.5 -34.5q3 22 7.5 44t8.5 44h34l-55 -392l-3 -18q-7 -49 -27.5 -88.5t-50.5 -67.5t-66.5 -43t-76.5 -16q-42 1 -82 16t-63 44zM117 188q-2 -12 -2 -24q0 -19 5 -36q8 -28 26 -49t44.5 -33t59.5 -12t63 12t54 33t39.5 49t20.5 60 q1 11 1 21q0 21 -5 39q-8 29 -26 50t-44.5 33t-59.5 12t-62.5 -12t-53.5 -33t-40 -49.5t-20 -60.5z" />
<glyph unicode="h" horiz-adv-x="500" d="M103 0l105 750h42l-60 -427l-10 -45q28 48 75 75.5t104 29.5q55 0 83 -31q23 -26 23 -64q0 -8 -1 -17l-37 -271h-42l36 260v9q0 26 -15 47q-18 24 -60 26q-31 0 -60 -10.5t-53 -28.5t-40 -43t-20 -55l-28 -205h-42z" />
<glyph unicode="i" horiz-adv-x="187" d="M75 0l52 375h41l-52 -375h-41zM135 508q2 14 13 23.5t24 9.5q14 1 22 -9q7 -8 6 -19v-5q-2 -14 -13.5 -23.5t-24.5 -9.5q-14 -1 -22 9q-6 7 -6 17q0 3 1 7z" />
<glyph unicode="j" horiz-adv-x="225" d="M20 -150q29 25 48.5 61t26.5 84l54 380h41l-52 -379q-9 -59 -33 -103t-59 -73q-6 8 -12.5 15t-13.5 15zM157 508q2 14 13.5 23.5t24.5 9.5q12 0 21 -9q6 -8 6 -19v-5q-2 -14 -13 -23.5t-24 -9.5t-21 9q-7 8 -7 19v5z" />
<glyph unicode="k" horiz-adv-x="449" d="M77 0l105 750h42l-79 -560q61 51 118 97t117 97q5 -6 11 -12.5t11 -13.5q-42 -34 -79 -65.5t-78 -65.5q33 -57 66 -113.5t68 -113.5h-49q-30 50 -60 99.5t-60 99.5q-18 -15 -36 -30.5t-36 -29.5l-19 -139h-42z" />
<glyph unicode="l" horiz-adv-x="187" d="M75 0l105 750h41l-105 -750h-41z" />
<glyph unicode="m" horiz-adv-x="796" d="M103 0l52 375h38l-5 -35q-2 -17 -4 -31t-4 -31q27 48 74.5 76t104.5 29q51 0 79 -27.5t27 -72.5q28 45 74.5 72t101.5 28q55 0 83 -31q24 -26 24 -66q0 -7 -1 -15l-38 -271h-41l35 260q1 6 1 11q0 25 -16 45q-18 24 -60 26q-30 0 -59 -10t-52.5 -28t-39.5 -42.5 t-21 -53.5l-29 -208h-42l36 260v9q0 26 -15 47q-18 24 -60 26q-31 0 -60 -10.5t-53 -28.5t-40 -43t-20 -55l-28 -205h-42z" />
<glyph unicode="n" horiz-adv-x="495" d="M103 0l52 375h38l-5 -35q-2 -17 -4 -31t-4 -31q27 47 75 76t104 29q55 0 83 -31q23 -26 23 -64q0 -8 -1 -17l-37 -271h-42l36 260v9q0 26 -15 47q-18 24 -60 26q-31 0 -60 -10.5t-53 -28.5t-40 -43t-20 -55l-28 -205h-42z" />
<glyph unicode="o" horiz-adv-x="471" d="M62 188q6 45 25.5 81.5t49.5 62t68 39t80 13.5q41 0 75 -15.5t58 -42.5q24 -26 34 -62q7 -23 6 -47q0 -14 -2 -29q-6 -45 -26 -81.5t-50 -61.5t-68.5 -38.5t-80.5 -13.5q-41 0 -74.5 15.5t-56.5 41.5q-24 26 -34 62q-7 23 -6 47q0 14 2 29zM104 188q-2 -12 -2 -23 q0 -19 6 -37q8 -28 26 -49t44 -33t58 -12t62 11.5t54 31.5t40 48.5t21 62.5q1 11 1 21q0 20 -5 39q-8 28 -26 49t-45 33.5t-59 12.5q-33 0 -63 -11.5t-53.5 -32t-39 -49t-19.5 -62.5z" />
<glyph unicode="p" horiz-adv-x="525" d="M31 -250l88 625h36q-3 -23 -6 -45t-5 -45q9 18 26 35t40 31t50.5 22.5t56.5 8.5q41 0 75 -15.5t57 -41.5t33 -62q7 -23 7 -47q0 -14 -2 -29q-6 -44 -26 -79.5t-50.5 -61.5t-69 -40t-79.5 -14q-31 0 -56 8t-43.5 21t-30.5 30t-16 34q-1 -10 -0.5 -20t-0.5 -21l-42 -294 h-42zM135 187q-2 -12 -2 -24q0 -19 5 -37q8 -28 26 -49t44.5 -33t59.5 -12t63 12t54 33t39.5 49.5t20.5 60.5q1 11 1 21q0 21 -5 40q-8 28 -26 48.5t-44.5 32.5t-59.5 12t-62.5 -12t-53.5 -32.5t-40 -48.5t-20 -61z" />
<glyph unicode="q" horiz-adv-x="512" d="M77 187q6 44 26 80t50.5 61.5t68.5 39.5t79 14q29 0 54 -8.5t44.5 -22.5t32 -31t16.5 -35q3 23 6.5 45t6.5 45h36l-88 -625h-42l42 294q2 11 5 21t5 20q-9 -18 -25.5 -34.5t-39 -29.5t-50 -21t-58.5 -8q-41 0 -75 15.5t-56.5 42t-32.5 62.5q-7 22 -7 47q0 13 2 28z M119 187q-2 -12 -2 -24q0 -19 5 -37q8 -28 26 -49t44.5 -33t59.5 -12t63 12t54 33t40 49.5t21 60.5q1 11 1 21q0 21 -5 40q-8 28 -26 48.5t-44.5 32.5t-59.5 12t-63 -12t-54 -32.5t-40 -48.5t-20 -61z" />
<glyph unicode="r" horiz-adv-x="331" d="M103 0l52 375h38l-5 -35q-2 -17 -4 -31t-4 -31q15 24 35 43.5t43 33t47 21t47 7.5l-8 -41q-32 -1 -61 -11.5t-52 -28.5t-38.5 -43t-19.5 -54l-28 -205h-42z" />
<glyph unicode="s" horiz-adv-x="399" d="M84 39q8 8 15.5 15t15.5 15q14 -17 39 -26.5t50 -9.5q9 0 22.5 3.5t27 12t23.5 21.5t13 32q1 7 1 13q-1 17 -9 27q-12 14 -30.5 22.5t-41.5 15t-42 17.5q-18 11 -30 29q-8 13 -9 32q0 9 2 19q4 26 16.5 45.5t30 32.5t37.5 19.5t38 6.5q21 0 50.5 -9.5t47.5 -33.5l-15 -15 t-14 -15q-10 14 -30.5 23t-42.5 9q-24 0 -48 -14t-28 -48q-1 -4 -1 -8q0 -16 10 -26q12 -12 31.5 -21t42 -16.5t41 -19.5t29.5 -31q8 -14 8 -35q0 -8 -1 -16q-2 -17 -11.5 -36.5t-26 -36.5t-41.5 -28.5t-59 -11.5q-30 0 -62 11t-49 36z" />
<glyph unicode="t" horiz-adv-x="287" d="M83 333l6 41h87l34 245h42l-34 -245h115l-6 -41h-115l-46 -333h-42l46 333h-87z" />
<glyph unicode="u" horiz-adv-x="529" d="M117 104l38 271h42l-37 -260q0 -4 -1 -9q1 -27 17 -47q18 -24 60 -26q30 0 59.5 10.5t53.5 28.5t40 43t20 55l28 205h42l-53 -379h-41l7 56l9 45q-27 -48 -75 -76.5t-103 -28.5t-83 31q-24 26 -24 66q0 7 1 15z" />
<glyph unicode="v" horiz-adv-x="500" d="M106 375h42q30 -79 61.5 -160t56.5 -162q48 81 102 161.5t106 160.5h42q-65 -100 -130 -199t-131 -199q-37 100 -74 199t-75 199z" />
<glyph unicode="w" horiz-adv-x="772" d="M108 375h42q28 -80 57.5 -160.5t54.5 -161.5q35 60 73 119t75 119l-30 84h42q28 -80 57.5 -160.5t54.5 -161.5q48 81 99.5 161.5t102.5 160.5h42q-63 -100 -127 -199t-128 -199q-24 69 -48.5 136t-48.5 136q-44 -69 -87.5 -136t-87.5 -136q-35 100 -71 199t-72 199z" />
<glyph unicode="x" horiz-adv-x="421" d="M36 0q42 48 83 96.5t83 96.5q-26 46 -53.5 91t-54.5 91h52q23 -40 47 -79.5t47 -79.5q35 40 69 79t68 79h51q-42 -48 -83.5 -96.5t-83.5 -96.5q28 -46 54.5 -91t54.5 -90h-52q-24 39 -47.5 79t-47.5 79q-34 -39 -67.5 -79t-67.5 -79h-52z" />
<glyph unicode="y" horiz-adv-x="492" d="M67 -250q40 62 79.5 123.5t79.5 124.5l-68 188t-68 189h44q9 -26 25.5 -72t34 -96t34 -96t26.5 -73q17 27 46.5 73t61 96t60.5 96t46 72h44q-100 -157 -199.5 -312.5t-201.5 -312.5h-44z" />
<glyph unicode="z" horiz-adv-x="451" d="M42 0l5 41q43 37 83 73.5l80 73l80 73t83 74.5h-200q-31 0 -47 12q-12 9 -12 28q0 6 1 13l3 22h42l-2 -12q-1 -12 4.5 -17.5t22.5 -5.5h251l-6 -41q-43 -37 -83 -73.5t-79.5 -73t-79.5 -73t-83 -73.5h303l-5 -41h-361z" />
<glyph unicode="{" horiz-adv-x="291" d="M26 275l7 46q24 1 41.5 14.5t29 33.5t18 43.5t9.5 43.5l24 172q6 46 17.5 70t26.5 34.5t33 12t38 1.5h47l-5 -41h-52q-15 0 -26 -5.5t-18.5 -18t-13 -33t-9.5 -51.5l-20 -142q-6 -41 -15.5 -67.5t-21.5 -44t-25 -27.5t-25 -17q10 -7 20.5 -17.5t17 -28.5t9 -44.5 t-3.5 -66.5l-20 -141q-9 -62 -1.5 -85.5t38.5 -23.5h52l-6 -40h-47q-21 0 -39 1.5t-29.5 14t-15.5 41t4 82.5l21 149q3 20 3 43.5t-6 43.5t-19.5 33.5t-37.5 14.5z" />
<glyph unicode="|" horiz-adv-x="240" d="M30 -232l131 932h42l-131 -932h-42z" />
<glyph unicode="}" horiz-adv-x="320" d="M2 -148l6 40h51q15 0 26 5.5t18.5 18t12.5 33.5t10 52l24 164q4 32 14 55t22 38.5t25 25t23 15.5q-11 7 -21.5 17t-17 27.5t-9 44t3.5 67.5l20 142q9 62 1.5 85t-38.5 23h-52l6 41h47q19 0 37 -1t30 -11.5t17 -35t-1 -70.5l-21 -150q-3 -18 -5 -44.5t2.5 -51t17.5 -42.5 t42 -19l-7 -46q-29 -2 -47.5 -19.5t-29.5 -42t-16 -51t-8 -44.5l-21 -148q-6 -47 -17.5 -71t-26.5 -34.5t-33.5 -11.5t-37.5 -1h-47z" />
<glyph unicode="~" horiz-adv-x="489" d="M123 470q8 38 37.5 56.5t58.5 18.5q21 0 36.5 -9.5t29.5 -26.5t25 -22.5t25 -5.5q7 0 17.5 2t20.5 7.5t18 15.5t12 26q7 -1 13.5 -1t12.5 -1q-8 -38 -37.5 -56.5t-58.5 -18.5q-21 0 -36.5 9.5t-29.5 26.5t-25.5 22.5t-25.5 5.5q-8 0 -18 -2t-19.5 -7.5t-17.5 -15.5 t-12 -26q-7 1 -13.5 1t-12.5 1z" />
<glyph unicode="&#xa0;" />
<glyph unicode="&#xa1;" horiz-adv-x="200" d="M26 -210l82 584h42l-82 -584h-42zM113 485q2 14 13.5 23.5t23.5 9.5t20.5 -9.5t7.5 -23.5q-2 -14 -13.5 -23.5t-24.5 -9.5q-12 0 -20.5 9.5t-6.5 23.5z" />
<glyph unicode="&#xa2;" horiz-adv-x="385" d="M36 188q5 36 22 69t42.5 58.5t58 42.5t68.5 22l9 58h42l-8 -55q32 -2 60 -13t48 -30l-15.5 -15.5l-15.5 -15.5q-17 14 -38 22.5t-45 9.5l-43 -307q51 3 92 33q5 -8 10.5 -15.5t11.5 -15.5q-54 -40 -119 -42l-9 -62h-42l9 65q-35 5 -62.5 22t-46 42.5t-26.5 58t-3 68.5z M78 188q-8 -57 21 -98t81 -51l41 297q-27 -4 -51.5 -17t-43.5 -33t-31.5 -45t-16.5 -53z" />
<glyph unicode="&#xa3;" horiz-adv-x="574" d="M-17 0l6 41h43q17 0 28 6t18.5 20.5t13 39.5t10.5 64l18 125h-65l6 41h65l22 163q10 70 64 102t139 32q33 0 58 -7t42.5 -19.5t29 -29.5t18.5 -37q-9 -5 -17.5 -9.5t-16.5 -9.5q-8 17 -16.5 30t-22 22t-33 14t-48.5 5q-78 0 -113.5 -26.5t-41.5 -72.5l-22 -157h124 l-6 -41h-124l-20 -141l-4 -24q-4 -29 -10.5 -52.5t-23.5 -37.5h192h25q31 0 52 2.5t34 8.5t20 16t9 25l8 52h42l-9 -59q-2 -17 -6.5 -32.5t-18 -27.5t-38 -19t-67.5 -7h-364z" />
<glyph unicode="&#xa4;" horiz-adv-x="500" d="M82 239l39 35q-11 18 -16 40t-1 47q3 23 13.5 44.5t25.5 38.5l-27 33l33 29l28 -32q20 14 43 22t47 8q25 0 45.5 -8.5t35.5 -22.5l38 33l25 -30l-36 -31q23 -38 16 -84q-3 -25 -14 -46.5t-28 -39.5l30 -35l-34 -29q-8 8 -15.5 17t-15.5 17q-19 -13 -41.5 -20t-46.5 -7 q-23 0 -43 7t-36 19l-39 -34zM146 361q-3 -21 2.5 -40t17 -33t29 -22t38.5 -8t41 8t35.5 22t26 33t13.5 40t-2.5 39.5t-17 32.5t-29 22t-38.5 8t-40.5 -8t-35.5 -22t-26.5 -32.5t-13.5 -39.5z" />
<glyph unicode="&#xa5;" horiz-adv-x="638" d="M83 700h51q42 -94 84 -185.5t84 -184.5q2 -8 4.5 -14.5t4.5 -13.5h1q4 7 7 13.5t7 14.5q69 93 136.5 184.5t136.5 185.5h51q-73 -100 -146 -198t-146 -198h118l-6 -41h-140l-17 -122h140l-6 -41h-140l-14 -100h-50l14 100h-143l6 41h143l17 122h-143l6 41h120z" />
<glyph unicode="&#xa6;" horiz-adv-x="215" d="M23 -233l49 350h42l-49 -350h-42zM105 350l49 350h42l-49 -350h-42z" />
<glyph unicode="&#xa7;" horiz-adv-x="500" d="M133 340q0 24 8 47.5t23.5 43.5t37.5 34q24 14 49.5 15.5t48.5 -6.5q-11 23 -21 46t-21 47q-12 28 -15.5 48.5t-1 35.5t9.5 25.5t18 19.5q15 14 38 25.5t42 21.5q4 -9 7.5 -18t8.5 -17q-13 -7 -25 -13.5t-24 -13.5q-28 -15 -30 -38.5t19 -70.5q17 -38 33.5 -75.5 t33.5 -75.5q10 -21 10 -45t-8.5 -46.5t-24.5 -42t-38 -33.5q-24 -14 -49.5 -16t-47.5 6q10 -23 20.5 -47t21.5 -47q12 -28 15.5 -48.5t1.5 -35.5t-10 -25.5t-18 -19.5q-15 -15 -37.5 -26t-41.5 -21q-4 9 -7.5 18t-8.5 17q13 7 25 13.5t25 13.5q27 14 28 39t-22 77 q-14 29 -23.5 50.5t-17 38t-13 29.5t-9.5 25q-10 21 -10 45zM176 368.5q-4 -19.5 1 -37.5q5 -27 26 -42t50 -13q18 1 33.5 9t27.5 21t19.5 28.5t8.5 32.5q1 37 -23.5 58t-57.5 20q-23 -2 -40.5 -13t-29 -27.5t-15.5 -36z" />
<glyph unicode="&#xa8;" horiz-adv-x="370" d="M68 508q2 14 13.5 23.5t24.5 9.5q12 0 21 -9.5t7 -23.5t-13.5 -23.5t-23.5 -9.5q-13 0 -22 9.5t-7 23.5zM234 508q2 14 13 23.5t24 9.5t21.5 -9.5t6.5 -23.5t-13 -23.5t-24 -9.5t-21.5 9.5t-6.5 23.5z" />
<glyph unicode="&#xa9;" horiz-adv-x="793" d="M141 372q8 56 34.5 103t66.5 81.5t89.5 54t103.5 19.5t98.5 -19.5t74.5 -54t43.5 -81.5t5.5 -103q-8 -55 -34 -102t-66 -81.5t-89.5 -54t-103.5 -19.5t-98.5 19.5t-75 54t-44 81.5t-5.5 102zM165 371q-7 -50 5.5 -92.5t40 -74t67.5 -49t88 -17.5q49 0 94 17.5t81 49 t60.5 74t31.5 92.5q7 51 -5 94t-39.5 74.5t-67.5 49.5t-89 18q-48 0 -93 -18t-81 -49.5t-61 -74.5t-32 -94zM244 375q4 34 21 63.5t42 51.5t56.5 34.5t64.5 12.5q44 0 79 -22l-6 -8l-6 -8q-31 20 -70 20q-29 0 -56.5 -11.5t-49.5 -31t-37 -46t-19 -56.5q-4 -29 3.5 -55 t24 -45.5t40.5 -31t53 -11.5q20 0 39 5.5t36 14.5l9 -15q-20 -11 -41.5 -17t-44.5 -6q-33 0 -61 13t-46.5 35t-27 51.5t-3.5 62.5z" />
<glyph unicode="&#xaa;" horiz-adv-x="585" d="M96 357q4 31 19 57t37 44t49 28.5t57 10.5q21 0 39 -6t31.5 -15.5t22.5 -22.5t12 -25q2 16 5.5 32t6.5 31h24l-37 -270h-28l4 32q2 8 3 15.5t2 15.5q-7 -13 -18.5 -25t-28 -22t-36.5 -15.5t-42 -5.5q-30 0 -54.5 11t-40.5 30t-23.5 44.5t-3.5 55.5zM126 357 q-3 -23 2.5 -43.5t18.5 -35.5t32.5 -23.5t42.5 -8.5q24 0 45.5 8.5t39 23.5t28.5 35.5t15 43.5q3 23 -3 43.5t-19 35.5t-32 23.5t-43 8.5q-23 0 -44.5 -8.5t-39 -23.5t-29 -35.5t-14.5 -43.5z" />
<glyph unicode="&#xab;" horiz-adv-x="601" d="M117 239q48 41 96.5 80.5t96.5 80.5l-6 -48q-32 -29 -63.5 -56.5t-63.5 -56.5q23 -29 47 -57t47 -57l-6 -48zM288 239q48 41 96.5 80.5t96.5 80.5l-6 -48q-32 -28 -63.5 -56t-63.5 -57q23 -29 47 -57t47 -57l-6 -48z" />
<glyph unicode="&#xac;" horiz-adv-x="559" d="M102 211l4 33h360l-13 -96h-42l9 63h-318z" />
<glyph unicode="&#xad;" d="M50 169l5 41h184l-5 -41h-184z" />
<glyph unicode="&#xae;" horiz-adv-x="801" d="M141 372q8 56 34.5 103t66.5 81.5t89.5 54t103.5 19.5t98.5 -19.5t74.5 -54t43.5 -81.5t5.5 -103q-8 -55 -34 -102t-66 -81.5t-89.5 -54t-103.5 -19.5t-98.5 19.5t-75 54t-44 81.5t-5.5 102zM165 371q-7 -50 5.5 -92.5t40 -74t67.5 -49t88 -17.5q49 0 94 17.5t81 49 t60.5 74t31.5 92.5q7 51 -5 94t-39.5 74.5t-67.5 49.5t-89 18q-48 0 -93 -18t-81 -49.5t-61 -74.5t-32 -94zM305 210l47 331h71q15 0 32 -5t30.5 -15.5t21.5 -27t5 -39.5q-5 -33 -26.5 -55.5t-56.5 -30.5q14 -40 26.5 -79.5t25.5 -78.5h-21q-13 39 -26 78.5t-26 78.5 q-4 -1 -8 -1h-9h-44l-22 -156h-20zM349 385h49q25 0 42.5 6.5t28.5 17t16.5 22.5t7.5 23q3 27 -18 47.5t-57 20.5h-49z" />
<glyph unicode="&#xaf;" horiz-adv-x="399" d="M83 486l3 30h230l-3 -30h-230z" />
<glyph unicode="&#xb0;" horiz-adv-x="282" d="M50 559q5 37 33.5 62t66.5 25q35 0 56.5 -25t16.5 -62q-5 -36 -33.5 -60.5t-64.5 -24.5q-37 0 -58.5 24.5t-16.5 60.5zM81 560q-4 -24 10.5 -40.5t38.5 -16.5q23 0 42 16.5t22 40.5q3 23 -11.5 39.5t-37.5 16.5q-24 0 -42.5 -16.5t-21.5 -39.5z" />
<glyph unicode="&#xb1;" horiz-adv-x="524" d="M54 122l6 40h360l-6 -40h-360zM89 371l6 41h159l22 159h42l-22 -159h159l-6 -41h-159l-23 -160h-42l23 160h-159z" />
<glyph unicode="&#xb2;" horiz-adv-x="398" d="M41 185q36 31 69.5 60t60 57t44 54t21.5 49q3 24 -2 40.5t-14 26t-21.5 14t-22.5 4.5q-23 0 -38 -8t-25 -19.5t-15 -24.5t-7 -24q-5 -33 12 -55q-4 -3 -7 -6t-7 -6q-11 11 -16 29t-2 38q3 19 11.5 36.5t22 31t32.5 21t41 7.5q21 0 37 -7.5t26.5 -21t14.5 -31.5t1 -39 q-4 -26 -19.5 -52.5t-38.5 -52.5t-50.5 -51t-54.5 -50h155l-3 -20h-205z" />
<glyph unicode="&#xb3;" horiz-adv-x="419" d="M44 217q4 3 8.5 7t8.5 8q9 -13 23 -21t32 -8q17 0 33.5 7t29 18t21.5 26t11 32q3 17 -1.5 32t-14.5 26t-24.5 17.5t-31.5 6.5q-8 0 -16 -2.5t-16 -7.5l54 64t54 65h-122l3 20h159q-26 -30 -52 -60.5t-52 -60.5q19 -2 35.5 -10t27.5 -21t16 -30.5t2 -38.5t-14 -40t-27 -33 t-36 -22t-41 -8q-22 0 -40 9t-30 25z" />
<glyph unicode="&#xb4;" horiz-adv-x="240" d="M90 479q27 33 54.5 66.5t54.5 66.5h43q-29 -33 -59.5 -66.5t-59.5 -66.5h-33z" />
<glyph unicode="&#xb5;" horiz-adv-x="545" d="M62 -201l81 576h42l-37 -260q-3 -32 15.5 -56t60.5 -26q30 0 59.5 10.5t53 28.5t39.5 43t20 55l29 205h42l-53 -379h-42l8 56l9 45q-27 -48 -74.5 -76t-104.5 -29q-26 0 -45 9.5t-29 26.5l-32 -229h-42z" />
<glyph unicode="&#xb6;" horiz-adv-x="512" d="M67 586q5 34 22 64t42 52t56.5 35t65.5 13h205l-105 -750h-42l99 709h-121l-99 -709h-42l59 423q-34 0 -62 12.5t-47 34.5t-27.5 52t-3.5 64z" />
<glyph unicode="&#xb7;" horiz-adv-x="165" d="M52 281q2 14 13.5 23.5t24.5 9.5q12 0 21 -9.5t7 -23.5t-13.5 -23.5t-23.5 -9.5q-13 0 -22 9.5t-7 23.5z" />
<glyph unicode="&#xb8;" horiz-adv-x="452" d="M109 -169l30 12q3 -19 17 -31.5t37 -12.5q28 0 47 19t24 47q3 25 -7 38.5t-23 23.5t-24 20.5t-8 29.5l3 23h29l-1 -6q-2 -14 1 -22.5t8 -14.5t12 -10t13 -8q20 -15 26.5 -34.5t3.5 -37.5q-7 -48 -36 -74.5t-70 -26.5q-29 0 -52 16t-30 49z" />
<glyph unicode="&#xb9;" horiz-adv-x="259" d="M55 464l3 19h63l-42 -299h-19l39 280h-44z" />
<glyph unicode="&#xba;" horiz-adv-x="469" d="M92 357q4 32 18 58.5t35.5 44.5t49 28t58.5 10q29 0 53.5 -11t41.5 -30.5t24.5 -45.5t3.5 -54q-4 -33 -18.5 -59.5t-36.5 -44.5t-49.5 -27.5t-57.5 -9.5t-54 11t-40.5 30t-24.5 44.5t-3 55.5zM122 357q-4 -23 2.5 -43.5t19.5 -35.5t31.5 -23.5t41.5 -8.5t45 8t39 22.5 t28.5 35t15.5 45.5q3 23 -3 43t-19 35t-32.5 24t-42.5 9q-24 0 -45.5 -8t-38.5 -23t-28 -35.5t-14 -44.5z" />
<glyph unicode="&#xbb;" horiz-adv-x="601" d="M94 77l6 48q32 29 64 57t64 57q-24 29 -48 57t-47 56l6 48q38 -41 74.5 -80.5t74.5 -80.5zM265 77l6 48q32 29 64 57t64 57q-24 29 -48 56.5t-47 56.5l6 48q38 -41 74.5 -80.5t74.5 -80.5z" />
<glyph unicode="&#xbc;" horiz-adv-x="968" d="M128 598l4 29h97l-64 -461h-30l60 432h-67zM226 -19q97 190 192 377.5t192 376.5h42q-97 -189 -192 -376.5t-192 -377.5h-42zM364 136q81 89 161 177t161 177l-46 -323h72l-4 -31h-72l-19 -136h-32l20 136h-241zM431 167h178l32 231q-53 -58 -105 -115.5t-105 -115.5z " />
<glyph unicode="&#xbd;" horiz-adv-x="1069" d="M121 598l4 29h97l-64 -461h-30l60 432h-67zM226 -19q97 190 192 377.5t192 376.5h42q-97 -189 -192 -376.5t-192 -377.5h-42zM383 0q51 44 99 86t86.5 82t63.5 77t30 71t-2 57t-20.5 37.5t-31 20.5t-32.5 6q-32 0 -54 -11.5t-36 -27.5t-21 -35.5t-10 -34.5q-7 -48 17 -78 q-5 -4 -9.5 -8.5t-10.5 -9.5q-16 16 -23 42t-3 54t16.5 53t32 44t46 30t59.5 11q30 0 53 -11t37.5 -30t20.5 -45t1 -56q-5 -38 -28 -76t-55.5 -74.5t-71.5 -73t-77 -71.5h221l-4 -29h-294z" />
<glyph unicode="&#xbe;" horiz-adv-x="1276" d="M98 205q7 7 14 12.5t13 11.5q14 -20 36.5 -32.5t51.5 -12.5q27 0 52.5 10.5t45.5 28.5t33.5 41.5t17.5 49.5q4 27 -3.5 50.5t-22.5 41t-37.5 27.5t-49.5 10q-13 0 -26 -4t-25 -12q43 51 85 101.5t85 101.5h-192l5 31h249q-41 -48 -81.5 -95t-81.5 -95q30 -2 55.5 -15 t43 -33.5t25.5 -48t4 -60.5q-5 -33 -22.5 -62.5t-42.5 -51.5t-56 -34.5t-64 -12.5q-36 0 -64 14t-48 38zM401 -19q97 190 192 377.5t192 377.5h42q-97 -190 -192 -377.5t-192 -377.5h-42zM512 136q81 89 161 177t161 177l-45 -323h72l-4 -31h-73l-19 -136h-31l19 136h-241z M580 167h178l32 231q-53 -58 -105.5 -115.5t-104.5 -115.5z" />
<glyph unicode="&#xbf;" horiz-adv-x="427" d="M12 2q8 54 40 95.5t83 73.5q19 13 36.5 23t32 22.5t25.5 31.5t15 49l11 78h42l-14 -97q-4 -31 -18 -50.5t-33.5 -34.5t-44 -28.5t-51.5 -33.5q-37 -27 -56.5 -59.5t-24.5 -69.5q-4 -33 3.5 -61t25 -49t44 -32.5t59.5 -11.5q58 0 102 30t68 83q8 -4 17.5 -7t17.5 -6 q-12 -26 -32 -51t-46.5 -45t-59.5 -32.5t-73 -12.5q-41 0 -75 15.5t-56.5 42t-33 62t-4.5 75.5zM260 491q2 14 13.5 23.5t23.5 9.5t21 -9.5t7 -23.5t-13.5 -23.5t-23.5 -9.5t-21 9.5t-7 23.5z" />
<glyph unicode="&#xc0;" horiz-adv-x="740" d="M8 0q103 184 206.5 366t206.5 366l207 -732h-42l-42 150t-43 150h-281q-42 -75 -84.5 -150t-84.5 -150h-43zM243 340h246q-18 69 -37 136t-39 135l-2 14t-3 14q-2 -5 -6.5 -14t-6.5 -14q-38 -71 -75.5 -136t-76.5 -135zM326 883h42q18 -33 35.5 -66.5t35.5 -66.5h-33 q-20 33 -40 66.5t-40 66.5z" />
<glyph unicode="&#xc1;" horiz-adv-x="740" d="M8 0q103 184 206.5 366t206.5 366l207 -732h-42l-42 150t-43 150h-281q-42 -75 -84.5 -150t-84.5 -150h-43zM243 340h246q-18 69 -37 136t-39 135l-2 14t-3 14q-2 -5 -6.5 -14t-6.5 -14q-38 -71 -75.5 -136t-76.5 -135zM405 750q27 33 54.5 66.5t54.5 66.5h43 q-29 -33 -59.5 -66.5t-59.5 -66.5h-33z" />
<glyph unicode="&#xc2;" horiz-adv-x="740" d="M8 0q103 184 206.5 366t206.5 366l207 -732h-42l-42 150t-43 150h-281q-42 -75 -84.5 -150t-84.5 -150h-43zM243 340h246q-18 69 -37 136t-39 135l-2 14t-3 14q-2 -5 -6.5 -14t-6.5 -14q-38 -71 -75.5 -136t-76.5 -135zM303 750q36 45 72.5 90.5t72.5 90.5 q24 -45 47.5 -90.5t47.5 -90.5h-33q-18 30 -35.5 60.5t-34.5 60.5q-26 -30 -52 -60.5t-52 -60.5h-33z" />
<glyph unicode="&#xc3;" horiz-adv-x="740" d="M8 0q103 184 206.5 366t206.5 366l207 -732h-42l-42 150t-43 150h-281q-42 -75 -84.5 -150t-84.5 -150h-43zM243 340h246q-18 69 -37 136t-39 135l-2 14t-3 14q-2 -5 -6.5 -14t-6.5 -14q-38 -71 -75.5 -136t-76.5 -135zM277 764q8 38 37.5 56.5t58.5 18.5q21 0 36.5 -9.5 t29.5 -26.5t25 -22.5t25 -5.5q7 0 17.5 2t20.5 7.5t18 15.5t12 26q7 -1 13.5 -1t12.5 -1q-8 -38 -37.5 -56.5t-58.5 -18.5q-21 0 -36.5 9.5t-29.5 26.5t-25.5 22.5t-25.5 5.5q-8 0 -18 -2t-19.5 -7.5t-17.5 -15.5t-12 -26q-7 1 -13.5 1t-12.5 1z" />
<glyph unicode="&#xc4;" horiz-adv-x="740" d="M8 0q103 184 206.5 366t206.5 366l207 -732h-42l-42 150t-43 150h-281q-42 -75 -84.5 -150t-84.5 -150h-43zM243 340h246q-18 69 -37 136t-39 135l-2 14t-3 14q-2 -5 -6.5 -14t-6.5 -14q-38 -71 -75.5 -136t-76.5 -135zM316 798q2 14 13.5 23.5t24.5 9.5q12 0 21 -9.5 t7 -23.5t-13.5 -23.5t-23.5 -9.5q-13 0 -22 9.5t-7 23.5zM482 798q2 14 13 23.5t24 9.5t21.5 -9.5t6.5 -23.5t-13 -23.5t-24 -9.5t-21.5 9.5t-6.5 23.5z" />
<glyph unicode="&#xc5;" horiz-adv-x="740" d="M8 0q103 184 206.5 366t206.5 366l207 -732h-42l-42 150t-43 150h-281q-42 -75 -84.5 -150t-84.5 -150h-43zM243 340h246q-18 69 -37 136t-39 135l-2 14t-3 14q-2 -5 -6.5 -14t-6.5 -14q-38 -71 -75.5 -136t-76.5 -135zM367 836q5 30 28.5 51t54.5 21q30 0 48.5 -21 t14.5 -51q-5 -31 -29 -52t-55 -21q-30 0 -48.5 21t-13.5 52zM397 835q-2 -17 9 -29.5t28 -12.5t31.5 12.5t16.5 29.5t-9 30t-28 13t-31.5 -13t-16.5 -30z" />
<glyph unicode="&#xc6;" horiz-adv-x="792" d="M10 0q100 176 197.5 350t197.5 350h334l-5 -40h-287l-41 -287h248l-6 -40h-248l-41 -293h301l-6 -40h-342l41 295h-134q-42 -74 -83.5 -147.5t-83.5 -147.5h-42zM242 335h117l40 284q-35 -72 -76.5 -142.5t-80.5 -141.5z" />
<glyph unicode="&#xc7;" horiz-adv-x="670" d="M77 349q10 74 47.5 139.5t93 114t124.5 77t143 28.5q51 0 94.5 -13t81.5 -37q-8 -8 -14.5 -17t-14.5 -17q-32 21 -70.5 32.5t-82.5 11.5q-65 0 -126 -25.5t-110 -69t-82.5 -101.5t-42.5 -124q-9 -65 7.5 -122.5t53.5 -100.5t90.5 -68t118.5 -25q44 0 86 11.5t80 32.5 l19 -34q-42 -23 -88.5 -36t-95.5 -14q-2 -26 10.5 -35.5t24.5 -17.5q20 -15 26 -34.5t4 -37.5q-7 -48 -36.5 -74.5t-70.5 -26.5q-29 0 -51.5 16t-29.5 49q8 3 15 6l14 6q3 -19 17 -31.5t37 -12.5q29 0 48 19t23 47q4 25 -6 38.5t-23 23.5t-24 20.5t-8 29.5l2 16 q-69 4 -126 33.5t-95.5 77.5t-55.5 111t-7 134z" />
<glyph unicode="&#xc8;" horiz-adv-x="601" d="M35 0l99 700h415l-6 -40h-373l-41 -287h335l-6 -40h-335l-41 -293h388l-6 -40h-429zM243 883h42q18 -33 35.5 -66.5t35.5 -66.5h-33q-20 33 -40 66.5t-40 66.5z" />
<glyph unicode="&#xc9;" horiz-adv-x="601" d="M35 0l99 700h415l-6 -40h-373l-41 -287h335l-6 -40h-335l-41 -293h388l-6 -40h-429zM312 750q27 33 54.5 66.5t54.5 66.5h43q-29 -33 -59.5 -66.5t-59.5 -66.5h-33z" />
<glyph unicode="&#xca;" horiz-adv-x="601" d="M35 0l99 700h415l-6 -40h-373l-41 -287h335l-6 -40h-335l-41 -293h388l-6 -40h-429zM243 750q36 45 72.5 90.5t72.5 90.5q24 -45 47.5 -90.5t47.5 -90.5h-33q-18 30 -35.5 60.5t-34.5 60.5q-26 -30 -52 -60.5t-52 -60.5h-33z" />
<glyph unicode="&#xcb;" horiz-adv-x="601" d="M35 0l99 700h415l-6 -40h-373l-41 -287h335l-6 -40h-335l-41 -293h388l-6 -40h-429zM243 798q2 14 13.5 23.5t24.5 9.5q12 0 21 -9.5t7 -23.5t-13.5 -23.5t-23.5 -9.5q-13 0 -22 9.5t-7 23.5zM409 798q2 14 13 23.5t24 9.5t21.5 -9.5t6.5 -23.5t-13 -23.5t-24 -9.5 t-21.5 9.5t-6.5 23.5z" />
<glyph unicode="&#xcc;" horiz-adv-x="236" d="M54 0l99 700h41l-99 -700h-41zM75 883h42q18 -33 35.5 -66.5t35.5 -66.5h-33q-20 33 -40 66.5t-40 66.5z" />
<glyph unicode="&#xcd;" horiz-adv-x="236" d="M54 0l99 700h41l-99 -700h-41zM156 750q27 33 54.5 66.5t54.5 66.5h43q-29 -33 -59.5 -66.5t-59.5 -66.5h-33z" />
<glyph unicode="&#xce;" horiz-adv-x="256" d="M54 0l99 700h41l-99 -700h-41zM64 750q36 45 72.5 90.5t72.5 90.5q24 -45 47.5 -90.5t47.5 -90.5h-33q-18 30 -35.5 60.5t-34.5 60.5q-26 -30 -52 -60.5t-52 -60.5h-33z" />
<glyph unicode="&#xcf;" horiz-adv-x="236" d="M54 0l99 700h41l-99 -700h-41zM60 798q2 14 13.5 23.5t24.5 9.5q12 0 21 -9.5t7 -23.5t-13.5 -23.5t-23.5 -9.5q-13 0 -22 9.5t-7 23.5zM226 798q2 14 13 23.5t24 9.5t21.5 -9.5t6.5 -23.5t-13 -23.5t-24 -9.5t-21.5 9.5t-6.5 23.5z" />
<glyph unicode="&#xd0;" horiz-adv-x="646" d="M19 331l6 41h53l47 328h143q75 0 138 -24.5t107 -70t64 -110.5t9 -145q-9 -63 -38 -125.5t-83.5 -112.5t-136 -81t-195.5 -31h-107l47 331h-54zM73 40h90q74 0 139 21t115.5 61t84 97.5t43.5 130.5q10 71 -7 128.5t-56 98t-97.5 62t-133.5 21.5h-90l-41 -288h207l-6 -41 h-207z" />
<glyph unicode="&#xd1;" horiz-adv-x="813" d="M50 0l103 732q117 -163 231.5 -322.5t231.5 -321.5q4 -7 8 -13t8 -13v16t1 16l85 606h42l-103 -732q-117 161 -232 319.5t-232 319.5q-3 7 -7 13t-8 13q-1 -8 -1 -16t-1 -16l-84 -601h-42zM325 763q8 38 37.5 56.5t58.5 18.5q21 0 36.5 -9.5t29.5 -26.5t25 -22.5t25 -5.5 q7 0 17.5 2t20.5 7.5t18 15.5t12 26q7 -1 13.5 -1t12.5 -1q-8 -38 -37.5 -56.5t-58.5 -18.5q-21 0 -36.5 9.5t-29.5 26.5t-25.5 22.5t-25.5 5.5q-8 0 -18 -2t-19.5 -7.5t-17.5 -15.5t-12 -26q-7 1 -13.5 1t-12.5 1z" />
<glyph unicode="&#xd2;" horiz-adv-x="839" d="M61 349q10 74 47.5 139.5t93 114t124.5 77t143 28.5t135 -28.5t103 -77t61 -114t9 -139.5t-47.5 -139t-93 -113.5t-125 -76.5t-143.5 -28t-135 28t-102.5 76.5t-60.5 113.5t-9 139zM103 348q-9 -66 7.5 -123.5t53 -100t90 -67.5t118.5 -25q66 0 127.5 25t111 68 t82.5 100.5t42 123.5t-7.5 124t-53.5 101.5t-91 68.5t-119 25t-126 -25.5t-110 -69t-82.5 -101.5t-42.5 -124zM370 883h42q18 -33 35.5 -66.5t35.5 -66.5h-33q-20 33 -40 66.5t-40 66.5z" />
<glyph unicode="&#xd3;" horiz-adv-x="840" d="M61 349q10 74 47.5 139.5t93 114t124.5 77t143 28.5t135 -28.5t103 -77t61 -114t9 -139.5t-47.5 -139t-93 -113.5t-125 -76.5t-143.5 -28t-135 28t-102.5 76.5t-60.5 113.5t-9 139zM103 348q-9 -66 7.5 -123.5t53 -100t90 -67.5t118.5 -25q66 0 127.5 25t111 68 t82.5 100.5t42 123.5t-7.5 124t-53.5 101.5t-91 68.5t-119 25t-126 -25.5t-110 -69t-82.5 -101.5t-42.5 -124zM463 750q27 33 54.5 66.5t54.5 66.5h43q-29 -33 -59.5 -66.5t-59.5 -66.5h-33z" />
<glyph unicode="&#xd4;" horiz-adv-x="839" d="M61 349q10 74 47.5 139.5t93 114t124.5 77t143 28.5t135 -28.5t103 -77t61 -114t9 -139.5t-47.5 -139t-93 -113.5t-125 -76.5t-143.5 -28t-135 28t-102.5 76.5t-60.5 113.5t-9 139zM103 348q-9 -66 7.5 -123.5t53 -100t90 -67.5t118.5 -25q66 0 127.5 25t111 68 t82.5 100.5t42 123.5t-7.5 124t-53.5 101.5t-91 68.5t-119 25t-126 -25.5t-110 -69t-82.5 -101.5t-42.5 -124zM358 750q36 45 72.5 90.5t72.5 90.5q24 -45 47.5 -90.5t47.5 -90.5h-33q-18 30 -35.5 60.5t-34.5 60.5q-26 -30 -52 -60.5t-52 -60.5h-33z" />
<glyph unicode="&#xd5;" horiz-adv-x="839" d="M61 349q10 74 47.5 139.5t93 114t124.5 77t143 28.5t135 -28.5t103 -77t61 -114t9 -139.5t-47.5 -139t-93 -113.5t-125 -76.5t-143.5 -28t-135 28t-102.5 76.5t-60.5 113.5t-9 139zM103 348q-9 -66 7.5 -123.5t53 -100t90 -67.5t118.5 -25q66 0 127.5 25t111 68 t82.5 100.5t42 123.5t-7.5 124t-53.5 101.5t-91 68.5t-119 25t-126 -25.5t-110 -69t-82.5 -101.5t-42.5 -124zM319 797q8 38 37.5 56.5t58.5 18.5q21 0 36.5 -9.5t29.5 -26.5t25 -22.5t25 -5.5q7 0 17.5 2t20.5 7.5t18 15.5t12 26q7 -1 13.5 -1t12.5 -1q-8 -38 -37.5 -56.5 t-58.5 -18.5q-21 0 -36.5 9.5t-29.5 26.5t-25.5 22.5t-25.5 5.5q-8 0 -18 -2t-19.5 -7.5t-17.5 -15.5t-12 -26q-7 1 -13.5 1t-12.5 1z" />
<glyph unicode="&#xd6;" horiz-adv-x="839" d="M61 349q10 74 47.5 139.5t93 114t124.5 77t143 28.5t135 -28.5t103 -77t61 -114t9 -139.5t-47.5 -139t-93 -113.5t-125 -76.5t-143.5 -28t-135 28t-102.5 76.5t-60.5 113.5t-9 139zM103 348q-9 -66 7.5 -123.5t53 -100t90 -67.5t118.5 -25q66 0 127.5 25t111 68 t82.5 100.5t42 123.5t-7.5 124t-53.5 101.5t-91 68.5t-119 25t-126 -25.5t-110 -69t-82.5 -101.5t-42.5 -124zM355 798q2 14 13.5 23.5t24.5 9.5q12 0 21 -9.5t7 -23.5t-13.5 -23.5t-23.5 -9.5q-13 0 -22 9.5t-7 23.5zM521 798q2 14 13 23.5t24 9.5t21.5 -9.5t6.5 -23.5 t-13 -23.5t-24 -9.5t-21.5 9.5t-6.5 23.5z" />
<glyph unicode="&#xd7;" horiz-adv-x="500" d="M106 29q32 29 64 56.5t64 56.5l-96 112l33 30l97 -112q32 29 64 56t64 56q7 -7 13 -14.5t12 -14.5l-64 -56l-64 -56q24 -29 48 -57t49 -56l-34 -30q-24 29 -48.5 56.5t-49.5 56.5q-32 -28 -63.5 -56t-63.5 -57q-7 8 -13 15z" />
<glyph unicode="&#xd8;" horiz-adv-x="840" d="M57 14q20 20 38.5 39t38.5 39q-44 49 -64 115t-9 142q10 74 47.5 139.5t93 114t124.5 77t143 28.5q60 0 111 -18.5t92 -52.5q18 19 36.5 37.5t36.5 37.5q6 -6 12.5 -12t12.5 -13q-18 -19 -36 -37l-37 -37q48 -49 69.5 -117.5t10.5 -146.5q-10 -74 -47.5 -139t-93 -113.5 t-125 -76.5t-143.5 -28q-63 0 -115.5 20t-92.5 55q-20 -20 -39 -39.5t-39 -39.5q-6 7 -12.5 13t-12.5 13zM103 348q-10 -66 7 -124t55 -101q119 122 237.5 242t237.5 241q-35 29 -80 45.5t-97 16.5q-65 0 -126 -25.5t-109.5 -69t-82 -101.5t-42.5 -124zM190 98 q35 -32 81 -49t101 -17q65 0 126.5 25t111 68t83 100.5t42.5 123.5q10 69 -9 128.5t-61 103.5q-120 -121 -238 -241.5t-237 -241.5z" />
<glyph unicode="&#xd9;" horiz-adv-x="652" d="M76 226l66 474h41l-66 -471q-6 -48 3 -84.5t31.5 -61.5t56.5 -38t76 -13t79.5 13t67 38t49 61.5t26.5 84.5l66 471h42l-66 -474q-8 -57 -32.5 -101t-60.5 -73.5t-81.5 -44.5t-95.5 -15q-51 0 -92 15t-68 44.5t-38.5 73.5t-3.5 101zM274 883h42q18 -33 35.5 -66.5 t35.5 -66.5h-33q-20 33 -40 66.5t-40 66.5z" />
<glyph unicode="&#xda;" horiz-adv-x="652" d="M76 226l66 474h41l-66 -471q-6 -48 3 -84.5t31.5 -61.5t56.5 -38t76 -13t79.5 13t67 38t49 61.5t26.5 84.5l66 471h42l-66 -474q-8 -57 -32.5 -101t-60.5 -73.5t-81.5 -44.5t-95.5 -15q-51 0 -92 15t-68 44.5t-38.5 73.5t-3.5 101zM361 750q27 33 54.5 66.5t54.5 66.5h43 q-29 -33 -59.5 -66.5t-59.5 -66.5h-33z" />
<glyph unicode="&#xdb;" horiz-adv-x="652" d="M76 226l66 474h41l-66 -471q-6 -48 3 -84.5t31.5 -61.5t56.5 -38t76 -13t79.5 13t67 38t49 61.5t26.5 84.5l66 471h42l-66 -474q-8 -57 -32.5 -101t-60.5 -73.5t-81.5 -44.5t-95.5 -15q-51 0 -92 15t-68 44.5t-38.5 73.5t-3.5 101zM266 751q36 45 72.5 90.5t72.5 90.5 q24 -45 47.5 -90.5t47.5 -90.5h-33q-18 30 -35.5 60.5t-34.5 60.5q-26 -30 -52 -60.5t-52 -60.5h-33z" />
<glyph unicode="&#xdc;" horiz-adv-x="652" d="M76 226l66 474h41l-66 -471q-6 -48 3 -84.5t31.5 -61.5t56.5 -38t76 -13t79.5 13t67 38t49 61.5t26.5 84.5l66 471h42l-66 -474q-8 -57 -32.5 -101t-60.5 -73.5t-81.5 -44.5t-95.5 -15q-51 0 -92 15t-68 44.5t-38.5 73.5t-3.5 101zM280 798q2 14 13.5 23.5t24.5 9.5 q12 0 21 -9.5t7 -23.5t-13.5 -23.5t-23.5 -9.5q-13 0 -22 9.5t-7 23.5zM446 798q2 14 13 23.5t24 9.5t21.5 -9.5t6.5 -23.5t-13 -23.5t-24 -9.5t-21.5 9.5t-6.5 23.5z" />
<glyph unicode="&#xdd;" horiz-adv-x="638" d="M83 700h51q42 -94 84 -185t84 -185q2 -8 4.5 -14.5t4.5 -13.5h1q4 7 7 13.5t7 14.5q69 93 136.5 184.5t136.5 185.5h51q-81 -109 -160 -217.5t-160 -217.5l-37 -265h-50l38 265zM354 750q27 33 54.5 66.5t54.5 66.5h43q-29 -33 -59.5 -66.5t-59.5 -66.5h-33z" />
<glyph unicode="&#xde;" horiz-adv-x="501" d="M50 0l99 700h42l-23 -165h108q31 0 67 -10t65 -32t46 -57t10 -84q-11 -86 -73 -137t-165 -51h-111l-23 -164h-42zM121 205h103q52 0 88.5 14t60 36t35.5 47.5t15 49.5q4 28 -5.5 54t-30.5 46t-52 31.5t-68 11.5h-105z" />
<glyph unicode="&#xdf;" horiz-adv-x="573" d="M26 356l6 40h64l4 29q8 55 30 98t52.5 72.5t68.5 45.5t77 17q31 -1 56 -13t42.5 -32.5t25 -47.5t3.5 -58q-5 -38 -30 -69.5t-60 -48.5q28 -10 50.5 -28.5t37 -43t20 -54.5t1.5 -63q-6 -43 -28.5 -81t-55 -66t-73 -44.5t-83.5 -16.5q-53 0 -95 25q6 9 11.5 18t11.5 18 q31 -21 77 -21q35 0 68 13.5t59 36.5t43.5 53.5t22.5 64.5t-4 64t-29 52.5t-49 35.5t-64 13q1 5 1.5 10t1.5 11l2 21q22 0 43 7t37.5 20t27.5 31t14 40t-2 42.5t-17 36t-30 24.5t-41 9q-32 -1 -62 -14.5t-54 -38t-41.5 -60t-23.5 -79.5l-60 -425h-41l50 356h-65z" />
<glyph unicode="&#xe0;" horiz-adv-x="551" d="M75 188q6 43 26.5 79t51 61.5t68 40t78.5 14.5q29 0 54 -8.5t44 -22t31.5 -31t16.5 -34.5q3 22 7.5 44t8.5 44h34l-52 -375h-38l6 45q2 11 3.5 21t2.5 21q-9 -17 -25.5 -34t-39 -30.5t-50 -21.5t-58.5 -8q-41 0 -75 15.5t-56.5 41.5t-33 61.5t-4.5 76.5zM117 188 q-5 -32 3 -60t26 -49t44.5 -33t59.5 -12t63 12t54 33t39.5 49t20.5 60q4 32 -4 60.5t-26 49.5t-44.5 33t-59.5 12t-62.5 -12t-53.5 -33t-40 -49.5t-20 -60.5zM212 612h42q18 -33 35.5 -66.5t35.5 -66.5h-33q-20 33 -40 66.5t-40 66.5z" />
<glyph unicode="&#xe1;" horiz-adv-x="551" d="M75 188q6 43 26.5 79t51 61.5t68 40t78.5 14.5q29 0 54 -8.5t44 -22t31.5 -31t16.5 -34.5q3 22 7.5 44t8.5 44h34l-52 -375h-38l6 45q2 11 3.5 21t2.5 21q-9 -17 -25.5 -34t-39 -30.5t-50 -21.5t-58.5 -8q-41 0 -75 15.5t-56.5 41.5t-33 61.5t-4.5 76.5zM117 188 q-5 -32 3 -60t26 -49t44.5 -33t59.5 -12t63 12t54 33t39.5 49t20.5 60q4 32 -4 60.5t-26 49.5t-44.5 33t-59.5 12t-62.5 -12t-53.5 -33t-40 -49.5t-20 -60.5zM299 479q27 33 54.5 66.5t54.5 66.5h43q-29 -33 -59.5 -66.5t-59.5 -66.5h-33z" />
<glyph unicode="&#xe2;" horiz-adv-x="551" d="M75 188q6 43 26.5 79t51 61.5t68 40t78.5 14.5q29 0 54 -8.5t44 -22t31.5 -31t16.5 -34.5q3 22 7.5 44t8.5 44h34l-52 -375h-38l6 45q2 11 3.5 21t2.5 21q-9 -17 -25.5 -34t-39 -30.5t-50 -21.5t-58.5 -8q-41 0 -75 15.5t-56.5 41.5t-33 61.5t-4.5 76.5zM117 188 q-5 -32 3 -60t26 -49t44.5 -33t59.5 -12t63 12t54 33t39.5 49t20.5 60q4 32 -4 60.5t-26 49.5t-44.5 33t-59.5 12t-62.5 -12t-53.5 -33t-40 -49.5t-20 -60.5zM205 479q36 45 72.5 90.5t72.5 90.5q24 -45 47.5 -90.5t47.5 -90.5h-33q-18 30 -35.5 60.5t-34.5 60.5 q-26 -30 -52 -60.5t-52 -60.5h-33z" />
<glyph unicode="&#xe3;" horiz-adv-x="551" d="M75 188q6 43 26.5 79t51 61.5t68 40t78.5 14.5q29 0 54 -8.5t44 -22t31.5 -31t16.5 -34.5q3 22 7.5 44t8.5 44h34l-52 -375h-38l6 45q2 11 3.5 21t2.5 21q-9 -17 -25.5 -34t-39 -30.5t-50 -21.5t-58.5 -8q-41 0 -75 15.5t-56.5 41.5t-33 61.5t-4.5 76.5zM117 188 q-5 -32 3 -60t26 -49t44.5 -33t59.5 -12t63 12t54 33t39.5 49t20.5 60q4 32 -4 60.5t-26 49.5t-44.5 33t-59.5 12t-62.5 -12t-53.5 -33t-40 -49.5t-20 -60.5zM173 470q8 38 37.5 56.5t58.5 18.5q21 0 36.5 -9.5t29.5 -26.5t25 -22.5t25 -5.5q7 0 17.5 2t20.5 7.5t18 15.5 t12 26q7 -1 13.5 -1t12.5 -1q-8 -38 -37.5 -56.5t-58.5 -18.5q-21 0 -36.5 9.5t-29.5 26.5t-25.5 22.5t-25.5 5.5q-8 0 -18 -2t-19.5 -7.5t-17.5 -15.5t-12 -26q-7 1 -13.5 1t-12.5 1z" />
<glyph unicode="&#xe4;" horiz-adv-x="551" d="M75 188q6 43 26.5 79t51 61.5t68 40t78.5 14.5q29 0 54 -8.5t44 -22t31.5 -31t16.5 -34.5q3 22 7.5 44t8.5 44h34l-52 -375h-38l6 45q2 11 3.5 21t2.5 21q-9 -17 -25.5 -34t-39 -30.5t-50 -21.5t-58.5 -8q-41 0 -75 15.5t-56.5 41.5t-33 61.5t-4.5 76.5zM117 188 q-5 -32 3 -60t26 -49t44.5 -33t59.5 -12t63 12t54 33t39.5 49t20.5 60q4 32 -4 60.5t-26 49.5t-44.5 33t-59.5 12t-62.5 -12t-53.5 -33t-40 -49.5t-20 -60.5zM209 508q2 14 13.5 23.5t24.5 9.5q12 0 21 -9.5t7 -23.5t-13.5 -23.5t-23.5 -9.5q-13 0 -22 9.5t-7 23.5zM375 508 q2 14 13 23.5t24 9.5t21.5 -9.5t6.5 -23.5t-13 -23.5t-24 -9.5t-21.5 9.5t-6.5 23.5z" />
<glyph unicode="&#xe5;" horiz-adv-x="551" d="M75 188q6 43 26.5 79t51 61.5t68 40t78.5 14.5q29 0 54 -8.5t44 -22t31.5 -31t16.5 -34.5q3 22 7.5 44t8.5 44h34l-52 -375h-38l6 45q2 11 3.5 21t2.5 21q-9 -17 -25.5 -34t-39 -30.5t-50 -21.5t-58.5 -8q-41 0 -75 15.5t-56.5 41.5t-33 61.5t-4.5 76.5zM117 188 q-5 -32 3 -60t26 -49t44.5 -33t59.5 -12t63 12t54 33t39.5 49t20.5 60q4 32 -4 60.5t-26 49.5t-44.5 33t-59.5 12t-62.5 -12t-53.5 -33t-40 -49.5t-20 -60.5zM252 540q5 30 29 51.5t55 21.5q30 0 48 -21.5t14 -51.5q-5 -30 -28.5 -51.5t-54.5 -21.5q-30 0 -48.5 21.5 t-14.5 51.5zM283 540q-2 -17 9 -30t28 -13t31.5 13t16.5 30t-9 29.5t-28 12.5t-31.5 -12.5t-16.5 -29.5z" />
<glyph unicode="&#xe6;" horiz-adv-x="629" d="M34 104q4 28 19.5 47.5t37.5 31.5t49.5 17t55.5 5h124l6 40q3 25 1.5 43.5t-12 30.5t-32 18t-58.5 6q-13 0 -29 -3t-31 -7.5t-28.5 -10t-22.5 -11.5q-5 7 -10.5 14t-10.5 14q11 9 28 17.5t35.5 14.5t38.5 9.5t37 3.5q73 0 105 -19q43 19 88 19q30 0 55.5 -10.5t45 -29.5 t33 -44.5t18.5 -56.5q-55 -20 -110.5 -41t-110.5 -41l-3 -16l-2 -15q-4 -29 -12.5 -48.5t-25.5 -34.5q27 -13 63 -13q30 0 59 11t52 31l21 -30q-29 -25 -64.5 -39t-73.5 -14q-50 0 -87 21q-38 -22 -106 -22q-36 0 -64.5 5.5t-47.5 18t-27.5 34t-3.5 54.5zM76 103 q-3 -22 6 -35.5t25 -21t36.5 -10.5t39.5 -3t39.5 3t38 11t30 22.5t15.5 38.5l8 54h-79h-40.5t-51 -5.5t-45 -17.5t-22.5 -36zM357 331q11 -14 13 -35.5t-3 -52.5l-5 -38q42 15 82.5 30.5t82.5 30.5q-13 35 -41.5 56t-66.5 21q-17 0 -32.5 -3.5t-29.5 -8.5z" />
<glyph unicode="&#xe7;" horiz-adv-x="388" d="M52 188q6 40 26 76t50 62t68 41.5t79 15.5q36 0 66 -11.5t53 -31.5q-8 -8 -16 -15.5t-16 -15.5q-17 16 -40.5 25t-51.5 9q-33 0 -63 -12t-54 -33t-40 -49.5t-20 -60.5q-5 -32 3 -60t26 -49t44.5 -33t59.5 -12q56 0 103 33q5 -8 10.5 -15.5t10.5 -15.5q-55 -40 -124 -43 q-2 -14 1 -22.5t8.5 -14t12 -9.5t12.5 -8q20 -15 26.5 -34.5t3.5 -37.5q-6 -45 -31.5 -69t-59.5 -29q-19 -3 -35 1q-23 4 -40 19t-22 42l30 12q3 -19 17 -31.5t37 -12.5q28 0 47 19t24 47q3 25 -7 38.5t-23 23.5t-24 20.5t-8 29.5l2 19q-36 4 -65 20t-48.5 41.5t-28 59 t-3.5 71.5z" />
<glyph unicode="&#xe8;" horiz-adv-x="451" d="M62 188q6 45 25.5 81t49 61.5t67.5 39t81 13.5q30 0 55.5 -10.5t45.5 -29t33.5 -44t18.5 -56.5q-82 -31 -164 -61.5t-164 -61.5q12 -38 45.5 -62t81.5 -24q31 0 59.5 11t51.5 31q5 -8 10.5 -15.5t10.5 -15.5q-29 -24 -64.5 -38t-73.5 -14q-41 0 -74.5 15.5t-56.5 41.5 t-33.5 61.5t-4.5 76.5zM103 159q72 27 143 53.5t142 53.5q-13 34 -41.5 55.5t-66.5 21.5q-32 0 -60.5 -10t-51 -28t-38 -43.5t-21.5 -56.5q-6 -24 -6 -46zM187 612h42q18 -33 35.5 -66.5t35.5 -66.5h-33q-20 33 -40 66.5t-40 66.5z" />
<glyph unicode="&#xe9;" horiz-adv-x="451" d="M62 188q6 45 25.5 81t49 61.5t67.5 39t81 13.5q30 0 55.5 -10.5t45.5 -29t33.5 -44t18.5 -56.5q-82 -31 -164 -61.5t-164 -61.5q12 -38 45.5 -62t81.5 -24q31 0 59.5 11t51.5 31q5 -8 10.5 -15.5t10.5 -15.5q-29 -24 -64.5 -38t-73.5 -14q-41 0 -74.5 15.5t-56.5 41.5 t-33.5 61.5t-4.5 76.5zM103 159q72 27 143 53.5t142 53.5q-13 34 -41.5 55.5t-66.5 21.5q-32 0 -60.5 -10t-51 -28t-38 -43.5t-21.5 -56.5q-6 -24 -6 -46zM282 479q27 33 54.5 66.5t54.5 66.5h43q-29 -33 -59.5 -66.5t-59.5 -66.5h-33z" />
<glyph unicode="&#xea;" horiz-adv-x="451" d="M62 188q6 45 25.5 81t49 61.5t67.5 39t81 13.5q30 0 55.5 -10.5t45.5 -29t33.5 -44t18.5 -56.5q-82 -31 -164 -61.5t-164 -61.5q12 -38 45.5 -62t81.5 -24q31 0 59.5 11t51.5 31q5 -8 10.5 -15.5t10.5 -15.5q-29 -24 -64.5 -38t-73.5 -14q-41 0 -74.5 15.5t-56.5 41.5 t-33.5 61.5t-4.5 76.5zM103 159q72 27 143 53.5t142 53.5q-13 34 -41.5 55.5t-66.5 21.5q-32 0 -60.5 -10t-51 -28t-38 -43.5t-21.5 -56.5q-6 -24 -6 -46zM179 479q36 45 72.5 90.5t72.5 90.5q24 -45 47.5 -90.5t47.5 -90.5h-33q-18 30 -35.5 60.5t-34.5 60.5 q-26 -30 -52 -60.5t-52 -60.5h-33z" />
<glyph unicode="&#xeb;" horiz-adv-x="451" d="M62 188q6 45 25.5 81t49 61.5t67.5 39t81 13.5q30 0 55.5 -10.5t45.5 -29t33.5 -44t18.5 -56.5q-82 -31 -164 -61.5t-164 -61.5q12 -38 45.5 -62t81.5 -24q31 0 59.5 11t51.5 31q5 -8 10.5 -15.5t10.5 -15.5q-29 -24 -64.5 -38t-73.5 -14q-41 0 -74.5 15.5t-56.5 41.5 t-33.5 61.5t-4.5 76.5zM103 159q72 27 143 53.5t142 53.5q-13 34 -41.5 55.5t-66.5 21.5q-32 0 -60.5 -10t-51 -28t-38 -43.5t-21.5 -56.5q-6 -24 -6 -46zM178 508q2 14 13.5 23.5t24.5 9.5q12 0 21 -9.5t7 -23.5t-13.5 -23.5t-23.5 -9.5q-13 0 -22 9.5t-7 23.5zM344 508 q2 14 13 23.5t24 9.5t21.5 -9.5t6.5 -23.5t-13 -23.5t-24 -9.5t-21.5 9.5t-6.5 23.5z" />
<glyph unicode="&#xec;" horiz-adv-x="174" d="M53 612h42q18 -33 35.5 -66.5t35.5 -66.5h-33q-20 33 -40 66.5t-40 66.5zM75 0l52 375h41l-52 -375h-41z" />
<glyph unicode="&#xed;" horiz-adv-x="198" d="M71 0l52 375h41l-52 -375h-41zM139 479q27 33 54.5 66.5t54.5 66.5h43q-29 -33 -59.5 -66.5t-59.5 -66.5h-33z" />
<glyph unicode="&#xee;" horiz-adv-x="239" d="M57 479q36 45 72.5 90.5t72.5 90.5q24 -45 47.5 -90.5t47.5 -90.5h-33q-18 30 -35.5 60.5t-34.5 60.5q-26 -30 -52 -60.5t-52 -60.5h-33zM95 0l52 375h42l-52 -375h-42z" />
<glyph unicode="&#xef;" horiz-adv-x="271" d="M89 508q2 14 13.5 23.5t24.5 9.5q12 0 21 -9.5t7 -23.5t-13.5 -23.5t-23.5 -9.5q-13 0 -22 9.5t-7 23.5zM123 0l52 375h42l-52 -375h-42zM255 508q2 14 13 23.5t24 9.5t21.5 -9.5t6.5 -23.5t-13 -23.5t-24 -9.5t-21.5 9.5t-6.5 23.5z" />
<glyph unicode="&#xf0;" horiz-adv-x="493" d="M29 187q5 40 25 76t50 62.5t68 42.5t79 16q38 1 67.5 -14.5t47.5 -41.5q-5 50 -28.5 116.5t-74.5 138.5q-19 -17 -37.5 -34t-36.5 -34q-6 7 -12.5 13t-11.5 13q20 18 39 36.5t39 36.5q-37 50 -81 89l16 14l16 14q43 -38 81 -87q18 17 35.5 33t34.5 33q6 -6 12.5 -12 t11.5 -12q-18 -18 -36.5 -35.5t-37.5 -35.5q31 -45 57 -97.5t44 -107.5t25 -110.5t0 -107.5q-5 -41 -24.5 -76.5t-49 -62.5t-67.5 -42.5t-79 -16.5q-41 0 -75 14.5t-57 41t-34 61.5t-6 76zM69 188q-5 -32 3.5 -60t26.5 -49t45 -32.5t60 -11.5t62.5 12.5t53.5 33.5t39.5 49 t20.5 60q4 33 -4.5 61t-26.5 49t-44.5 32.5t-59.5 11.5t-63 -12.5t-54 -33.5t-39.5 -49.5t-19.5 -60.5z" />
<glyph unicode="&#xf1;" horiz-adv-x="523" d="M103 0l52 375h38l-5 -35q-2 -17 -4 -31t-4 -31q27 47 75 76t104 29q55 0 83 -31t22 -81l-37 -271h-42l36 260q3 32 -15 56t-60 26q-31 0 -60 -10.5t-53 -28.5t-40 -43t-20 -55l-28 -205h-42zM192 461q8 38 37.5 56.5t58.5 18.5q21 0 36.5 -9.5t29.5 -26.5t25 -22.5 t25 -5.5q7 0 17.5 2t20.5 7.5t18 15.5t12 26q7 -1 13.5 -1t12.5 -1q-8 -38 -37.5 -56.5t-58.5 -18.5q-21 0 -36.5 9.5t-29.5 26.5t-25.5 22.5t-25.5 5.5q-8 0 -18 -2t-19.5 -7.5t-17.5 -15.5t-12 -26q-7 1 -13.5 1t-12.5 1z" />
<glyph unicode="&#xf2;" horiz-adv-x="469" d="M62 188q6 45 25.5 81.5t49.5 62t68 39t80 13.5q41 0 75 -15.5t57.5 -42t34 -62.5t4.5 -76q-6 -45 -26 -81.5t-50 -61.5t-68.5 -38.5t-80.5 -13.5q-41 0 -74.5 15.5t-56.5 41.5t-33.5 61.5t-4.5 76.5zM104 188q-5 -32 3.5 -60t26.5 -49t44 -33t58 -12t62 11.5t54 31.5 t40 48.5t21 62.5q4 32 -4 60t-26 49t-45 33.5t-59 12.5q-33 0 -63 -11.5t-53.5 -32t-39 -49t-19.5 -62.5zM194 612h42q18 -33 35.5 -66.5t35.5 -66.5h-33q-20 33 -40 66.5t-40 66.5z" />
<glyph unicode="&#xf3;" horiz-adv-x="469" d="M62 188q6 45 25.5 81.5t49.5 62t68 39t80 13.5q41 0 75 -15.5t57.5 -42t34 -62.5t4.5 -76q-6 -45 -26 -81.5t-50 -61.5t-68.5 -38.5t-80.5 -13.5q-41 0 -74.5 15.5t-56.5 41.5t-33.5 61.5t-4.5 76.5zM104 188q-5 -32 3.5 -60t26.5 -49t44 -33t58 -12t62 11.5t54 31.5 t40 48.5t21 62.5q4 32 -4 60t-26 49t-45 33.5t-59 12.5q-33 0 -63 -11.5t-53.5 -32t-39 -49t-19.5 -62.5zM295 479q27 33 54.5 66.5t54.5 66.5h43q-29 -33 -59.5 -66.5t-59.5 -66.5h-33z" />
<glyph unicode="&#xf4;" horiz-adv-x="469" d="M62 188q6 45 25.5 81.5t49.5 62t68 39t80 13.5q41 0 75 -15.5t57.5 -42t34 -62.5t4.5 -76q-6 -45 -26 -81.5t-50 -61.5t-68.5 -38.5t-80.5 -13.5q-41 0 -74.5 15.5t-56.5 41.5t-33.5 61.5t-4.5 76.5zM104 188q-5 -32 3.5 -60t26.5 -49t44 -33t58 -12t62 11.5t54 31.5 t40 48.5t21 62.5q4 32 -4 60t-26 49t-45 33.5t-59 12.5q-33 0 -63 -11.5t-53.5 -32t-39 -49t-19.5 -62.5zM174 479q36 45 72.5 90.5t72.5 90.5q24 -45 47.5 -90.5t47.5 -90.5h-33q-18 30 -35.5 60.5t-34.5 60.5q-26 -30 -52 -60.5t-52 -60.5h-33z" />
<glyph unicode="&#xf5;" horiz-adv-x="469" d="M62 188q6 45 25.5 81.5t49.5 62t68 39t80 13.5q41 0 75 -15.5t57.5 -42t34 -62.5t4.5 -76q-6 -45 -26 -81.5t-50 -61.5t-68.5 -38.5t-80.5 -13.5q-41 0 -74.5 15.5t-56.5 41.5t-33.5 61.5t-4.5 76.5zM104 188q-5 -32 3.5 -60t26.5 -49t44 -33t58 -12t62 11.5t54 31.5 t40 48.5t21 62.5q4 32 -4 60t-26 49t-45 33.5t-59 12.5q-33 0 -63 -11.5t-53.5 -32t-39 -49t-19.5 -62.5zM142 470q8 38 37.5 56.5t58.5 18.5q21 0 36.5 -9.5t29.5 -26.5t25 -22.5t25 -5.5q7 0 17.5 2t20.5 7.5t18 15.5t12 26q7 -1 13.5 -1t12.5 -1q-8 -38 -37.5 -56.5 t-58.5 -18.5q-21 0 -36.5 9.5t-29.5 26.5t-25.5 22.5t-25.5 5.5q-8 0 -18 -2t-19.5 -7.5t-17.5 -15.5t-12 -26q-7 1 -13.5 1t-12.5 1z" />
<glyph unicode="&#xf6;" horiz-adv-x="469" d="M62 188q6 45 25.5 81.5t49.5 62t68 39t80 13.5q41 0 75 -15.5t57.5 -42t34 -62.5t4.5 -76q-6 -45 -26 -81.5t-50 -61.5t-68.5 -38.5t-80.5 -13.5q-41 0 -74.5 15.5t-56.5 41.5t-33.5 61.5t-4.5 76.5zM104 188q-5 -32 3.5 -60t26.5 -49t44 -33t58 -12t62 11.5t54 31.5 t40 48.5t21 62.5q4 32 -4 60t-26 49t-45 33.5t-59 12.5q-33 0 -63 -11.5t-53.5 -32t-39 -49t-19.5 -62.5zM178 508q2 14 13.5 23.5t24.5 9.5q12 0 21 -9.5t7 -23.5t-13.5 -23.5t-23.5 -9.5q-13 0 -22 9.5t-7 23.5zM344 508q2 14 13 23.5t24 9.5t21.5 -9.5t6.5 -23.5 t-13 -23.5t-24 -9.5t-21.5 9.5t-6.5 23.5z" />
<glyph unicode="&#xf7;" horiz-adv-x="501" d="M65 208l5 41h360l-5 -41h-360zM200 104q2 14 13.5 23.5t24.5 9.5q12 0 20.5 -9.5t6.5 -23.5t-13 -23.5t-24 -9.5t-21.5 9.5t-6.5 23.5zM235 354q2 14 13.5 23.5t24.5 9.5q12 0 20.5 -9.5t6.5 -23.5t-13 -23.5t-24 -9.5t-21.5 9.5t-6.5 23.5z" />
<glyph unicode="&#xf8;" horiz-adv-x="468" d="M23 5q11 12 23.5 24t24.5 24q-22 26 -31.5 60.5t-3.5 74.5t26 76t50 62t68 41.5t79 15.5q31 0 57.5 -8.5t47.5 -23.5q9 10 19 19.5t20 19.5q5 -5 10 -10.5t10 -10.5l-18.5 -18.5t-18.5 -19.5q26 -26 37.5 -63.5t6.5 -79.5q-6 -41 -26.5 -76.5t-51 -61.5t-69 -41.5 t-79.5 -15.5q-34 0 -62 10.5t-51 29.5q-12 -12 -23.5 -24t-23.5 -24q-5 5 -10.5 10t-10.5 10zM78 188q-5 -30 1.5 -56.5t22.5 -46.5q58 59 115 117t115 117q-16 11 -35.5 17.5t-42.5 6.5q-33 0 -63 -12t-53.5 -33t-39.5 -49.5t-20 -60.5zM122 64q36 -30 88 -30q33 0 63 12 t54 33t40 49t21 60q4 33 -5 62t-29 50q-58 -60 -116 -118.5t-116 -117.5z" />
<glyph unicode="&#xf9;" horiz-adv-x="529" d="M117 104l38 271h42l-37 -260q-3 -32 15.5 -56t60.5 -26q30 0 59.5 10.5t53.5 28.5t40 43t20 55l28 205h42l-53 -379h-41l7 56l9 45q-27 -48 -75 -76.5t-103 -28.5t-83 31t-23 81zM228 612h42q18 -33 35.5 -66.5t35.5 -66.5h-33q-20 33 -40 66.5t-40 66.5z" />
<glyph unicode="&#xfa;" horiz-adv-x="529" d="M117 104l38 271h42l-37 -260q-3 -32 15.5 -56t60.5 -26q30 0 59.5 10.5t53.5 28.5t40 43t20 55l28 205h42l-53 -379h-41l7 56l9 45q-27 -48 -75 -76.5t-103 -28.5t-83 31t-23 81zM294 479q27 33 54.5 66.5t54.5 66.5h43q-29 -33 -59.5 -66.5t-59.5 -66.5h-33z" />
<glyph unicode="&#xfb;" horiz-adv-x="529" d="M117 104l38 271h42l-37 -260q-3 -32 15.5 -56t60.5 -26q30 0 59.5 10.5t53.5 28.5t40 43t20 55l28 205h42l-53 -379h-41l7 56l9 45q-27 -48 -75 -76.5t-103 -28.5t-83 31t-23 81zM205 479q36 45 72.5 90.5t72.5 90.5q24 -45 47.5 -90.5t47.5 -90.5h-33q-18 30 -35.5 60.5 t-34.5 60.5q-26 -30 -52 -60.5t-52 -60.5h-33z" />
<glyph unicode="&#xfc;" horiz-adv-x="529" d="M117 104l38 271h42l-37 -260q-3 -32 15.5 -56t60.5 -26q30 0 59.5 10.5t53.5 28.5t40 43t20 55l28 205h42l-53 -379h-41l7 56l9 45q-27 -48 -75 -76.5t-103 -28.5t-83 31t-23 81zM211 508q2 14 13.5 23.5t24.5 9.5q12 0 21 -9.5t7 -23.5t-13.5 -23.5t-23.5 -9.5 q-13 0 -22 9.5t-7 23.5zM377 508q2 14 13 23.5t24 9.5t21.5 -9.5t6.5 -23.5t-13 -23.5t-24 -9.5t-21.5 9.5t-6.5 23.5z" />
<glyph unicode="&#xfd;" horiz-adv-x="488" d="M67 -250q40 62 79.5 123.5t79.5 124.5l-68 188t-68 189h44q9 -26 25.5 -72t34 -96t34 -96t26.5 -73q17 27 46.5 73t61 96t60.5 96t46 72h44q-100 -157 -199.5 -312.5t-201.5 -312.5h-44zM295 479q27 33 54.5 66.5t54.5 66.5h43q-29 -33 -59.5 -66.5t-59.5 -66.5h-33z" />
<glyph unicode="&#xfe;" horiz-adv-x="557" d="M-3 -250l140 1000h42l-59 -413q-2 -13 -5.5 -26t-6.5 -26q9 18 26.5 35t40.5 30.5t50.5 22t56.5 8.5q41 0 75 -15.5t56.5 -41.5t33 -61.5t5.5 -75.5q-6 -40 -26.5 -75.5t-51 -62t-68.5 -42t-79 -15.5q-31 0 -56 8t-44 21t-30.5 30t-15.5 34q-1 -10 -1 -20v-21l-42 -294 h-41zM100 187q-5 -32 3 -60.5t26 -49.5t44.5 -33t59.5 -12t63 12t54 33t39.5 49.5t20.5 60.5q4 33 -4 61t-26 48.5t-44.5 32.5t-59.5 12t-62.5 -12t-53.5 -32.5t-40 -48.5t-20 -61z" />
<glyph unicode="&#xff;" horiz-adv-x="488" d="M67 -250q40 62 79.5 123.5t79.5 124.5l-68 188t-68 189h44q9 -26 25.5 -72t34 -96t34 -96t26.5 -73q17 27 46.5 73t61 96t60.5 96t46 72h44q-100 -157 -199.5 -312.5t-201.5 -312.5h-44zM199 508q2 14 13.5 23.5t24.5 9.5q12 0 21 -9.5t7 -23.5t-13.5 -23.5t-23.5 -9.5 q-13 0 -22 9.5t-7 23.5zM365 508q2 14 13 23.5t24 9.5t21.5 -9.5t6.5 -23.5t-13 -23.5t-24 -9.5t-21.5 9.5t-6.5 23.5z" />
<glyph unicode="&#x2000;" horiz-adv-x="466" />
<glyph unicode="&#x2001;" horiz-adv-x="932" />
<glyph unicode="&#x2002;" horiz-adv-x="466" />
<glyph unicode="&#x2003;" horiz-adv-x="932" />
<glyph unicode="&#x2004;" horiz-adv-x="310" />
<glyph unicode="&#x2005;" horiz-adv-x="233" />
<glyph unicode="&#x2006;" horiz-adv-x="155" />
<glyph unicode="&#x2007;" horiz-adv-x="155" />
<glyph unicode="&#x2008;" horiz-adv-x="116" />
<glyph unicode="&#x2009;" horiz-adv-x="186" />
<glyph unicode="&#x200a;" horiz-adv-x="51" />
<glyph unicode="&#x2010;" d="M50 169l5 41h184l-5 -41h-184z" />
<glyph unicode="&#x2011;" d="M50 169l5 41h184l-5 -41h-184z" />
<glyph unicode="&#x2012;" d="M50 169l5 41h184l-5 -41h-184z" />
<glyph unicode="&#x2013;" horiz-adv-x="509" d="M97 177l5 41h301l-5 -41h-301z" />
<glyph unicode="&#x2014;" horiz-adv-x="700" d="M96 177l5 41h502l-5 -41h-502z" />
<glyph unicode="&#x2018;" horiz-adv-x="164" d="M39 633q-7 37 7 78q8 -2 15.5 -3.5t15.5 -3.5q-11 -35 -6 -64.5t23 -49.5q-6 -5 -11.5 -10t-11.5 -10q-25 26 -32 63z" />
<glyph unicode="&#x2019;" horiz-adv-x="164" d="M42 590q23 20 37 49.5t12 64.5q8 2 16.5 3.5t16.5 3.5q3 -41 -14.5 -78t-50.5 -63q-5 5 -8.5 10t-8.5 10z" />
<glyph unicode="&#x201a;" horiz-adv-x="146" d="M12 -29q24 20 37.5 49.5t11.5 64.5q8 2 16.5 3.5t16.5 3.5q3 -41 -14.5 -78t-50.5 -63q-5 5 -8.5 10t-8.5 10z" />
<glyph unicode="&#x201c;" horiz-adv-x="249" d="M33.5 633q-7.5 37 6.5 78q8 -2 16 -3.5t16 -3.5q-12 -35 -7 -64.5t24 -49.5q-6 -5 -11.5 -10t-11.5 -10q-25 26 -32.5 63zM137.5 633q-7.5 37 6.5 78q8 -2 16 -3.5t16 -3.5q-12 -35 -7 -64.5t24 -49.5q-6 -5 -11.5 -10t-11.5 -10q-25 26 -32.5 63z" />
<glyph unicode="&#x201d;" horiz-adv-x="248" d="M23 590q24 20 37.5 49.5t11.5 64.5q8 2 16.5 3.5t16.5 3.5q3 -41 -14.5 -78t-50.5 -63l-8 10t-9 10zM127 590q24 20 37.5 49.5t11.5 64.5q8 2 16.5 3.5t16.5 3.5q3 -41 -14.5 -78t-50.5 -63l-8 10t-9 10z" />
<glyph unicode="&#x201e;" horiz-adv-x="277" d="M12 -29q24 20 37.5 49.5t11.5 64.5q8 2 16.5 3.5t16.5 3.5q3 -41 -14.5 -78t-50.5 -63q-5 5 -8.5 10t-8.5 10zM116 -29q24 20 37.5 49.5t11.5 64.5q8 2 16.5 3.5t16.5 3.5q3 -41 -14.5 -78t-50.5 -63q-5 5 -8.5 10t-8.5 10z" />
<glyph unicode="&#x2022;" horiz-adv-x="479" d="M149 300q3 19 12 35.5t23 29t31.5 19.5t35.5 7q38 0 60.5 -26.5t17.5 -64.5q-3 -19 -12 -35t-23 -28t-31.5 -19t-36.5 -7q-38 0 -60 25.5t-17 63.5z" />
<glyph unicode="&#x202f;" horiz-adv-x="186" />
<glyph unicode="&#x2039;" horiz-adv-x="392" d="M117 239q48 41 96.5 80.5t96.5 80.5l-6 -48q-32 -29 -63.5 -56.5t-63.5 -56.5q23 -29 47 -57t47 -57l-6 -48z" />
<glyph unicode="&#x203a;" horiz-adv-x="392" d="M94 77l6 48q32 29 64 57t64 57q-24 29 -48 56.5t-47 56.5l6 48q38 -41 74.5 -80.5t74.5 -80.5z" />
<glyph unicode="&#x205f;" horiz-adv-x="233" />
<glyph unicode="&#xe000;" horiz-adv-x="375" d="M0 0v375h375v-375h-375z" />
</font>
</defs>
</svg>
