<?xml version="1.0" standalone="no"?>
<!DOCTYPE svg PUBLIC "-//W3C//DTD SVG 1.1//EN" "http://www.w3.org/Graphics/SVG/1.1/DTD/svg11.dtd" >
<svg xmlns="http://www.w3.org/2000/svg">
<metadata></metadata>
<defs>
<font id="josefin_sansbold_italic" horiz-adv-x="300" >
<font-face units-per-em="1000" ascent="750" descent="-250" />
<missing-glyph horiz-adv-x="500" />
<glyph horiz-adv-x="1000" />
<glyph horiz-adv-x="1000" />
<glyph unicode="&#xd;" />
<glyph unicode=" " />
<glyph unicode="!" horiz-adv-x="201" d="M1 53q3 23 21.5 37.5t38.5 14.5q19 0 32.5 -14.5t10.5 -37.5t-21 -38t-37 -15q-20 0 -33 15t-12 38zM27 166l82 584h83l-82 -584h-83z" />
<glyph unicode="&#x22;" horiz-adv-x="335" d="M45 472l35 248h83q-10 -63 -19.5 -124t-19.5 -124h-79zM178 472l35 248h83q-10 -63 -19.5 -124t-19.5 -124h-79z" />
<glyph unicode="#" horiz-adv-x="571" d="M6 188l21 81h92q7 26 13.5 51t12.5 51h-91q5 20 10 40.5t10 40.5h92q13 48 25.5 95.5t25.5 95.5h84q-13 -48 -25.5 -95.5t-25.5 -95.5h100q13 48 25.5 95.5t25.5 95.5h84q-13 -48 -25.5 -95.5t-25.5 -95.5h102q-5 -20 -10 -40.5t-10 -40.5h-103q-6 -26 -12.5 -51 t-13.5 -51h102l-21 -81h-102q-12 -48 -24.5 -94t-24.5 -94h-84q12 48 24.5 94t24.5 94h-100q-12 -48 -24.5 -94t-24.5 -94h-84q12 48 24.5 94t24.5 94h-92zM203 269h100q7 26 13.5 51t12.5 51h-100q-6 -26 -12.5 -51t-13.5 -51z" />
<glyph unicode="$" horiz-adv-x="567" d="M11 106l60 52q19 -24 49 -49.5t73 -34.5l36 258q-5 2 -11.5 5t-13.5 7q-18 9 -39 21.5t-37.5 33t-26 49t-4.5 69.5q3 30 15.5 60t34.5 56t55.5 44t78.5 24l9 63h84l-9 -64q29 -6 59 -21.5t64 -47.5q-14 -15 -27.5 -30t-27.5 -30q-11 11 -31 25.5t-48 22.5l-32 -228 q28 -12 55.5 -29.5t48 -42t31 -57t4.5 -75.5q-6 -39 -23.5 -72t-43.5 -58t-59 -40.5t-69 -21.5l-9 -63h-84l9 64q-31 5 -58 16.5t-49 26.5t-38.5 32.5t-25.5 34.5zM180 514q-5 -33 6.5 -52t32.5 -30q5 -3 11 -5.5t12 -4.5l28 198q-40 -11 -62.5 -40t-27.5 -66zM278 78 q38 11 66 38t34 72q3 23 -1.5 40.5t-14 31t-23.5 23.5t-30 18z" />
<glyph unicode="%" horiz-adv-x="726" d="M109 389q4 26 17.5 49t33 40t44.5 27t51 10t48 -10t37 -27t22 -40t3 -49q-4 -27 -17.5 -50t-33.5 -40t-44.5 -27t-50.5 -10t-48 10t-37 27t-22 40t-3 50zM138 0q93 126 184.5 250t184.5 250h91q-93 -126 -184.5 -250t-184.5 -250h-91zM193 389q-3 -20 7.5 -33t30.5 -13 t33.5 13t16.5 33t-7.5 32.5t-30.5 12.5t-33.5 -12.5t-16.5 -32.5zM374 111q4 26 17.5 49t33 40t44.5 27t51 10t48 -10t37 -27t22 -40t3 -49q-4 -27 -17.5 -50t-33.5 -40t-44.5 -27t-50.5 -10t-48 10t-37 27t-22 40t-3 50zM458 111q-3 -20 7.5 -33t30.5 -13t33.5 13t16.5 33 t-7.5 32.5t-30.5 12.5t-33.5 -12.5t-16.5 -32.5z" />
<glyph unicode="&#x26;" horiz-adv-x="700" d="M78 188q5 36 21.5 68t42 57.5t57.5 43t67 23.5q-14 29 -27 58t-27 58q-14 30 -16.5 62t7 62.5t31.5 58t58 47.5q31 17 60.5 20.5t56.5 -2t50.5 -16.5t40.5 -23q-11 -17 -21 -32.5t-21 -32.5q-9 6 -23.5 13.5t-31 11.5t-33.5 4t-32 -9q-45 -26 -55 -66t9 -79 q29 -61 57.5 -121t57.5 -121q6 31 15 53q10 22 24.5 32.5t32 14t36 3t38.5 -0.5h47l-11 -81h-44q-15 0 -25.5 -3.5t-18 -14t-12.5 -30.5t-9 -52l-1 -7q-3 -21 -11 -42q14 -30 29 -60.5t29 -60.5q-18 -11 -35.5 -21.5t-35.5 -21.5q-10 20 -19 41t-20 41q-32 -33 -75 -52.5 t-91 -19.5q-42 0 -76 15.5t-57.5 42.5t-34 62.5t-4.5 76.5zM161 188q-7 -49 21 -82.5t80 -33.5q38 0 69 19t48 50q-19 41 -37.5 81t-38.5 81q-56 0 -95 -30.5t-47 -84.5z" />
<glyph unicode="'" horiz-adv-x="163" d="M24 472l35 248h84q-10 -63 -19.5 -124t-19.5 -124h-80z" />
<glyph unicode="(" horiz-adv-x="424" d="M108.5 148q-4.5 68 6.5 143q10 75 33.5 143t55 126t67.5 105.5t72 80.5q17 -6 35 -11.5t35 -11.5q-33 -33 -67 -78t-63.5 -100t-51.5 -119t-32 -135t-6 -135t18 -119t35.5 -100t45.5 -78q-19 -6 -38 -11.5t-38 -11.5q-27 33 -50 80.5t-38 105.5t-19.5 126z" />
<glyph unicode=")" horiz-adv-x="400" d="M13 -146q33 33 67 78t63.5 100t51.5 119t32 135t6 135t-18 119t-35.5 100t-45.5 78q19 6 38 12.5t38 12.5q27 -33 50 -80.5t38 -105.5t19.5 -126t-5.5 -143q-11 -75 -34.5 -143t-55 -126t-67.5 -105.5t-72 -80.5q-17 5 -35 10.5t-35 10.5z" />
<glyph unicode="*" horiz-adv-x="335" d="M20 542q17 8 33 17t33 17q-14 9 -27.5 18.5t-27.5 18.5l48 69q15 -9 29.5 -18.5t28.5 -18.5l11 75h84l-12 -75l69 36q8 -17 15.5 -34.5t14.5 -34.5q-17 -9 -34.5 -18.5t-35.5 -18.5q15 -9 29.5 -18t28.5 -18q-13 -18 -26 -36.5t-26 -36.5q-14 9 -28.5 18.5t-28.5 18.5 q-2 -17 -5 -34.5t-6 -34.5h-80l10 70q-16 -9 -32.5 -17.5t-33.5 -17.5q-8 18 -15.5 36.5t-15.5 36.5z" />
<glyph unicode="+" horiz-adv-x="543" d="M80 190l11 81h138l20 140h84l-20 -140h138l-11 -81h-138l-20 -139h-84l20 139h-138z" />
<glyph unicode="," horiz-adv-x="200" d="M-12 -120q26 52 52 103t53 103h84q-29 -52 -57.5 -103t-57.5 -103h-74z" />
<glyph unicode="-" d="M47 147l11 81h184l-11 -81h-184z" />
<glyph unicode="." horiz-adv-x="163" d="M32 52q4 23 22 38t38 15q19 0 33 -15t10 -38q-3 -23 -21 -37.5t-37 -14.5q-20 0 -34 14.5t-11 37.5z" />
<glyph unicode="/" horiz-adv-x="380" d="M-36 -19q97 190 192 377.5t192 377.5h84q-97 -190 -192.5 -377.5t-192.5 -377.5h-83z" />
<glyph unicode="0" horiz-adv-x="616" d="M37 327q11 76 40.5 137.5t72 104.5t95 66t108.5 23t101.5 -24t75.5 -67.5t41.5 -105.5t0.5 -138t-42.5 -137t-75.5 -104.5t-95.5 -66.5t-102.5 -23t-96 24t-76 68t-44.5 105.5t-2.5 137.5zM121 227q8 -46 28 -80t50 -54t68 -20q37 0 73.5 19t67 53t51.5 80t29 99 q6 36 3 80t-19 82.5t-47.5 64.5t-82.5 26t-90 -25.5t-66.5 -63.5t-43.5 -82t-21 -80q-8 -53 0 -99z" />
<glyph unicode="1" horiz-adv-x="273" d="M56 0l80 569h-68l11 81h152l-91 -650h-84z" />
<glyph unicode="2" horiz-adv-x="519" d="M6 0q70 62 136.5 120.5t119 113t87 106t41.5 98.5q5 37 -3.5 63t-24.5 43t-36.5 25t-38.5 8q-38 0 -64 -13t-42.5 -32t-25 -40t-10.5 -37q-9 -64 25 -104q-15 -13 -29 -25.5t-29 -25.5q-15 11 -26 29.5t-17.5 40t-8.5 44t1 41.5q6 40 24.5 77t49.5 65t72 44.5t92 16.5 q46 0 81.5 -17t58.5 -45.5t33 -66t4 -79.5q-7 -50 -31 -96.5t-59 -92.5t-78.5 -90.5t-89.5 -89.5h243l-12 -81h-443z" />
<glyph unicode="3" horiz-adv-x="515" d="M22 63q17 14 34.5 28.5t34.5 28.5q15 -22 39 -34.5t54 -12.5q28 0 54 11t47 29.5t35.5 43t18.5 52.5t-3.5 52.5t-23.5 42.5t-39 28.5t-51 10.5q-36 0 -68 -17q44 61 87 121t86 121h-190l12 82h329q-45 -60 -88.5 -119t-88.5 -119q31 -12 55.5 -31.5t41 -45.5t23 -58 t1.5 -68q-6 -45 -29.5 -84.5t-57.5 -69t-76 -46.5t-87 -17q-48 0 -86 19.5t-64 51.5z" />
<glyph unicode="4" horiz-adv-x="529" d="M16 183q109 119 216.5 237.5t216.5 237.5l-56 -394h97l-11 -81h-97l-26 -183h-84l26 183h-282zM195 264h114l21 149q-34 -38 -67.5 -74.5t-67.5 -74.5z" />
<glyph unicode="5" horiz-adv-x="543" d="M65 53q17 14 34.5 28t34.5 28q15 -17 36.5 -26.5t47.5 -9.5q28 0 54 11t47 29.5t35.5 43t18.5 52.5t-3.5 52.5t-23.5 42.5t-39 28.5t-51 10.5q-35 0 -65.5 -11.5t-52.5 -39.5l51 358h287l-12 -81h-203l-20 -147q6 1 12.5 1.5t13.5 0.5q45 0 82.5 -16.5t63 -46t37.5 -68.5 t6 -84t-29.5 -84.5t-57.5 -69t-76 -46.5t-87 -17q-44 0 -80 16t-61 45z" />
<glyph unicode="6" horiz-adv-x="520" d="M31 197q10 72 49.5 134.5t95 116.5t121 101t127.5 88q11 -16 21.5 -32t21.5 -32q-71 -43 -121.5 -80.5t-86.5 -69.5q5 0 10.5 0.5t10.5 0.5q45 0 82.5 -16.5t63 -46t37.5 -68.5t6 -84t-29.5 -84.5t-57.5 -69t-76 -46.5t-87 -17q-43 0 -79.5 16t-62 43.5t-38 65t-8.5 80.5 zM119 209q-4 -28 2.5 -52.5t22 -43t38 -29.5t49.5 -11q28 0 54 11t47 29.5t35.5 43t18.5 52.5t-3.5 52.5t-23.5 42.5t-39 28.5t-51 10.5q-27 0 -52.5 -10.5t-46 -28.5t-34 -42.5t-17.5 -52.5z" />
<glyph unicode="7" horiz-adv-x="469" d="M-5 0q84 143 167.5 284t168.5 284h-283l11 82h413q-96 -164 -191.5 -325t-191.5 -325h-94z" />
<glyph unicode="8" horiz-adv-x="510" d="M19 209q8 58 42.5 105.5t85.5 76.5q-17 20 -25 47.5t-3 59.5q4 33 20.5 62t41 51t55 34.5t63.5 12.5t60.5 -12.5t46 -34.5t27 -51t4.5 -62q-5 -32 -20.5 -59.5t-38.5 -47.5q42 -29 63.5 -76.5t13.5 -105.5q-6 -45 -29 -84.5t-57 -69t-76 -46.5t-87 -17t-82 17t-62.5 46.5 t-37 69t-5.5 84.5zM105 209q-4 -28 3 -52.5t22 -43t37.5 -29.5t49.5 -11q28 0 54 11t47.5 29.5t35.5 43t18 52.5q4 27 -3 51t-22 42t-37.5 29t-49.5 12q-29 0 -55.5 -10.5t-47 -28.5t-34.5 -42.5t-18 -52.5zM204 498q-5 -32 14 -53t50 -21q32 0 56.5 21t29.5 53t-13.5 55.5 t-50.5 23.5q-15 0 -29.5 -6.5t-26.5 -17.5t-20 -25t-10 -30z" />
<glyph unicode="9" horiz-adv-x="525" d="M40 419q6 45 29.5 84.5t57.5 69t76 46.5t87 17t82 -17.5t62 -47t36.5 -69t5.5 -83.5q-9 -68 -49 -129t-96.5 -114.5t-121.5 -99.5t-124 -85q-11 16 -21.5 32t-21.5 32q71 43 121.5 80.5t86.5 69.5q-5 -1 -10.5 -1h-10.5q-45 0 -82.5 16.5t-63 46t-37.5 68.5t-6 84z M123 419q-4 -28 3.5 -52.5t23.5 -42.5t39 -28.5t51 -10.5q27 0 52.5 10.5t46 28.5t34 42.5t17.5 52.5t-2.5 52.5t-22 43t-38 29.5t-49.5 11q-28 0 -54 -11t-47 -29.5t-35.5 -43t-18.5 -52.5z" />
<glyph unicode=":" horiz-adv-x="175" d="M15 52q3 23 21 38t38 15q19 0 33 -15t11 -38t-21 -37.5t-37 -14.5q-20 0 -34 14.5t-11 37.5zM50 302q3 23 21 38t38 15q19 0 33 -15t11 -38t-21 -37.5t-37 -14.5q-20 0 -34 14.5t-11 37.5z" />
<glyph unicode=";" horiz-adv-x="201" d="M-45 -120q27 52 52.5 103t52.5 103h84q-29 -52 -57.5 -103t-57.5 -103h-74zM89 302q4 23 22 38t38 15q19 0 33 -15t10 -38q-3 -23 -21 -37.5t-37 -14.5q-20 0 -34 14.5t-11 37.5z" />
<glyph unicode="&#x3c;" horiz-adv-x="680" d="M116 238q118 63 235.5 126t236.5 126l-16 -113q-65 -35 -130 -69.5t-130 -69.5q55 -35 110 -69.5t111 -69.5l-16 -113q-101 63 -200.5 126t-200.5 126z" />
<glyph unicode="=" horiz-adv-x="708" d="M80 112l12 81h506l-12 -81h-506zM107 306l12 81h506l-12 -81h-506z" />
<glyph unicode="&#x3e;" horiz-adv-x="650" d="M80 -14l16 113q65 35 130 69.5t131 69.5q-56 35 -111 69.5t-111 69.5l16 113q101 -63 200.5 -126t201.5 -126q-119 -63 -236.5 -126t-236.5 -126z" />
<glyph unicode="?" horiz-adv-x="452" d="M70 579q10 22 27 48.5t43.5 49.5t63.5 39t88 16q41 0 75 -15.5t56.5 -42t33 -62t4.5 -75.5q-8 -56 -40 -97.5t-83 -75.5q-15 -10 -32.5 -20.5t-33.5 -24t-27.5 -32t-15.5 -45.5l-11 -78h-84l14 97q4 32 17.5 52t32 35.5t42 29t48.5 31.5q40 27 61.5 59t26.5 69 q7 49 -19 81.5t-76 32.5q-56 0 -87.5 -25t-53.5 -74q-17 7 -35 13.5t-35 13.5zM107 52q4 23 22 38t38 15q19 0 33 -15t10 -38q-3 -23 -21 -37.5t-37 -14.5q-20 0 -34 14.5t-11 37.5z" />
<glyph unicode="@" horiz-adv-x="990" d="M65 189q12 87 56 164t109.5 134t147.5 90t170 33q87 0 159 -33t121 -90t71 -134t10 -165q-11 -53 -36.5 -88.5t-56.5 -58t-64.5 -32t-60.5 -9.5h-106l3 20q1 5 1.5 10t1.5 10q-2 -3 -12 -11t-27.5 -16t-41.5 -15t-53 -7q-42 0 -77 15.5t-58 42.5t-34 62.5t-5 75.5 q6 39 26.5 74.5t51.5 62.5t70 42.5t81 15.5q26 0 47.5 -7t37 -16.5t24.5 -18.5t10 -12q2 11 5.5 23t5.5 24h69l-42 -294h33q20 0 40 5.5t36.5 18t28.5 33t18 50.5q10 71 -7.5 133t-57 108.5t-97 73t-127.5 26.5q-71 0 -136.5 -26.5t-118 -73t-88 -108.5t-45.5 -133t8 -132.5 t58 -107.5t98 -72.5t129 -26.5q59 0 114 17.5t104 48.5q11 -15 21 -29.5t21 -29.5q-28 -22 -61.5 -38.5t-69.5 -27.5t-72 -16.5t-69 -5.5q-88 0 -160.5 33t-122 90t-71.5 134t-10 164zM367 188q-7 -49 21 -82.5t80 -33.5q26 0 48.5 9t40.5 24.5t29.5 37t14.5 45.5 q8 50 -20 82.5t-80 32.5q-26 0 -48.5 -8.5t-40.5 -24t-29.5 -36.5t-15.5 -46z" />
<glyph unicode="A" horiz-adv-x="740" d="M9 0q103 184 206.5 366t206.5 366l207 -732h-83q-20 69 -39 138.5t-39 138.5h-220q-39 -69 -78 -138.5t-78 -138.5h-83zM293 356h152q-11 40 -22.5 79.5t-22.5 79.5q-1 8 -1.5 16.5t-2.5 16.5q0 -2 -2 -6.5t-4.5 -10t-5 -10.5t-3.5 -6q-12 -23 -23 -42.5t-21.5 -38 t-21 -37.5t-22.5 -41z" />
<glyph unicode="B" horiz-adv-x="535" d="M8 0l99 700h183q49 0 88 -10t65 -31t37 -55q7 -20 7 -45q0 -16 -3 -34q-8 -62 -44 -109t-99 -64q27 -6 51 -20t41 -36t25 -51q5 -18 5 -38q0 -13 -2 -27q-6 -45 -30 -78.5t-59 -56t-77.5 -34t-85.5 -11.5h-201zM102 79h111q31 0 59 7t50.5 21.5t37.5 35.5t19 50q1 9 1 16 q0 21 -8 38q-10 23 -30.5 37.5t-49.5 21.5t-60 7h-97zM146 392h108q59 0 98 33t47 87q2 12 2 22q0 42 -26 62q-32 25 -90 25h-106z" />
<glyph unicode="C" horiz-adv-x="670" d="M61 349q10 74 47.5 139.5t93 114t124.5 77t143 28.5q51 0 94.5 -13t81.5 -37q-14 -17 -28 -33.5t-28 -33.5q-28 18 -60.5 28t-70.5 10q-57 0 -110 -22t-95.5 -60.5t-71.5 -89.5t-37 -108q-3 -20 -2 -40q0 -35 8 -68q14 -51 46.5 -88.5t79 -59.5t103.5 -22q74 0 142 37 l36 -66q-43 -23 -90.5 -36.5t-98.5 -13.5q-74 0 -135 28t-102.5 76.5t-60.5 113.5q-12 43 -12 89q0 24 3 50z" />
<glyph unicode="D" horiz-adv-x="652" d="M10 0l99 700h163q72 0 132.5 -24.5t101.5 -70.5q42 -47 61 -111q12 -40 11 -85q0 -29 -4 -60q-8 -62 -36 -124.5t-80.5 -112.5t-131 -81t-187.5 -31h-129zM105 80h70q61 0 115 18.5t96 53t69.5 84.5t36.5 114q3 24 3 46q-1 35 -9 66q-14 50 -47 85.5t-81 54.5t-107 19 h-70q-20 -136 -38.5 -270.5t-37.5 -270.5z" />
<glyph unicode="E" horiz-adv-x="601" d="M19 0l99 700h431l-11 -79h-348l-33 -229h309l-11 -79h-309l-33 -234h362l-11 -79h-445z" />
<glyph unicode="F" horiz-adv-x="587" d="M19 0l99 700h431l-11 -79h-348l-33 -229h309l-11 -79h-309l-44 -313h-83z" />
<glyph unicode="G" horiz-adv-x="692" d="M61 349q10 74 47.5 139.5t93 114t124.5 77t143 28.5q51 0 94.5 -13t81.5 -37q-14 -17 -28 -33.5t-28 -33.5q-28 18 -60.5 28t-70.5 10q-57 0 -110 -22t-95.5 -60.5t-71.5 -89.5t-37 -108q-3 -20 -3 -40q0 -35 9 -68q15 -51 47 -88.5t78.5 -59.5t103.5 -22q52 0 102 18 l14 102q2 17 -0.5 23.5t-18.5 6.5h-80l11 79h138q29 0 37 -14q5 -9 5 -25q0 -9 -2 -21l-28 -198q-43 -23 -90.5 -36.5t-98.5 -13.5q-74 0 -135 28t-102.5 76.5t-60.5 113.5q-12 43 -12 89q0 24 3 50z" />
<glyph unicode="H" horiz-adv-x="700" d="M28 0l99 700h83l-44 -308h378l44 308h83q-25 -176 -49.5 -350t-49.5 -350h-83l44 313h-378l-44 -313h-83z" />
<glyph unicode="I" horiz-adv-x="278" d="M49 0l99 700h83l-99 -700h-83z" />
<glyph unicode="J" horiz-adv-x="342" d="M-42 -144l11 79q34 2 64.5 13t54.5 31t39.5 48.5t20.5 65.5l86 607h83l-86 -610q-8 -56 -32.5 -99t-60.5 -72.5t-82.5 -45.5t-97.5 -17z" />
<glyph unicode="K" horiz-adv-x="600" d="M1 0l99 700h83l-39 -274q-2 -8 -3.5 -16t-3.5 -16q5 6 11 11.5t11 11.5q85 71 168.5 141.5t168.5 141.5h102q-85 -72 -169 -142t-169 -142q68 -105 135.5 -208t135.5 -208h-99q-59 91 -117.5 181.5t-117.5 181.5q-17 -15 -34.5 -29.5t-35.5 -29.5q-11 -76 -21.5 -152 t-21.5 -152h-83z" />
<glyph unicode="L" horiz-adv-x="593" d="M19 0l99 700h83l-88 -621h362l-11 -79h-445z" />
<glyph unicode="M" horiz-adv-x="937" d="M48 0l103 732q75 -119 149.5 -237.5t149.5 -237.5q109 119 216.5 237.5t216.5 237.5l-103 -732h-83l66 470l4 16l4 16q-80 -98 -167 -190.5t-172 -186.5q-55 88 -110 175t-109 175q-4 7 -7.5 13.5t-6.5 13.5q-1 -8 -1 -16t-1 -16l-66 -470h-83z" />
<glyph unicode="N" horiz-adv-x="813" d="M50 0l103 732q109 -140 217 -277.5t217 -277.5q4 -7 8 -13t8 -13v16t1 16l73 517h83l-103 -732q-110 137 -218 272t-218 272q-3 7 -7 13t-8 13q-1 -8 -1 -16t-1 -16l-71 -506h-83z" />
<glyph unicode="O" horiz-adv-x="840" d="M61 349q10 73 47.5 138.5t93 114.5t124.5 77.5t143 28.5q73 0 134.5 -28.5t103.5 -77.5q42 -48 61 -114q12 -43 13 -90q0 -24 -4 -49q-10 -74 -47.5 -139t-93.5 -113.5t-125.5 -76.5t-142.5 -28q-74 0 -135 28t-102.5 76.5t-60.5 113.5q-12 43 -12 89q0 24 3 50zM144 349 q-3 -21 -2 -40q0 -37 8 -69q14 -50 46.5 -87.5t79.5 -59.5t104 -22t110 22t95.5 59.5t71.5 88t37 108.5q3 21 3 40q1 37 -9 69q-14 50 -46.5 88t-79 60t-103.5 22t-110.5 -22t-96 -60t-71.5 -88.5t-37 -108.5z" />
<glyph unicode="P" horiz-adv-x="489" d="M8 0l99 700h165q34 0 74 -10.5t72.5 -33.5t51.5 -59q14 -26 14 -61q0 -13 -2 -26q-13 -91 -74.5 -144.5t-163.5 -53.5h-109l-44 -312h-83zM146 392h87q44 0 74.5 11.5t50 28.5t29 38t12.5 40q1 6 1 11q0 15 -6 31q-8 20 -26 36t-44 25t-57 9h-88z" />
<glyph unicode="Q" horiz-adv-x="842" d="M61 349q10 74 47.5 139.5t93 114t124.5 77t143 28.5t135.5 -28.5t103.5 -77t60 -114.5q13 -42 13 -88q0 -25 -4 -51q-11 -81 -54.5 -151t-108.5 -119h147l-11 -79h-307q-38 -8 -75 -8q-74 0 -135 28t-102.5 76.5t-60.5 113.5q-12 43 -12 89q0 24 3 50zM144 349 q-3 -20 -3 -40q0 -35 9 -68q15 -51 47 -88.5t78.5 -59.5t103.5 -22t110 22t96 59.5t72 88.5t37 108q3 20 3 40q0 35 -9 68q-15 51 -47 89.5t-79 60.5t-104 22t-110 -22t-95.5 -60.5t-71.5 -89.5t-37 -108z" />
<glyph unicode="R" horiz-adv-x="519" d="M8 0l99 700h165q34 0 74 -10.5t72.5 -33.5t51.5 -59q14 -26 14 -61q0 -13 -2 -26q-11 -75 -55.5 -125.5t-118.5 -66.5l105 -318h-90q-26 78 -51.5 156t-51.5 156h-17h-68l-44 -312h-83zM146 392h87q44 0 74.5 11.5t50 28.5t29 38t12.5 40q1 6 1 11q0 15 -6 31 q-8 20 -26 36t-44 25t-57 9h-88z" />
<glyph unicode="S" horiz-adv-x="563" d="M11 106l60 52q11 -14 26.5 -29.5t35 -28.5t43.5 -21t53 -8q26 0 51 7.5t45.5 22t34.5 36.5t18 51q2 11 2 20q0 26 -12 44q-16 24 -42.5 40.5t-56.5 26t-51 18.5q-17 7 -40 19.5t-43 33.5q-19 21 -31 52q-8 22 -9 50q0 12 2 25q4 33 18.5 66t41.5 60t67.5 44t95.5 17 q40 0 80.5 -14t87.5 -59q-14 -15 -27.5 -30t-27.5 -30q-7 8 -18.5 17.5t-27.5 17.5t-35.5 13.5t-42.5 5.5q-58 0 -90.5 -33t-38.5 -78q-2 -10 -2 -18q0 -14 4 -24q6 -16 19.5 -27.5t32.5 -19t41 -15.5q31 -12 67 -28.5t64 -42.5q30 -26 46 -63q12 -26 11 -59q0 -14 -2 -30 q-6 -45 -28 -81t-54 -61.5t-72 -39t-82 -13.5q-38 0 -72.5 10.5t-62 27t-48 36.5t-31.5 40z" />
<glyph unicode="T" horiz-adv-x="553" d="M38 621l11 79h553l-11 -79h-234l-88 -621h-83l88 621h-236z" />
<glyph unicode="U" horiz-adv-x="652" d="M59 226l66 474h83l-66 -471q-2 -14 -2 -27q0 -22 6 -40q8 -30 27.5 -50t49 -30.5t66.5 -10.5q74 0 127.5 40.5t64.5 117.5l66 471h83l-66 -474q-8 -57 -33.5 -101t-64 -73.5t-86.5 -44.5t-102 -15t-98 15t-73.5 44.5t-42.5 73.5q-8 27 -8 59q0 20 3 42z" />
<glyph unicode="V" horiz-adv-x="722" d="M105 700h83q37 -130 73 -257.5t73 -257.5q1 -8 1.5 -16.5t2.5 -16.5q3 8 6.5 16.5t7.5 16.5q73 130 145 257.5t145 257.5h83q-103 -184 -206.5 -366t-206.5 -366z" />
<glyph unicode="W" horiz-adv-x="1108" d="M105 700h83q37 -130 73 -257.5t73 -257.5q1 -8 1.5 -16.5t2.5 -16.5q18 45 42 89.5t50 89t52.5 88.5t50.5 87q-14 49 -27.5 97t-27.5 97h83q37 -130 73 -257.5t73 -257.5q1 -8 1.5 -16.5t2.5 -16.5q3 8 6.5 16.5t7.5 16.5q73 130 145 257.5t145 257.5h83 q-103 -184 -206.5 -366t-206.5 -366l-118 417q-2 9 -3 17.5t-2 17.5q-22 -56 -52.5 -113.5t-64 -114.5t-68.5 -113.5t-65 -110.5z" />
<glyph unicode="X" horiz-adv-x="700" d="M43 0q72 90 142 178.5t141 178.5q-43 86 -86.5 171.5t-87.5 171.5h102q32 -63 63.5 -125.5t63.5 -125.5q2 -7 5 -13.5t5 -13.5q4 7 8 13.5t8 13.5q50 63 99.5 125.5t99.5 125.5h102q-70 -88 -138.5 -174.5t-137.5 -174.5q45 -88 89.5 -175.5t89.5 -175.5h-103l-131 258 q-3 7 -5.5 14t-4.5 14q-9 -13 -17 -28q-52 -65 -102.5 -129t-101.5 -129h-103z" />
<glyph unicode="Y" horiz-adv-x="638" d="M61 700h102q37 -81 73 -161.5t73 -161.5q2 -8 3.5 -15.5t3.5 -15.5h1q4 8 8 15.5t8 15.5q60 81 118.5 161.5t118.5 161.5h102q-80 -109 -158 -215.5t-157 -215.5l-38 -269h-102l38 270q-49 108 -97 215t-97 215z" />
<glyph unicode="Z" horiz-adv-x="700" d="M81 0l11 80q127 136 251.5 270.5t252.5 270.5h-338q-31 0 -50 18q-16 15 -16 37q0 5 1 10l7 49h83l-2 -12q-2 -16 4 -19.5t23 -3.5h401l-11 -79q-128 -136 -252.5 -270.5t-251.5 -270.5h457l-11 -80h-559z" />
<glyph unicode="[" horiz-adv-x="338" d="M20 -149l125 895h192l-11 -81h-109l-103 -733h109l-11 -81h-192z" />
<glyph unicode="\" horiz-adv-x="385" d="M53 736h94q43 -190 85.5 -377.5t85.5 -377.5h-94q-43 190 -85.5 377.5t-85.5 377.5z" />
<glyph unicode="]" horiz-adv-x="342" d="M-3 -149l10 81h109l103 733h-109l11 81h192l-125 -895h-191z" />
<glyph unicode="^" horiz-adv-x="470" d="M99 479q36 45 72.5 90.5t72.5 90.5q24 -45 47.5 -90.5t47.5 -90.5h-59l-51 72q-17 -18 -35.5 -36t-35.5 -36h-59z" />
<glyph unicode="_" horiz-adv-x="600" d="M94 0l11 81h400l-11 -81h-400z" />
<glyph unicode="`" horiz-adv-x="200" d="M-41 612h83q18 -33 35.5 -66.5t35.5 -66.5h-59q-24 33 -47.5 66.5t-47.5 66.5z" />
<glyph unicode="a" horiz-adv-x="510" d="M75 187q6 43 26 79t51 62t70 41t81 15q27 0 49 -8t37.5 -17.5t24.5 -18.5t9 -12q2 11 5 23t5 24h69l-52 -375h-73l4 32q0 2 0.5 4.5t0.5 4.5q-1 -3 -10.5 -11t-27 -16.5t-42 -15.5t-54.5 -7q-42 0 -76.5 15.5t-58 42.5t-33.5 63q-7 23 -7 47q0 13 2 28zM159 188 q-1 -10 -1 -19q0 -37 22 -63q28 -34 80 -34q26 0 48.5 9t40.5 24.5t29.5 37t14.5 45.5q1 10 1 19q0 37 -22 63q-28 32 -80 33q-26 0 -48.5 -8.5t-40.5 -24t-29.5 -36.5t-14.5 -46z" />
<glyph unicode="b" horiz-adv-x="533" d="M82 0l105 750h83l-55 -388q-3 -8 -7 -16t-7 -16q1 3 12 11.5t29 18t42 17t51 7.5q42 0 77 -15.5t58 -42.5q23 -26 34 -62q7 -23 7 -48q0 -14 -2 -28q-6 -44 -26 -80t-50.5 -62t-70 -40.5t-82.5 -14.5q-30 0 -52.5 7t-37.5 15.5t-22.5 16.5t-7.5 11q0 -2 -0.5 -4.5 t-0.5 -4.5l-4 -32h-73zM191 188q-1 -10 -1 -19q0 -37 22 -63q28 -34 80 -34q26 0 48.5 9t40.5 24.5t29.5 37t14.5 45.5q1 10 1 19q0 37 -22 63q-28 32 -80 33q-26 0 -48.5 -8.5t-40.5 -24t-29.5 -36.5t-14.5 -46z" />
<glyph unicode="c" horiz-adv-x="395" d="M62 188q6 44 26 80t50.5 62t69 40t81.5 14q37 0 67.5 -11.5t53.5 -31.5q-15 -16 -30 -31t-30 -31q-29 24 -72 24q-26 0 -48.5 -8.5t-40.5 -24t-29.5 -36.5t-14.5 -46q-1 -10 -1 -19q0 -37 22 -63q28 -34 80 -34q44 0 78 25q11 -16 20.5 -31.5t20.5 -31.5 q-29 -20 -62 -31.5t-69 -11.5q-42 0 -76 15.5t-58 42.5t-34 63q-7 23 -6 47q0 14 2 29z" />
<glyph unicode="d" horiz-adv-x="528" d="M75 188q6 40 26 75.5t51 62.5t70 42.5t81 15.5q27 0 49 -7.5t37.5 -17t24.5 -18t9 -11.5q-2 8 -3 16t-3 16l55 388h83l-105 -750h-73l4 32q0 2 0.5 4.5t0.5 4.5q-1 -3 -10.5 -11t-27 -16.5t-42 -15.5t-54.5 -7q-42 0 -76.5 15.5t-58 42.5t-33.5 63q-7 23 -7 47q0 14 2 29 zM159 188q-1 -10 -1 -19q0 -37 22 -63q28 -34 80 -34q26 0 48.5 9t40.5 24.5t29.5 37t14.5 45.5q1 10 1 19q0 37 -22 63q-28 32 -80 33q-26 0 -48.5 -8.5t-40.5 -24t-29.5 -36.5t-14.5 -46z" />
<glyph unicode="e" horiz-adv-x="451" d="M62 188q6 46 26 82.5t50.5 61.5t69 38.5t81.5 13.5q31 0 57.5 -12.5t46.5 -34.5t32.5 -52.5t16.5 -66.5l-142 -50t-143 -50q12 -21 35 -33.5t54 -12.5q23 0 43 8.5t37 23.5q11 -15 21.5 -30t21.5 -30q-29 -25 -63 -39t-72 -14q-42 0 -76 15.5t-58 42.5t-34 63 q-7 23 -6 47q0 14 2 29zM146 196q49 17 98.5 34.5t98.5 34.5q-11 17 -27.5 27.5t-37.5 10.5q-40 0 -71.5 -20t-48.5 -52q-5 -8 -7.5 -17t-4.5 -18z" />
<glyph unicode="f" horiz-adv-x="328" d="M64 303l11 81h64l19 133q8 56 32.5 99t61 72.5t82.5 45t98 17.5l-11 -79q-70 -4 -119.5 -44t-60.5 -114l-19 -130h117l-11 -81h-117l-42 -303h-83l42 303h-64z" />
<glyph unicode="g" horiz-adv-x="518" d="M65 -190l32 34l32 34q18 -15 42.5 -28.5t53.5 -13.5q26 0 49 9t41 24.5t30 37t15 46.5l9 67q3 5 6 9.5t6 9.5q-4 -4 -14.5 -12t-28 -15.5t-40 -13.5t-50.5 -6q-42 0 -76.5 15.5t-58 42t-33.5 62.5q-7 22 -7 47q0 13 2 28q6 44 26 80t51 62t70 40.5t81 14.5q27 0 49 -8 t37.5 -17.5t24.5 -18.5t9 -12q2 11 5 23t5 24h69l-55 -391l-6 -44q-6 -40 -26.5 -74.5t-50.5 -60t-68.5 -40.5t-80.5 -15q-45 0 -84 19.5t-66 40.5zM159 188q-1 -10 -1 -19q0 -37 22 -63q28 -34 80 -34q26 0 48.5 9t40.5 24.5t29.5 37t14.5 45.5q1 10 1 19q0 37 -22 63 q-28 33 -80 33q-26 0 -48.5 -8.5t-40.5 -24t-29.5 -36.5t-14.5 -46z" />
<glyph unicode="h" horiz-adv-x="525" d="M82 0l105 750h83l-60 -426l-9 -45q29 49 74.5 75.5t102.5 29.5q59 0 89 -31q26 -27 25 -67v-14l-38 -272h-83l32 234v6q-1 22 -13 40q-14 20 -52 22q-26 0 -51 -9t-45 -25t-34 -38t-18 -48l-25 -182h-83z" />
<glyph unicode="i" horiz-adv-x="200" d="M58 0l52 375h83l-52 -375h-83zM122 520q3 23 21 38t38 15q19 0 33 -15q12 -12 11 -30v-8q-4 -23 -22 -37.5t-37 -14.5q-20 0 -34 14q-11 11 -11 28q0 5 1 10z" />
<glyph unicode="j" horiz-adv-x="225" d="M4 -119q59 42 71 122l52 373q21 0 41.5 -0.5t41.5 -0.5l-52 -375q-9 -61 -36.5 -106.5t-69.5 -74.5q-12 16 -24 31t-24 31zM141 520q3 23 21 38t38 15q19 0 33 -15q12 -12 12 -30q0 -4 -1 -8q-4 -23 -22 -37.5t-37 -14.5q-20 0 -34 14q-11 12 -11 28q0 5 1 10z" />
<glyph unicode="k" horiz-adv-x="449" d="M58 0l105 750h83l-76 -539q55 45 105.5 86.5t104.5 86.5q11 -12 21.5 -24.5t21.5 -24.5q-38 -32 -72.5 -60.5t-72.5 -60.5q32 -54 63 -107t63 -107h-96l-48 80l-48 80q-14 -11 -27.5 -23t-27.5 -23l-16 -114h-83z" />
<glyph unicode="l" horiz-adv-x="194" d="M58 0l105 750h83l-105 -750h-83z" />
<glyph unicode="m" horiz-adv-x="796" d="M82 0l52 375h73l-1 -9q-2 -24 -2.5 -43.5t-2.5 -43.5q28 48 74 75.5t103 29.5q55 0 85 -27.5t29 -72.5q29 46 74.5 72t100.5 28q59 0 89 -31q26 -27 25 -67v-14l-38 -272h-83l32 234v6q0 22 -12 40q-14 20 -53 22q-26 0 -51 -9t-45 -25t-34 -38t-18 -48l-25 -182h-83 l32 234v6q-1 22 -13 40q-14 20 -52 22q-26 0 -51 -9t-45 -25t-34 -38t-18 -48l-25 -182h-83z" />
<glyph unicode="n" horiz-adv-x="495" d="M82 0l52 375h73l-1 -9q-2 -24 -2.5 -43.5t-2.5 -43.5q27 48 75 76.5t102 28.5q59 0 89 -31q26 -27 25 -67v-14l-38 -272h-83l32 234v6q-1 22 -13 40q-14 20 -52 22q-26 0 -51 -9t-45 -25t-34 -38t-18 -48l-25 -182h-83z" />
<glyph unicode="o" horiz-adv-x="475" d="M62 188q6 47 26.5 83.5t51 61.5t69 38t80.5 13t77 -15.5t58 -42t34 -62.5q7 -23 7 -48q0 -14 -2 -28q-6 -44 -26.5 -80t-51.5 -62t-70 -40.5t-81 -14.5t-76 15.5t-58 42.5t-34 63q-7 23 -6 47q0 14 2 29zM145 187q-1 -8 -1 -16q0 -15 4 -29q6 -21 19.5 -36.5t33 -24.5 t43.5 -9t46.5 9t40.5 24.5t30 36.5t15 45q1 8 1 16q0 15 -4 29q-6 21 -19.5 37t-33.5 25t-44 9t-46 -9t-40 -25t-30 -37t-15 -45z" />
<glyph unicode="p" horiz-adv-x="525" d="M31 -250l88 625h69q-2 -12 -1.5 -23.5t-0.5 -23.5q1 3 12 12t29 18.5t42 17.5t51 8q42 0 77 -15.5t58 -42.5t34 -62q7 -23 7 -48q0 -14 -2 -28q-6 -44 -26.5 -80t-51.5 -62t-70 -40.5t-81 -14.5q-30 0 -52.5 7t-37.5 15.5t-22.5 16.5t-7.5 11q2 -5 3.5 -11t3.5 -11 l-38 -269h-83zM176 188q-1 -10 -1 -19q0 -37 22 -63q28 -34 80 -34q26 0 48.5 9t40.5 24.5t29.5 37t14.5 45.5q1 10 1 19q0 37 -22 63q-28 33 -80 33q-26 0 -48.5 -8.5t-40.5 -24t-29.5 -36.5t-14.5 -46z" />
<glyph unicode="q" horiz-adv-x="512" d="M75 188q6 43 26 79t51 62t70 40.5t81 14.5q27 0 49 -8t37.5 -17.5t24.5 -18.5t9 -12q2 12 5 23.5t5 23.5h69l-88 -625h-83l38 269q3 5 6.5 11t6.5 11q-1 -3 -10.5 -11t-27 -16.5t-42 -15.5t-54.5 -7q-42 0 -76.5 15.5t-58 42.5t-33.5 63q-7 23 -7 47q0 14 2 29zM159 188 q-1 -10 -1 -19q0 -37 22 -63q28 -34 80 -34q26 0 48.5 9t40.5 24.5t29.5 37t14.5 45.5q1 10 1 19q0 37 -22 63q-28 33 -80 33q-26 0 -48.5 -8.5t-40.5 -24t-29.5 -36.5t-14.5 -46z" />
<glyph unicode="r" horiz-adv-x="331" d="M82 0l52 375h73l-1 -9q-2 -24 -2.5 -43.5t-2.5 -43.5q15 25 36.5 44.5t43.5 33t42.5 20.5t35.5 7l-17 -82q-30 0 -56.5 -9t-46.5 -25t-32.5 -38t-16.5 -48l-25 -182h-83z" />
<glyph unicode="s" horiz-adv-x="399" d="M76 39q15 15 29.5 30.5t29.5 30.5q20 -14 34 -20.5t38 -6.5q1 0 7.5 0.5t15 4t16 10.5t10.5 21q4 18 -6 27.5t-26.5 16t-37 13t-37 18t-25.5 32.5q-6 14 -6 33q0 11 2 23q4 31 19 52t35 34.5t41.5 19.5t38.5 6q10 0 24 -2t29 -7t28.5 -13t22.5 -20q-14 -16 -27.5 -31 t-27.5 -31q-4 5 -17.5 14t-37.5 9q-22 0 -33.5 -9.5t-11.5 -25.5q1 -12 12.5 -19.5t28.5 -14.5t35.5 -16t33.5 -22.5t23 -33.5q5 -14 5 -32q0 -9 -1 -20q-2 -14 -10 -34t-25 -39t-44 -32t-67 -13q-37 0 -69 12.5t-49 34.5z" />
<glyph unicode="t" d="M66 303l11 81h84l33 235h83l-33 -235h98l-11 -81h-98l-42 -303h-83l42 303h-84z" />
<glyph unicode="u" horiz-adv-x="529" d="M96 103l38 272h83l-33 -234q0 -3 -1 -6q0 -23 14 -41q15 -20 53 -21q26 0 51 9t45 25t34 38t18 48l25 182h83l-54 -384h-83l9 60l9 45q-27 -48 -75.5 -76.5t-102.5 -28.5q-59 0 -89 31q-25 27 -25 67q0 7 1 14z" />
<glyph unicode="v" horiz-adv-x="500" d="M106 375h83q12 -30 26.5 -62t28 -64t25 -64.5t17.5 -64.5q15 32 35.5 64.5t43.5 64.5l46 64t44 62h83q-68 -100 -135.5 -199t-136.5 -199q-40 100 -79.5 199t-80.5 199z" />
<glyph unicode="w" horiz-adv-x="772" d="M106 375h83q21 -63 45 -126.5t37 -128.5q26 54 59.5 105.5t64.5 102.5q-5 12 -8.5 23.5t-8.5 23.5h83q21 -63 45 -126.5t37 -128.5q31 65 73.5 128.5t80.5 126.5h83q-64 -100 -128 -199t-129 -199q-24 68 -49 134.5t-49 134.5q-44 -68 -87 -134.5t-87 -134.5 q-36 100 -72 199t-73 199z" />
<glyph unicode="x" horiz-adv-x="475" d="M21 0q44 51 87.5 101t88.5 101q-26 44 -51.5 86.5t-51.5 86.5h102q20 -33 40.5 -66.5t40.5 -66.5q29 33 57.5 66.5t57.5 66.5h102q-44 -51 -87.5 -101t-87.5 -101q26 -44 52.5 -86.5t52.5 -86.5h-106q-20 33 -40 66.5t-40 66.5q-29 -33 -57.5 -66.5t-57.5 -66.5h-102z " />
<glyph unicode="y" horiz-adv-x="500" d="M53 -250q41 63 81 125t81 125q-35 94 -68.5 187.5t-68.5 187.5h83q-1 1 3.5 -11.5t12 -33.5t17 -48.5t19.5 -55.5l54 -152q0 -1 14 22t35.5 57t46 73.5t46 73t35 55.5t12.5 20h83q-101 -157 -201 -312.5t-202 -312.5h-83z" />
<glyph unicode="z" horiz-adv-x="451" d="M42 0l11 81q35 28 66 54.5t61.5 52.5t61.5 53t66 55h-139q-31 0 -50 18q-16 15 -16 37q0 5 1 10l7 49h83l-2 -12q-2 -16 4 -19.5t23 -3.5h217l-11 -81q-36 -28 -67 -54.5t-61 -52.5t-61 -52t-66 -54h248l-11 -81h-365z" />
<glyph unicode="{" horiz-adv-x="320" d="M24 256l11 81q24 1 41.5 14.5t29 33.5t18 43.5t9.5 43.5l22 156q6 46 19 70.5t30.5 35t39 11.5t45.5 1h63l-11 -81h-44q-15 0 -25.5 -4t-18 -15.5t-13 -31.5t-9.5 -52l-19 -129q-4 -31 -13.5 -53.5t-21.5 -38.5t-25 -26.5t-23 -16.5q9 -6 18.5 -16.5t17 -27t11 -38.5 t-0.5 -52l-18 -129q-5 -32 -5.5 -52.5t4 -31.5t14 -15t24.5 -4h44l-11 -81h-63q-23 0 -44.5 1t-36.5 11.5t-21 34.5t0 71l22 152q3 20 3 43.5t-6 43.5t-19.5 33.5t-37.5 14.5z" />
<glyph unicode="|" horiz-adv-x="271" d="M25 -232l131 932h84l-131 -932h-84z" />
<glyph unicode="}" horiz-adv-x="320" d="M-32 -149l11 81h43q15 0 25.5 4t18 15t12.5 31.5t10 52.5l19 129q4 30 13.5 52.5t21.5 38.5t25 26.5t23 16.5q-9 6 -18.5 16.5t-17 26.5t-11 38.5t0.5 53.5l18 129q5 32 5.5 52t-4 31.5t-14 15.5t-24.5 4h-44l11 81h63q23 0 44.5 -1t36.5 -11.5t21 -34.5t0 -71l-22 -156 q-3 -20 -3 -43.5t6 -43.5t19.5 -33.5t37.5 -14.5l-12 -81q-24 -1 -41 -14.5t-29 -33.5t-18.5 -43.5t-9.5 -43.5l-21 -152q-6 -47 -19 -71t-30.5 -34.5t-39 -11.5t-45.5 -1h-62z" />
<glyph unicode="~" horiz-adv-x="489" d="M115 464q4 20 15 36.5t26 28t31.5 17.5t31.5 6q23 0 40.5 -9t31.5 -24q13 -16 23.5 -21t24.5 -5q7 0 16 2t17.5 7t16 14t10.5 23q11 -1 22 -1.5t22 -1.5q-4 -20 -15 -36.5t-25.5 -27.5t-31 -17t-31.5 -6q-23 0 -40.5 9t-31.5 23q-13 16 -24 21t-25 5t-33 -9t-26 -37z" />
<glyph unicode="&#xa0;" />
<glyph unicode="&#xa1;" horiz-adv-x="200" d="M4 -210l82 584h83l-82 -584h-83zM92 487q4 23 21.5 38t37.5 15q19 0 33 -15t11 -38t-21.5 -37.5t-37.5 -14.5q-20 0 -33.5 14.5t-10.5 37.5z" />
<glyph unicode="&#xa2;" horiz-adv-x="385" d="M36 188q4 33 19 63t37.5 55t51.5 43t61 27l9 62h84l-8 -56q26 -4 51.5 -14t42.5 -27q-15 -16 -30 -31t-30 -31q-19 14 -45 21l-32 -226q13 3 26.5 9t24.5 14q11 -16 20.5 -31.5t20.5 -31.5q-47 -35 -103 -41l-9 -61h-84l9 68q-30 9 -53.5 27t-39 42.5t-22 55t-1.5 63.5z M119 188q-5 -34 7 -61t38 -42l29 204q-30 -14 -49.5 -40.5t-24.5 -60.5z" />
<glyph unicode="&#xa3;" horiz-adv-x="574" d="M-15 0l11 81h43q16 0 26.5 3.5t18 14.5t12 30.5t9.5 51.5l13 92h-65l12 81h65l20 146q10 69 72.5 101.5t167.5 32.5q33 0 58.5 -8t44 -22t31 -32t19.5 -38q-17 -9 -34 -18.5t-34 -18.5q-5 7 -10 16.5t-14.5 18.5t-26.5 15t-45 6q-68 0 -104.5 -14t-43.5 -61l-17 -124h117 l-12 -81h-117l-15 -110q-4 -29 -9.5 -48.5t-23.5 -33.5h172q32 0 52.5 2.5t33 8.5t18 16t7.5 25l6 44q21 0 42 0.5t42 0.5l-13 -93q-3 -18 -9.5 -34t-20.5 -27t-38 -17.5t-62 -6.5h-399z" />
<glyph unicode="&#xa4;" horiz-adv-x="500" d="M70 255l27 24q-16 38 -10 82q3 22 11.5 41.5t20.5 36.5l-10 12l-10 12l67 59l21 -24q20 9 40 15t42 6t41 -5.5t36 -15.5l27 24l51 -59l-25 -22q17 -37 11 -80q-6 -44 -35 -81l21 -24l-67 -59q-6 6 -11.5 12.5t-11.5 12.5q-38 -20 -82 -20q-42 0 -75 19l-28 -25zM171 360 q-5 -32 14.5 -54.5t51.5 -22.5q16 0 31 6t27 16.5t20.5 24.5t10.5 30q4 32 -15.5 55t-51.5 23t-57.5 -23t-30.5 -55z" />
<glyph unicode="&#xa5;" horiz-adv-x="638" d="M61 700h102q37 -81 73 -161.5t73 -161.5q2 -8 3.5 -15.5t3.5 -15.5h1q4 8 8 15.5t8 15.5q60 81 118.5 161.5t118.5 161.5h102q-66 -90 -130.5 -178t-129.5 -178h70l-12 -81h-114l-11 -82h114l-12 -81h-114l-14 -100h-102l14 100h-117l12 81h117l11 82h-117l12 81h73 q-41 90 -81 178t-80 178z" />
<glyph unicode="&#xa6;" horiz-adv-x="215" d="M3 -233l49 350h84l-49 -350h-84zM85 350l49 350h84l-49 -350h-84z" />
<glyph unicode="&#xa7;" horiz-adv-x="500" d="M116 331.5q-1 26.5 7 52.5t24 49t39 40q32 23 74 27q-8 17 -15.5 34t-15.5 35q-14 33 -16.5 56.5t3.5 41t19.5 29.5t31.5 22q20 11 40.5 22t40.5 22q15 -34 32 -70q-11 -5 -21 -11t-21 -11q-13 -8 -20.5 -15t-10 -17t1 -23.5t12.5 -34.5h1q17 -38 34 -74.5t34 -74.5 q11 -23 11.5 -49t-7.5 -51.5t-24.5 -48.5t-40.5 -39q-32 -23 -74 -29q15 -34 32 -70q15 -33 17.5 -57t-4 -41.5t-20 -30t-31.5 -22.5q-20 -11 -39.5 -21.5t-39.5 -21.5q-15 34 -32 70q11 6 21.5 11.5t21.5 11.5q13 7 20.5 15t8 19.5t-5 28t-17.5 42.5q-21 44 -33.5 70 t-18.5 39.5t-7 18t-1 6.5q-10 23 -11 49.5zM194 360q-4 -27 12 -45.5t43 -18.5q26 0 47.5 18.5t25.5 45.5q4 26 -12 45t-43 19q-26 0 -47.5 -18.5t-25.5 -45.5z" />
<glyph unicode="&#xa8;" horiz-adv-x="370" d="M48 520q4 23 22 38t38 15q19 0 33 -15t10 -38q-3 -23 -21 -37.5t-37 -14.5q-20 0 -34 14.5t-11 37.5zM214 520q4 23 22 38t38 15q19 0 33 -15t10 -38q-3 -23 -21 -37.5t-37 -14.5q-20 0 -34 14.5t-11 37.5z" />
<glyph unicode="&#xa9;" horiz-adv-x="793" d="M136 372q8 57 36 105t68.5 83t91 54.5t104.5 19.5t99 -19.5t76 -54.5t45 -83t6 -105q-8 -56 -35.5 -103.5t-68 -82.5t-91 -55t-104.5 -20t-99 20t-76 55t-45.5 82.5t-6.5 103.5zM176 372q-7 -48 4.5 -89t37.5 -71t64.5 -47t85.5 -17t90 17t77.5 47t57 71t29.5 89 q7 49 -4 90t-37 71t-64.5 47t-85.5 17t-90 -17t-77.5 -47t-57.5 -71t-30 -90zM245 375q4 34 21 63.5t42 51.5t56.5 34.5t64.5 12.5q44 0 79 -22q-6 -8 -12.5 -15.5t-12.5 -15.5q-13 8 -27.5 13t-31.5 5q-26 0 -49.5 -10t-43 -27.5t-32.5 -40.5t-17 -49q-3 -26 3.5 -49 t20.5 -40t35 -27t47 -10q35 0 64 17l17 -30q-20 -11 -41.5 -17t-44.5 -6q-33 0 -61 13t-46.5 35t-27 51.5t-3.5 62.5z" />
<glyph unicode="&#xaa;" horiz-adv-x="585" d="M96 356q4 31 18.5 57t37 44.5t50.5 29.5t59 11q19 0 35 -6t27 -12.5t17.5 -13t6.5 -8.5q2 8 4 16.5t3 16.5h50l-37 -270h-53l3 23q0 2 0.5 3.5t0.5 3.5q-1 -3 -8 -8.5t-19.5 -11.5t-30 -11t-39.5 -5q-30 0 -55 11t-42 30.5t-24.5 45t-3.5 54.5zM157 357q-5 -36 15 -60 t58 -24q18 0 34.5 6.5t29.5 17.5t21 26.5t11 33.5q5 36 -15.5 59.5t-57.5 23.5q-19 0 -35.5 -6.5t-29.5 -17.5t-21 -26t-10 -33z" />
<glyph unicode="&#xab;" horiz-adv-x="601" d="M117 239q48 41 96.5 80.5t96.5 80.5l-13 -95q-19 -17 -37 -33t-37 -33q14 -17 27.5 -33.5t27.5 -33.5l-13 -95zM288 239q48 41 96.5 80.5t96.5 80.5l-13 -94q-19 -17 -37 -33.5t-37 -33.5q14 -17 27.5 -33.5t27.5 -33.5l-13 -95z" />
<glyph unicode="&#xac;" horiz-adv-x="559" d="M98 188l9 60h360l-15 -100h-84l6 40h-276z" />
<glyph unicode="&#xad;" d="M47 147l11 81h184l-11 -81h-184z" />
<glyph unicode="&#xae;" horiz-adv-x="801" d="M136 372q8 57 36 105t68.5 83t91 54.5t104.5 19.5t99 -19.5t76 -54.5t45 -83t6 -105q-8 -56 -35.5 -103.5t-68 -82.5t-91 -55t-104.5 -20t-99 20t-76 55t-45.5 82.5t-6.5 103.5zM176 372q-7 -48 4.5 -89t37.5 -71t64.5 -47t85.5 -17t90 17t77.5 47t57 71t29.5 89 q7 49 -4 90t-37 71t-64.5 47t-85.5 17t-90 -17t-77.5 -47t-57.5 -71t-30 -90zM297 210l47 331h78q16 0 35 -5t34.5 -16t24.5 -28t6 -41q-5 -35 -26.5 -59t-56.5 -32q13 -38 25 -75t25 -75h-43q-12 37 -24 73.5t-25 74.5h-8h-32l-21 -148h-39zM362 395h41q42 0 59.5 19 t19.5 37q3 21 -15 37t-47 16h-42z" />
<glyph unicode="&#xaf;" horiz-adv-x="399" d="M81 478l7 53h230l-7 -53h-230z" />
<glyph unicode="&#xb0;" horiz-adv-x="282" d="M36 560q3 21 13 39t26 31.5t36 21.5t41 8q42 0 66.5 -29t19.5 -71q-3 -21 -13.5 -39.5t-26.5 -32t-35 -21t-40 -7.5q-43 0 -68 29t-19 71zM89 559q-2 -20 10 -34t32 -14t36.5 14t18.5 34q3 20 -9.5 34.5t-32.5 14.5t-36 -14.5t-19 -34.5z" />
<glyph unicode="&#xb1;" horiz-adv-x="524" d="M52 100l12 81h360l-12 -81h-360zM88 350l11 81h138l20 140h84l-20 -140h138l-11 -81h-138l-20 -139h-84l20 139h-138z" />
<glyph unicode="&#xb2;" horiz-adv-x="398" d="M41 185q34 31 67 59.5t59 55.5t43 52.5t20 48.5q3 19 -1.5 31.5t-12 21t-18 12.5t-18.5 4q-19 0 -32 -6.5t-21 -16t-12 -19.5t-5 -18q-5 -32 12 -52q-8 -6 -14.5 -12t-14.5 -13q-7 6 -12.5 15t-8.5 19.5t-4 21.5t0 21q3 19 12 37.5t24.5 32.5t35.5 22t46 8 q22 0 39.5 -8.5t29 -22.5t16.5 -32.5t2 -39.5q-4 -24 -15.5 -47t-29 -46t-39 -45t-43.5 -44h119l-5 -40h-219z" />
<glyph unicode="&#xb3;" horiz-adv-x="419" d="M33 218q8 7 16.5 14t17.5 14q7 -11 19 -17t26 -6t27 5.5t23 14.5t17.5 21t9.5 26q1 14 -2.5 26t-11.5 21t-19 14t-25 5q-18 0 -33 -8q21 30 42.5 59.5t42.5 59.5h-94l6 40h162q-22 -29 -43.5 -58.5t-43.5 -58.5q15 -6 27 -15.5t20 -22.5t11.5 -28.5t0.5 -33.5 q-3 -22 -14.5 -41.5t-28 -34t-37 -23t-43.5 -8.5t-41.5 9.5t-31.5 25.5z" />
<glyph unicode="&#xb4;" horiz-adv-x="274" d="M90 479q27 33 54.5 66.5t54.5 66.5h84q-33 -33 -67 -66.5t-67 -66.5h-59z" />
<glyph unicode="&#xb5;" horiz-adv-x="545" d="M41 -201l81 576h83l-33 -234q-2 -27 13 -46.5t53 -21.5q26 0 51 9t45 25t34 38t17 48l26 182h83l-54 -384h-83l8 60l10 45q-28 -48 -74.5 -75.5t-103.5 -29.5q-26 0 -45 6l-28 -198h-83z" />
<glyph unicode="&#xb6;" horiz-adv-x="547" d="M67 586q5 34 22 64t42 52t56.5 35t65.5 13h246l-105 -750h-83l94 669h-80l-94 -669h-83l59 423q-34 0 -62 12.5t-47 34.5t-27.5 52t-3.5 64z" />
<glyph unicode="&#xb7;" horiz-adv-x="168" d="M33 282q4 23 22 38t38 15q19 0 33 -15t10 -38q-3 -23 -21 -37.5t-37 -14.5q-20 0 -34 14.5t-11 37.5z" />
<glyph unicode="&#xb8;" horiz-adv-x="452" d="M98 -175q13 6 25.5 12t24.5 12q3 -16 14.5 -26.5t31.5 -10.5q24 0 39 16t19 40q3 20 -6.5 31.5t-21 20.5t-21 19t-7.5 27l5 34h51l-1 -7q-2 -14 1 -22.5t8.5 -14t12 -9t12.5 -8.5q20 -16 25.5 -36t1.5 -45q-3 -21 -12.5 -40.5t-24.5 -34.5t-36 -24t-47 -9q-34 0 -60 18.5 t-34 56.5z" />
<glyph unicode="&#xb9;" horiz-adv-x="273" d="M45 184l37 262h-32l5 37h70l-42 -299h-38z" />
<glyph unicode="&#xba;" horiz-adv-x="469" d="M92 357q4 33 19 59.5t37 44.5t49.5 27.5t57.5 9.5q31 0 56 -11t41.5 -30.5t24.5 -45.5t4 -54q-4 -32 -19 -58t-37.5 -45t-50.5 -29t-58 -10q-31 0 -55.5 11t-41 30.5t-24.5 45t-3 55.5zM152 356q-3 -17 1.5 -32.5t14.5 -26.5t24 -17.5t31 -6.5t33.5 6.5t29.5 17.5 t21.5 26.5t10.5 32.5t-2 32t-14 27t-24.5 18.5t-31.5 6.5t-33 -6.5t-29 -18.5t-21.5 -27t-10.5 -32z" />
<glyph unicode="&#xbb;" horiz-adv-x="601" d="M94 77l13 95q19 17 37 33.5t38 33.5q-14 17 -28 33.5t-28 33.5l13 94q38 -41 74.5 -80.5t74.5 -80.5zM265 77l13 95q19 17 37 33.5t38 33.5q-14 17 -28 33t-28 33l13 95q38 -41 74.5 -80.5t74.5 -80.5z" />
<glyph unicode="&#xbc;" horiz-adv-x="968" d="M109 166l57 404h-49l8 57h108l-65 -461h-59zM203 -19q97 190 192 377.5t192 377.5h84q-97 -190 -192.5 -377.5t-192.5 -377.5h-83zM364 136q81 89 161 177t161 177l-42 -293h72l-8 -61h-72l-19 -136h-63l19 136h-209zM497 197h85l15 111q-25 -29 -50 -56t-50 -55z" />
<glyph unicode="&#xbd;" horiz-adv-x="1069" d="M109 166l57 404h-49l8 57h108l-65 -461h-59zM203 -19q97 190 192 377.5t192 377.5h84q-97 -190 -192.5 -377.5t-192.5 -377.5h-83zM365 0q50 44 97 85.5t84 80t61.5 75t29.5 70.5q4 26 -2 44.5t-17.5 30.5t-26 18t-27.5 6q-27 0 -45 -9.5t-30 -23t-18 -28.5t-7 -26 q-7 -46 17 -74l-20 -18t-21 -18q-10 8 -18 21t-12.5 28t-6 31t0.5 30q4 28 17.5 54.5t35.5 46.5t51 31.5t65 11.5q32 0 57.5 -12t41.5 -32.5t23 -47t3 -56.5q-5 -35 -22 -68t-41.5 -65.5t-55.5 -64.5t-64 -64h173l-9 -57h-314z" />
<glyph unicode="&#xbe;" horiz-adv-x="1276" d="M89 208q13 11 26.5 22t26.5 22q12 -17 30.5 -27t41.5 -10q22 0 42 8.5t36.5 23t27.5 33.5t14 41q3 21 -2.5 40t-18 33t-30.5 22t-39 8q-28 0 -53 -13q34 47 67.5 93.5t66.5 93.5h-147l9 64h255q-35 -47 -69 -92.5t-68 -91.5q24 -10 43 -25t31.5 -35t17.5 -44.5t1 -52.5 q-4 -35 -22.5 -65.5t-44.5 -53.5t-58.5 -36t-67.5 -13q-37 0 -66.5 15t-49.5 40zM393 -19q97 190 192 377.5t192 377.5h84q-97 -190 -192.5 -377.5t-192.5 -377.5h-83zM512 136q81 89 161 177t161 177l-42 -293h72l-8 -61h-72l-19 -136h-63l19 136h-209zM645 197h85l15 111 q-25 -29 -50 -56t-50 -55z" />
<glyph unicode="&#xbf;" horiz-adv-x="452" d="M7 2q8 56 40 97.5t83 75.5q15 10 32.5 20.5t33.5 24t27.5 32t15.5 45.5l11 78h84l-14 -97q-4 -32 -17.5 -52t-32 -35.5t-42 -29t-48.5 -31.5q-40 -27 -61.5 -59t-26.5 -69q-7 -49 19 -81.5t76 -32.5q56 0 87.5 25t53.5 74q17 -7 35 -13.5t35 -13.5q-10 -22 -27 -48.5 t-43.5 -49.5t-63.5 -39t-88 -16q-41 0 -75 15.5t-56.5 42t-33 62t-4.5 75.5zM258 487q3 23 21 37.5t37 14.5q20 0 34 -14.5t11 -37.5q-4 -23 -22 -38t-38 -15q-19 0 -33 15t-10 38z" />
<glyph unicode="&#xc0;" horiz-adv-x="740" d="M9 0q103 184 206.5 366t206.5 366l207 -732h-83q-20 69 -39 138.5t-39 138.5h-220q-39 -69 -78 -138.5t-78 -138.5h-83zM293 356h152q-11 40 -22.5 79.5t-22.5 79.5q-1 8 -1.5 16.5t-2.5 16.5q0 -2 -2 -6.5t-4.5 -10t-5 -10.5t-3.5 -6q-12 -23 -23 -42.5t-21.5 -38 t-21 -37.5t-22.5 -41zM299 883h83q18 -33 35.5 -66.5t35.5 -66.5h-59q-24 33 -47.5 66.5t-47.5 66.5z" />
<glyph unicode="&#xc1;" horiz-adv-x="740" d="M9 0q103 184 206.5 366t206.5 366l207 -732h-83q-20 69 -39 138.5t-39 138.5h-220q-39 -69 -78 -138.5t-78 -138.5h-83zM293 356h152q-11 40 -22.5 79.5t-22.5 79.5q-1 8 -1.5 16.5t-2.5 16.5q0 -2 -2 -6.5t-4.5 -10t-5 -10.5t-3.5 -6q-12 -23 -23 -42.5t-21.5 -38 t-21 -37.5t-22.5 -41zM391 750q27 33 54.5 66.5t54.5 66.5h84q-33 -33 -67 -66.5t-67 -66.5h-59z" />
<glyph unicode="&#xc2;" horiz-adv-x="740" d="M9 0q103 184 206.5 366t206.5 366l207 -732h-83q-20 69 -39 138.5t-39 138.5h-220q-39 -69 -78 -138.5t-78 -138.5h-83zM293 356h152q-11 40 -22.5 79.5t-22.5 79.5q-1 8 -1.5 16.5t-2.5 16.5q0 -2 -2 -6.5t-4.5 -10t-5 -10.5t-3.5 -6q-12 -23 -23 -42.5t-21.5 -38 t-21 -37.5t-22.5 -41zM303 750q36 45 72.5 90.5t72.5 90.5q24 -45 47.5 -90.5t47.5 -90.5h-59l-51 72q-17 -18 -35.5 -36t-35.5 -36h-59z" />
<glyph unicode="&#xc3;" horiz-adv-x="740" d="M9 0q103 184 206.5 366t206.5 366l207 -732h-83q-20 69 -39 138.5t-39 138.5h-220q-39 -69 -78 -138.5t-78 -138.5h-83zM265 768q4 20 15 36.5t26 28t31.5 17.5t31.5 6q23 0 40.5 -9t31.5 -24q13 -16 23.5 -21t24.5 -5q7 0 16 2t17.5 7t16 14t10.5 23q11 -1 22 -1.5 t22 -1.5q-4 -20 -15 -36.5t-25.5 -27.5t-31 -17t-31.5 -6q-23 0 -40.5 9t-31.5 23q-13 16 -24 21t-25 5t-33 -9t-26 -37zM293 356h152q-11 40 -22.5 79.5t-22.5 79.5q-1 8 -1.5 16.5t-2.5 16.5q0 -2 -2 -6.5t-4.5 -10t-5 -10.5t-3.5 -6q-12 -23 -23 -42.5t-21.5 -38 t-21 -37.5t-22.5 -41z" />
<glyph unicode="&#xc4;" horiz-adv-x="740" d="M9 0q103 184 206.5 366t206.5 366l207 -732h-83q-20 69 -39 138.5t-39 138.5h-220q-39 -69 -78 -138.5t-78 -138.5h-83zM293 356h152q-11 40 -22.5 79.5t-22.5 79.5q-1 8 -1.5 16.5t-2.5 16.5q0 -2 -2 -6.5t-4.5 -10t-5 -10.5t-3.5 -6q-12 -23 -23 -42.5t-21.5 -38 t-21 -37.5t-22.5 -41zM301 810q4 23 22 38t38 15q19 0 33 -15t10 -38q-3 -23 -21 -37.5t-37 -14.5q-20 0 -34 14.5t-11 37.5zM467 810q4 23 22 38t38 15q19 0 33 -15t10 -38q-3 -23 -21 -37.5t-37 -14.5q-20 0 -34 14.5t-11 37.5z" />
<glyph unicode="&#xc5;" horiz-adv-x="740" d="M9 0q103 184 206.5 366t206.5 366l207 -732h-83q-20 69 -39 138.5t-39 138.5h-220q-39 -69 -78 -138.5t-78 -138.5h-83zM293 356h152q-11 40 -22.5 79.5t-22.5 79.5q-1 8 -1.5 16.5t-2.5 16.5q0 -2 -2 -6.5t-4.5 -10t-5 -10.5t-3.5 -6q-12 -23 -23 -42.5t-21.5 -38 t-21 -37.5t-22.5 -41zM353 838q2 18 11.5 33.5t23 27.5t30 19t34.5 7t32.5 -7t25 -19t15 -27.5t2.5 -33.5q-3 -18 -12 -33.5t-23 -27.5t-30.5 -19t-34.5 -7t-32.5 7t-24.5 19t-15 27.5t-2 33.5zM407 837q-2 -14 6 -23t22 -9t24.5 9t12.5 23t-6 23.5t-22 9.5t-24.5 -9.5 t-12.5 -23.5z" />
<glyph unicode="&#xc6;" horiz-adv-x="800" d="M10 0q100 176 197.5 350t197.5 350h350l-11 -79h-253l-33 -229h214l-11 -79h-214l-33 -234h267l-11 -79h-350l37 264h-115l-74 -132t-75 -132h-83zM287 343h82l28 205q-21 -52 -51.5 -103t-58.5 -102z" />
<glyph unicode="&#xc7;" horiz-adv-x="670" d="M78 349q10 74 47.5 139.5t93 114t124.5 77t143 28.5q51 0 94.5 -13t81.5 -37q-14 -17 -28 -33.5t-28 -33.5q-28 18 -60.5 28t-70.5 10q-57 0 -110 -22t-95.5 -60.5t-71.5 -89.5t-37 -108t6.5 -108t46.5 -88.5t78.5 -59.5t103.5 -22q74 0 142 37l36 -66q-41 -22 -84.5 -35 t-90.5 -15q-2 -14 1 -22.5t9 -14t12.5 -9t12.5 -7.5q19 -16 24.5 -36t1.5 -45q-3 -21 -12.5 -40.5t-24.5 -34.5t-36 -24t-47 -9q-34 0 -59.5 18.5t-33.5 56.5q12 6 24.5 12t24.5 12q3 -16 14.5 -26.5t31.5 -10.5q24 0 39 16t19 40q3 20 -6.5 31.5t-21 20.5t-21 19t-6.5 27 l3 28q-66 7 -120.5 37t-91 77.5t-52.5 109.5t-6 131z" />
<glyph unicode="&#xc8;" horiz-adv-x="601" d="M19 0l99 700h431l-11 -79h-348l-33 -229h309l-11 -79h-309l-33 -234h362l-11 -79h-445zM215 883h83q18 -33 35.5 -66.5t35.5 -66.5h-59q-24 33 -47.5 66.5t-47.5 66.5z" />
<glyph unicode="&#xc9;" horiz-adv-x="601" d="M19 0l99 700h431l-11 -79h-348l-33 -229h309l-11 -79h-309l-33 -234h362l-11 -79h-445zM298 750q27 33 54.5 66.5t54.5 66.5h84q-33 -33 -67 -66.5t-67 -66.5h-59z" />
<glyph unicode="&#xca;" horiz-adv-x="601" d="M19 0l99 700h431l-11 -79h-348l-33 -229h309l-11 -79h-309l-33 -234h362l-11 -79h-445zM243 750q36 45 72.5 90.5t72.5 90.5q24 -45 47.5 -90.5t47.5 -90.5h-59l-51 72q-17 -18 -35.5 -36t-35.5 -36h-59z" />
<glyph unicode="&#xcb;" horiz-adv-x="601" d="M19 0l99 700h431l-11 -79h-348l-33 -229h309l-11 -79h-309l-33 -234h362l-11 -79h-445zM227 810q4 23 22 38t38 15q19 0 33 -15t10 -38q-3 -23 -21 -37.5t-37 -14.5q-20 0 -34 14.5t-11 37.5zM393 810q4 23 22 38t38 15q19 0 33 -15t10 -38q-3 -23 -21 -37.5t-37 -14.5 q-20 0 -34 14.5t-11 37.5z" />
<glyph unicode="&#xcc;" horiz-adv-x="236" d="M49 0l99 700h83l-99 -700h-83zM59 883h83q18 -33 35.5 -66.5t35.5 -66.5h-59q-24 33 -47.5 66.5t-47.5 66.5z" />
<glyph unicode="&#xcd;" horiz-adv-x="236" d="M49 0l99 700h83l-99 -700h-83zM156 750q27 33 54.5 66.5t54.5 66.5h84q-33 -33 -67 -66.5t-67 -66.5h-59z" />
<glyph unicode="&#xce;" horiz-adv-x="286" d="M49 0l99 700h83l-99 -700h-83zM84 750q36 45 72.5 90.5t72.5 90.5q24 -45 47.5 -90.5t47.5 -90.5h-59l-51 72q-17 -18 -35.5 -36t-35.5 -36h-59z" />
<glyph unicode="&#xcf;" horiz-adv-x="236" d="M49 0l99 700h83l-99 -700h-83zM55 810q4 23 22 38t38 15q19 0 33 -15t10 -38q-3 -23 -21 -37.5t-37 -14.5q-20 0 -34 14.5t-11 37.5zM221 810q4 23 22 38t38 15q19 0 33 -15t10 -38q-3 -23 -21 -37.5t-37 -14.5q-20 0 -34 14.5t-11 37.5z" />
<glyph unicode="&#xd0;" horiz-adv-x="646" d="M10 0l44 309h-38l11 81h38l44 310h152q79 0 147 -24.5t115 -70t69 -110.5t11 -145q-9 -63 -39.5 -125.5t-88 -112.5t-144.5 -81t-208 -31h-113zM104 79h75q66 0 124.5 18.5t103.5 53t74.5 85t38.5 114.5q9 62 -7.5 112.5t-52 86t-88 54.5t-116.5 19h-75l-33 -232h181 l-11 -81h-181z" />
<glyph unicode="&#xd1;" horiz-adv-x="813" d="M50 0l103 732q109 -140 217 -277.5t217 -277.5q4 -7 8 -13t8 -13v16t1 16l73 517h83l-103 -732q-110 137 -218 272t-218 272q-3 7 -7 13t-8 13q-1 -8 -1 -16t-1 -16l-71 -506h-83zM313 756q4 20 15 36.5t26 28t31.5 17.5t31.5 6q23 0 40.5 -9t31.5 -24q13 -16 23.5 -21 t24.5 -5q7 0 16 2t17.5 7t16 14t10.5 23q11 -1 22 -1.5t22 -1.5q-4 -20 -15 -36.5t-25.5 -27.5t-31 -17t-31.5 -6q-23 0 -40.5 9t-31.5 23q-13 16 -24 21t-25 5t-33 -9t-26 -37z" />
<glyph unicode="&#xd2;" horiz-adv-x="839" d="M59 349q10 73 47.5 138.5t93 114.5t124.5 77.5t143 28.5q73 0 134.5 -28.5t103.5 -77.5t61 -114.5t9 -138.5q-10 -74 -47.5 -139t-93.5 -113.5t-125.5 -76.5t-142.5 -28q-74 0 -135 28t-102.5 76.5t-60.5 113.5t-9 139zM142 349q-8 -58 6.5 -108.5t46.5 -88t79 -59.5 t104 -22t110 22t95.5 59.5t71.5 88t37 108.5t-6.5 108.5t-46.5 88.5t-78.5 60t-103.5 22t-110.5 -22t-96 -60t-71.5 -88.5t-37 -108.5zM345 883h83q18 -33 35.5 -66.5t35.5 -66.5h-59q-24 33 -47.5 66.5t-47.5 66.5z" />
<glyph unicode="&#xd3;" horiz-adv-x="840" d="M59 349q10 73 47.5 138.5t93 114.5t124.5 77.5t143 28.5q73 0 134.5 -28.5t103.5 -77.5t61 -114.5t9 -138.5q-10 -74 -47.5 -139t-93.5 -113.5t-125.5 -76.5t-142.5 -28q-74 0 -135 28t-102.5 76.5t-60.5 113.5t-9 139zM142 349q-8 -58 6.5 -108.5t46.5 -88t79 -59.5 t104 -22t110 22t95.5 59.5t71.5 88t37 108.5t-6.5 108.5t-46.5 88.5t-78.5 60t-103.5 22t-110.5 -22t-96 -60t-71.5 -88.5t-37 -108.5zM447 750q27 33 54.5 66.5t54.5 66.5h84q-33 -33 -67 -66.5t-67 -66.5h-59z" />
<glyph unicode="&#xd4;" horiz-adv-x="839" d="M59 349q10 73 47.5 138.5t93 114.5t124.5 77.5t143 28.5q73 0 134.5 -28.5t103.5 -77.5t61 -114.5t9 -138.5q-10 -74 -47.5 -139t-93.5 -113.5t-125.5 -76.5t-142.5 -28q-74 0 -135 28t-102.5 76.5t-60.5 113.5t-9 139zM142 349q-8 -58 6.5 -108.5t46.5 -88t79 -59.5 t104 -22t110 22t95.5 59.5t71.5 88t37 108.5t-6.5 108.5t-46.5 88.5t-78.5 60t-103.5 22t-110.5 -22t-96 -60t-71.5 -88.5t-37 -108.5zM358 750q36 45 72.5 90.5t72.5 90.5q24 -45 47.5 -90.5t47.5 -90.5h-59l-51 72q-17 -18 -35.5 -36t-35.5 -36h-59z" />
<glyph unicode="&#xd5;" horiz-adv-x="839" d="M59 349q10 73 47.5 138.5t93 114.5t124.5 77.5t143 28.5q73 0 134.5 -28.5t103.5 -77.5t61 -114.5t9 -138.5q-10 -74 -47.5 -139t-93.5 -113.5t-125.5 -76.5t-142.5 -28q-74 0 -135 28t-102.5 76.5t-60.5 113.5t-9 139zM142 349q-8 -58 6.5 -108.5t46.5 -88t79 -59.5 t104 -22t110 22t95.5 59.5t71.5 88t37 108.5t-6.5 108.5t-46.5 88.5t-78.5 60t-103.5 22t-110.5 -22t-96 -60t-71.5 -88.5t-37 -108.5zM307 791q4 20 15 36.5t26 28t31.5 17.5t31.5 6q23 0 40.5 -9t31.5 -24q13 -16 23.5 -21t24.5 -5q7 0 16 2t17.5 7t16 14t10.5 23 q11 -1 22 -1.5t22 -1.5q-4 -20 -15 -36.5t-25.5 -27.5t-31 -17t-31.5 -6q-23 0 -40.5 9t-31.5 23q-13 16 -24 21t-25 5t-33 -9t-26 -37z" />
<glyph unicode="&#xd6;" horiz-adv-x="839" d="M59 349q10 73 47.5 138.5t93 114.5t124.5 77.5t143 28.5q73 0 134.5 -28.5t103.5 -77.5t61 -114.5t9 -138.5q-10 -74 -47.5 -139t-93.5 -113.5t-125.5 -76.5t-142.5 -28q-74 0 -135 28t-102.5 76.5t-60.5 113.5t-9 139zM142 349q-8 -58 6.5 -108.5t46.5 -88t79 -59.5 t104 -22t110 22t95.5 59.5t71.5 88t37 108.5t-6.5 108.5t-46.5 88.5t-78.5 60t-103.5 22t-110.5 -22t-96 -60t-71.5 -88.5t-37 -108.5zM336 810q4 23 22 38t38 15q19 0 33 -15t10 -38q-3 -23 -21 -37.5t-37 -14.5q-20 0 -34 14.5t-11 37.5zM502 810q4 23 22 38t38 15 q19 0 33 -15t10 -38q-3 -23 -21 -37.5t-37 -14.5q-20 0 -34 14.5t-11 37.5z" />
<glyph unicode="&#xd7;" horiz-adv-x="500" d="M96 58q28 25 55.5 49t55.5 49l-85 99l68 59l85 -99q28 25 55.5 49t55.5 49q13 -14 25 -29t24 -29q-27 -24 -55 -48.5t-55 -48.5q21 -25 41.5 -49.5t42.5 -49.5l-68 -59q-21 25 -42 49t-43 49q-27 -24 -55 -48.5t-55 -48.5q-13 14 -25.5 28.5t-24.5 28.5z" />
<glyph unicode="&#xd8;" horiz-adv-x="840" d="M55 34q17 17 34 34.5t35 34.5q-38 48 -55.5 111t-7.5 135q10 74 47.5 139.5t93 114t124.5 77t143 28.5q57 0 106 -17t89 -47q18 19 37 37.5t37 37.5l51 -51q-18 -19 -37 -37t-37 -37q38 -48 55 -111t7 -134q-10 -74 -47.5 -139t-93 -113.5t-125 -76.5t-143.5 -28 q-57 0 -105.5 16t-86.5 45q-18 -17 -35.5 -35t-34.5 -35zM144 349q-8 -53 3.5 -99.5t38.5 -83.5l416 416q-30 22 -66 34.5t-78 12.5q-57 0 -110 -22t-95.5 -60.5t-71.5 -89.5t-37 -108zM237 115q29 -21 64.5 -32.5t77.5 -11.5q57 0 110 22t96 59.5t72 88.5t37 108 q8 52 -4 98.5t-38 83.5q-105 -105 -207.5 -208t-207.5 -208z" />
<glyph unicode="&#xd9;" horiz-adv-x="652" d="M59 226l66 474h83l-66 -471q-5 -38 3.5 -67.5t28 -49.5t49 -30.5t66.5 -10.5q74 0 127.5 40.5t64.5 117.5l66 471h83l-66 -474q-8 -57 -33.5 -101t-64 -73.5t-86.5 -44.5t-102 -15t-98 15t-73.5 44.5t-42.5 73.5t-5 101zM246 883h83q18 -33 35.5 -66.5t35.5 -66.5h-59 q-24 33 -47.5 66.5t-47.5 66.5z" />
<glyph unicode="&#xda;" horiz-adv-x="652" d="M59 226l66 474h83l-66 -471q-5 -38 3.5 -67.5t28 -49.5t49 -30.5t66.5 -10.5q74 0 127.5 40.5t64.5 117.5l66 471h83l-66 -474q-8 -57 -33.5 -101t-64 -73.5t-86.5 -44.5t-102 -15t-98 15t-73.5 44.5t-42.5 73.5t-5 101zM352 750q27 33 54.5 66.5t54.5 66.5h84 q-33 -33 -67 -66.5t-67 -66.5h-59z" />
<glyph unicode="&#xdb;" horiz-adv-x="652" d="M59 226l66 474h83l-66 -471q-5 -38 3.5 -67.5t28 -49.5t49 -30.5t66.5 -10.5q74 0 127.5 40.5t64.5 117.5l66 471h83l-66 -474q-8 -57 -33.5 -101t-64 -73.5t-86.5 -44.5t-102 -15t-98 15t-73.5 44.5t-42.5 73.5t-5 101zM266 751q36 45 72.5 90.5t72.5 90.5 q24 -45 47.5 -90.5t47.5 -90.5h-59l-51 72q-17 -18 -35.5 -36t-35.5 -36h-59z" />
<glyph unicode="&#xdc;" horiz-adv-x="652" d="M59 226l66 474h83l-66 -471q-5 -38 3.5 -67.5t28 -49.5t49 -30.5t66.5 -10.5q74 0 127.5 40.5t64.5 117.5l66 471h83l-66 -474q-8 -57 -33.5 -101t-64 -73.5t-86.5 -44.5t-102 -15t-98 15t-73.5 44.5t-42.5 73.5t-5 101zM261 810q4 23 22 38t38 15q19 0 33 -15t10 -38 q-3 -23 -21 -37.5t-37 -14.5q-20 0 -34 14.5t-11 37.5zM427 810q4 23 22 38t38 15q19 0 33 -15t10 -38q-3 -23 -21 -37.5t-37 -14.5q-20 0 -34 14.5t-11 37.5z" />
<glyph unicode="&#xdd;" horiz-adv-x="638" d="M61 700h102q37 -81 73 -161.5t73 -161.5q2 -8 3.5 -15.5t3.5 -15.5h1q4 8 8 15.5t8 15.5q60 81 118.5 161.5t118.5 161.5h102q-80 -109 -158 -215.5t-157 -215.5l-38 -269h-102l38 270q-49 108 -97 215t-97 215zM341 750q27 33 54.5 66.5t54.5 66.5h84q-33 -33 -67 -66.5 t-67 -66.5h-59z" />
<glyph unicode="&#xde;" horiz-adv-x="501" d="M50 0l99 700h83l-23 -165h82q34 0 74 -10.5t72.5 -33.5t51.5 -59t12 -87q-13 -91 -74.5 -144.5t-163.5 -53.5h-109l-21 -147h-83zM165 227h87q44 0 74.5 11.5t50 28.5t29 38t12.5 40q3 22 -5.5 42.5t-26 36t-43.5 24.5t-57 9h-88z" />
<glyph unicode="&#xdf;" horiz-adv-x="573" d="M10 334l11 81h64l1 8q8 54 31.5 97.5t56.5 74t73.5 46.5t81.5 16q33 0 60.5 -12.5t46 -34.5t27 -51t4.5 -62q-5 -32 -20.5 -59.5t-38.5 -47.5q42 -29 63.5 -76.5t13.5 -105.5q-6 -45 -29 -84.5t-57 -69t-76 -46.5t-87 -17q-47 0 -84 18q11 19 22.5 37t22.5 37 q24 -11 50 -11q28 0 54 11t47.5 29.5t35.5 43t18 52.5t-3.5 52.5t-23.5 42.5t-39.5 28.5t-51.5 10.5h-1q2 10 2.5 19.5t2.5 20.5l5 41q34 0 60 19.5t31 54.5q2 16 -1.5 30.5t-12.5 25.5t-22 17t-29 6q-57 -3 -98.5 -43.5t-51.5 -114.5l-59 -418h-83l47 334h-64z" />
<glyph unicode="&#xe0;" horiz-adv-x="551" d="M75 187q6 43 26 79t51 62t70 41t81 15q27 0 49 -8t37.5 -17.5t24.5 -18.5t9 -12q2 11 5 23t5 24h69l-52 -375h-73l4 32q0 2 0.5 4.5t0.5 4.5q-1 -3 -10.5 -11t-27 -16.5t-42 -15.5t-54.5 -7q-42 0 -76.5 15.5t-58 42.5t-34 62.5t-4.5 75.5zM159 188q-7 -49 21 -82.5 t80 -33.5q26 0 48.5 9t40.5 24.5t29.5 37t14.5 45.5q7 50 -21 82.5t-80 32.5q-26 0 -48.5 -8.5t-40.5 -24t-29.5 -36.5t-14.5 -46zM186 612h83q18 -33 35.5 -66.5t35.5 -66.5h-59q-24 33 -47.5 66.5t-47.5 66.5z" />
<glyph unicode="&#xe1;" horiz-adv-x="551" d="M75 187q6 43 26 79t51 62t70 41t81 15q27 0 49 -8t37.5 -17.5t24.5 -18.5t9 -12q2 11 5 23t5 24h69l-52 -375h-73l4 32q0 2 0.5 4.5t0.5 4.5q-1 -3 -10.5 -11t-27 -16.5t-42 -15.5t-54.5 -7q-42 0 -76.5 15.5t-58 42.5t-34 62.5t-4.5 75.5zM159 188q-7 -49 21 -82.5 t80 -33.5q26 0 48.5 9t40.5 24.5t29.5 37t14.5 45.5q7 50 -21 82.5t-80 32.5q-26 0 -48.5 -8.5t-40.5 -24t-29.5 -36.5t-14.5 -46zM299 479q27 33 54.5 66.5t54.5 66.5h84q-33 -33 -67 -66.5t-67 -66.5h-59z" />
<glyph unicode="&#xe2;" horiz-adv-x="551" d="M75 187q6 43 26 79t51 62t70 41t81 15q27 0 49 -8t37.5 -17.5t24.5 -18.5t9 -12q2 11 5 23t5 24h69l-52 -375h-73l4 32q0 2 0.5 4.5t0.5 4.5q-1 -3 -10.5 -11t-27 -16.5t-42 -15.5t-54.5 -7q-42 0 -76.5 15.5t-58 42.5t-34 62.5t-4.5 75.5zM159 188q-7 -49 21 -82.5 t80 -33.5q26 0 48.5 9t40.5 24.5t29.5 37t14.5 45.5q7 50 -21 82.5t-80 32.5q-26 0 -48.5 -8.5t-40.5 -24t-29.5 -36.5t-14.5 -46zM205 479q36 45 72.5 90.5t72.5 90.5q24 -45 47.5 -90.5t47.5 -90.5h-59l-51 72q-17 -18 -35.5 -36t-35.5 -36h-59z" />
<glyph unicode="&#xe3;" horiz-adv-x="551" d="M75 187q6 43 26 79t51 62t70 41t81 15q27 0 49 -8t37.5 -17.5t24.5 -18.5t9 -12q2 11 5 23t5 24h69l-52 -375h-73l4 32q0 2 0.5 4.5t0.5 4.5q-1 -3 -10.5 -11t-27 -16.5t-42 -15.5t-54.5 -7q-42 0 -76.5 15.5t-58 42.5t-34 62.5t-4.5 75.5zM159 188q-7 -49 21 -82.5 t80 -33.5q26 0 48.5 9t40.5 24.5t29.5 37t14.5 45.5q7 50 -21 82.5t-80 32.5q-26 0 -48.5 -8.5t-40.5 -24t-29.5 -36.5t-14.5 -46zM161 464q4 20 15 36.5t26 28t31.5 17.5t31.5 6q23 0 40.5 -9t31.5 -24q13 -16 23.5 -21t24.5 -5q7 0 16 2t17.5 7t16 14t10.5 23 q11 -1 22 -1.5t22 -1.5q-4 -20 -15 -36.5t-25.5 -27.5t-31 -17t-31.5 -6q-23 0 -40.5 9t-31.5 23q-13 16 -24 21t-25 5t-33 -9t-26 -37z" />
<glyph unicode="&#xe4;" horiz-adv-x="551" d="M75 187q6 43 26 79t51 62t70 41t81 15q27 0 49 -8t37.5 -17.5t24.5 -18.5t9 -12q2 11 5 23t5 24h69l-52 -375h-73l4 32q0 2 0.5 4.5t0.5 4.5q-1 -3 -10.5 -11t-27 -16.5t-42 -15.5t-54.5 -7q-42 0 -76.5 15.5t-58 42.5t-34 62.5t-4.5 75.5zM159 188q-7 -49 21 -82.5 t80 -33.5q26 0 48.5 9t40.5 24.5t29.5 37t14.5 45.5q7 50 -21 82.5t-80 32.5q-26 0 -48.5 -8.5t-40.5 -24t-29.5 -36.5t-14.5 -46zM190 520q4 23 22 38t38 15q19 0 33 -15t10 -38q-3 -23 -21 -37.5t-37 -14.5q-20 0 -34 14.5t-11 37.5zM356 520q4 23 22 38t38 15 q19 0 33 -15t10 -38q-3 -23 -21 -37.5t-37 -14.5q-20 0 -34 14.5t-11 37.5z" />
<glyph unicode="&#xe5;" horiz-adv-x="551" d="M75 187q6 43 26 79t51 62t70 41t81 15q27 0 49 -8t37.5 -17.5t24.5 -18.5t9 -12q2 11 5 23t5 24h69l-52 -375h-73l4 32q0 2 0.5 4.5t0.5 4.5q-1 -3 -10.5 -11t-27 -16.5t-42 -15.5t-54.5 -7q-42 0 -76.5 15.5t-58 42.5t-34 62.5t-4.5 75.5zM159 188q-7 -49 21 -82.5 t80 -33.5q26 0 48.5 9t40.5 24.5t29.5 37t14.5 45.5q7 50 -21 82.5t-80 32.5q-26 0 -48.5 -8.5t-40.5 -24t-29.5 -36.5t-14.5 -46zM238 540q3 18 12 33.5t23 27.5t30.5 19t34.5 7t32.5 -7t24.5 -19t15 -27.5t2 -33.5q-2 -18 -11.5 -33.5t-23 -27.5t-30 -19t-34.5 -7t-32.5 7 t-25 19t-15 27.5t-2.5 33.5zM293 539q-2 -14 6 -23t22 -9t24.5 9t12.5 23t-6 23.5t-22 9.5t-24.5 -9.5t-12.5 -23.5z" />
<glyph unicode="&#xe6;" horiz-adv-x="629" d="M32 112q4 31 19.5 52.5t37 34t48.5 18t54 5.5h89l4 24q4 29 -7 43.5t-57 14.5q-26 0 -57.5 -8.5t-48.5 -19.5q-10 14 -18.5 26.5t-18.5 26.5q13 11 31.5 21.5t39.5 18t43 12t41 4.5q78 0 109 -22q47 22 96 22q31 0 57.5 -12.5t46.5 -34.5t32.5 -52.5t16.5 -66.5 q-60 -21 -119 -42t-119 -42l-1 -4q-3 -24 -11 -47q21 -11 53 -11q23 0 43.5 8.5t37.5 23.5l42 -60q-28 -25 -62 -39t-72 -14q-53 0 -95 25q-40 -25 -112 -25q-36 0 -64.5 5.5t-47.5 19.5t-27.5 37t-3.5 58zM115 108q-2 -11 4 -17.5t16 -10.5t23 -5.5t27 -1.5q11 0 24 0.5 t24.5 3.5t20 10.5t10.5 22.5l4 26h-56q-14 0 -30.5 -1t-31 -4t-24.5 -8.5t-11 -14.5zM364 222q32 11 63 22t63 22q-11 17 -27 27.5t-37 10.5q-30 0 -55 -11q0 -11 -1 -23t-3 -26z" />
<glyph unicode="&#xe7;" horiz-adv-x="395" d="M53 188q6 40 26.5 76t51 62.5t69 42t80.5 15.5q37 0 67.5 -11.5t53.5 -31.5q-15 -16 -30.5 -31t-30.5 -31q-29 24 -71 24q-26 0 -48.5 -8.5t-40.5 -24t-29.5 -36.5t-14.5 -46q-4 -24 1.5 -45.5t19 -37t33.5 -24.5t46 -9q43 0 79 25q11 -16 20.5 -31.5t20.5 -31.5 q-29 -20 -62.5 -31.5t-69.5 -11.5q-2 -14 1.5 -22t9 -13.5t12 -9t12.5 -7.5q19 -16 24.5 -36t1.5 -45q-5 -34 -26 -62.5t-56 -39.5q-18 -6 -38 -6q-34 0 -60 18.5t-34 56.5q13 6 25.5 12t24.5 12q3 -16 14.5 -26.5t31.5 -10.5q24 0 39 16t19 40q3 20 -6.5 31.5t-21 20.5 t-21 19t-7.5 27l5 32q-31 8 -55.5 26t-41 43t-23 56t-1.5 65z" />
<glyph unicode="&#xe8;" horiz-adv-x="451" d="M62 188q6 46 26 82.5t50.5 61.5t69 38.5t81.5 13.5q31 0 57.5 -12.5t46.5 -34.5t32.5 -52.5t16.5 -66.5l-142 -50t-143 -50q12 -21 35 -33.5t54 -12.5q23 0 43 8.5t37 23.5q11 -15 21.5 -30t21.5 -30q-29 -25 -63 -39t-72 -14q-42 0 -76 15.5t-57.5 42.5t-34 62.5 t-4.5 76.5zM146 196q49 17 98.5 34.5t98.5 34.5q-11 17 -27.5 27.5t-37.5 10.5q-40 0 -71.5 -20t-48.5 -52q-5 -8 -7.5 -17t-4.5 -18zM155 612h83q18 -33 35.5 -66.5t35.5 -66.5h-59q-24 33 -47.5 66.5t-47.5 66.5z" />
<glyph unicode="&#xe9;" horiz-adv-x="451" d="M62 188q6 46 26 82.5t50.5 61.5t69 38.5t81.5 13.5q31 0 57.5 -12.5t46.5 -34.5t32.5 -52.5t16.5 -66.5l-142 -50t-143 -50q12 -21 35 -33.5t54 -12.5q23 0 43 8.5t37 23.5q11 -15 21.5 -30t21.5 -30q-29 -25 -63 -39t-72 -14q-42 0 -76 15.5t-57.5 42.5t-34 62.5 t-4.5 76.5zM146 196q49 17 98.5 34.5t98.5 34.5q-11 17 -27.5 27.5t-37.5 10.5q-40 0 -71.5 -20t-48.5 -52q-5 -8 -7.5 -17t-4.5 -18zM263 479q27 33 54.5 66.5t54.5 66.5h84q-33 -33 -67 -66.5t-67 -66.5h-59z" />
<glyph unicode="&#xea;" horiz-adv-x="451" d="M62 188q6 46 26 82.5t50.5 61.5t69 38.5t81.5 13.5q31 0 57.5 -12.5t46.5 -34.5t32.5 -52.5t16.5 -66.5l-142 -50t-143 -50q12 -21 35 -33.5t54 -12.5q23 0 43 8.5t37 23.5q11 -15 21.5 -30t21.5 -30q-29 -25 -63 -39t-72 -14q-42 0 -76 15.5t-57.5 42.5t-34 62.5 t-4.5 76.5zM146 196q49 17 98.5 34.5t98.5 34.5q-11 17 -27.5 27.5t-37.5 10.5q-40 0 -71.5 -20t-48.5 -52q-5 -8 -7.5 -17t-4.5 -18zM179 479q36 45 72.5 90.5t72.5 90.5q24 -45 47.5 -90.5t47.5 -90.5h-59l-51 72q-17 -18 -35.5 -36t-35.5 -36h-59z" />
<glyph unicode="&#xeb;" horiz-adv-x="451" d="M62 188q6 46 26 82.5t50.5 61.5t69 38.5t81.5 13.5q31 0 57.5 -12.5t46.5 -34.5t32.5 -52.5t16.5 -66.5l-142 -50t-143 -50q12 -21 35 -33.5t54 -12.5q23 0 43 8.5t37 23.5q11 -15 21.5 -30t21.5 -30q-29 -25 -63 -39t-72 -14q-42 0 -76 15.5t-57.5 42.5t-34 62.5 t-4.5 76.5zM146 196q49 17 98.5 34.5t98.5 34.5q-11 17 -27.5 27.5t-37.5 10.5q-40 0 -71.5 -20t-48.5 -52q-5 -8 -7.5 -17t-4.5 -18zM159 520q4 23 22 38t38 15q19 0 33 -15t10 -38q-3 -23 -21 -37.5t-37 -14.5q-20 0 -34 14.5t-11 37.5zM325 520q4 23 22 38t38 15 q19 0 33 -15t10 -38q-3 -23 -21 -37.5t-37 -14.5q-20 0 -34 14.5t-11 37.5z" />
<glyph unicode="&#xec;" horiz-adv-x="174" d="M35 612h83q18 -33 35.5 -66.5t35.5 -66.5h-59q-24 33 -47.5 66.5t-47.5 66.5zM58 0l52 375h83l-52 -375h-83z" />
<glyph unicode="&#xed;" horiz-adv-x="194" d="M58 0l52 375h83l-52 -375h-83zM137 479q27 33 54.5 66.5t54.5 66.5h84q-33 -33 -67 -66.5t-67 -66.5h-59z" />
<glyph unicode="&#xee;" horiz-adv-x="239" d="M56 479q36 45 72.5 90.5t72.5 90.5q24 -45 47.5 -90.5t47.5 -90.5h-59l-51 72q-17 -18 -35.5 -36t-35.5 -36h-59zM75 0l52 375h83l-52 -375h-83z" />
<glyph unicode="&#xef;" horiz-adv-x="271" d="M70 520q4 23 22 38t38 15q19 0 33 -15t10 -38q-3 -23 -21 -37.5t-37 -14.5q-20 0 -34 14.5t-11 37.5zM99 0l52 375h83l-52 -375h-83zM236 520q4 23 22 38t38 15q19 0 33 -15t10 -38q-3 -23 -21 -37.5t-37 -14.5q-20 0 -34 14.5t-11 37.5z" />
<glyph unicode="&#xf0;" horiz-adv-x="493" d="M31 185q4 40 24 76.5t50.5 63.5t69 43.5t80.5 17.5q32 1 62 -8q-7 40 -22 77.5t-36 72.5q-13 -13 -27 -25t-28 -25q-12 14 -25 26.5t-25 26.5q17 15 32.5 30t31.5 30q-35 50 -79 92q17 14 34.5 27.5t34.5 27.5q41 -35 78 -83q14 13 26.5 25t25.5 25q13 -13 26 -25.5 t25 -25.5q-16 -15 -31 -29.5t-31 -29.5q25 -41 46.5 -90t36 -101t20.5 -105t-1 -102q-4 -41 -23 -77t-48 -63.5t-67 -44.5t-80 -18t-76.5 13.5t-59 40.5t-36.5 61t-8 76zM111 188q-3 -25 3 -46t20 -36t34.5 -23.5t46.5 -7.5t48.5 10.5t40 25.5t28.5 37.5t14 45.5 q4 50 -24.5 81.5t-80.5 30.5q-53 -2 -89 -35t-41 -83z" />
<glyph unicode="&#xf1;" horiz-adv-x="523" d="M82 0l52 375h73l-1 -9q-2 -24 -2.5 -43.5t-2.5 -43.5q27 48 75 76.5t102 28.5q59 0 89 -31t25 -81l-38 -272h-83l32 234q2 27 -12.5 46.5t-52.5 21.5q-26 0 -51 -9t-45 -25t-34 -38t-18 -48l-25 -182h-83zM185 458q4 20 15 36.5t26 28t31.5 17.5t31.5 6q23 0 40.5 -9 t31.5 -24q13 -16 23.5 -21t24.5 -5q7 0 16 2t17.5 7t16 14t10.5 23q11 -1 22 -1.5t22 -1.5q-4 -20 -15 -36.5t-25.5 -27.5t-31 -17t-31.5 -6q-23 0 -40.5 9t-31.5 23q-13 16 -24 21t-25 5t-33 -9t-26 -37z" />
<glyph unicode="&#xf2;" horiz-adv-x="469" d="M62 188q6 47 26.5 83.5t51 61.5t69 38t80.5 13t77 -15.5t58 -42t34 -62.5t5 -76q-6 -44 -26.5 -80t-51.5 -62t-70 -40.5t-81 -14.5t-76 15.5t-57.5 42.5t-34 62.5t-4.5 76.5zM145 187q-3 -24 3 -45t19.5 -36.5t33 -24.5t43.5 -9t46.5 9t40.5 24.5t30 36.5t15 45t-3 45 t-19.5 37t-33.5 25t-44 9t-46 -9t-40 -25t-30 -37t-15 -45zM171 612h83q18 -33 35.5 -66.5t35.5 -66.5h-59q-24 33 -47.5 66.5t-47.5 66.5z" />
<glyph unicode="&#xf3;" horiz-adv-x="469" d="M62 188q6 47 26.5 83.5t51 61.5t69 38t80.5 13t77 -15.5t58 -42t34 -62.5t5 -76q-6 -44 -26.5 -80t-51.5 -62t-70 -40.5t-81 -14.5t-76 15.5t-57.5 42.5t-34 62.5t-4.5 76.5zM145 187q-3 -24 3 -45t19.5 -36.5t33 -24.5t43.5 -9t46.5 9t40.5 24.5t30 36.5t15 45t-3 45 t-19.5 37t-33.5 25t-44 9t-46 -9t-40 -25t-30 -37t-15 -45zM294 479q27 33 54.5 66.5t54.5 66.5h84q-33 -33 -67 -66.5t-67 -66.5h-59z" />
<glyph unicode="&#xf4;" horiz-adv-x="469" d="M62 188q6 47 26.5 83.5t51 61.5t69 38t80.5 13t77 -15.5t58 -42t34 -62.5t5 -76q-6 -44 -26.5 -80t-51.5 -62t-70 -40.5t-81 -14.5t-76 15.5t-57.5 42.5t-34 62.5t-4.5 76.5zM145 187q-3 -24 3 -45t19.5 -36.5t33 -24.5t43.5 -9t46.5 9t40.5 24.5t30 36.5t15 45t-3 45 t-19.5 37t-33.5 25t-44 9t-46 -9t-40 -25t-30 -37t-15 -45zM174 479q36 45 72.5 90.5t72.5 90.5q24 -45 47.5 -90.5t47.5 -90.5h-59l-51 72q-17 -18 -35.5 -36t-35.5 -36h-59z" />
<glyph unicode="&#xf5;" horiz-adv-x="469" d="M62 188q6 47 26.5 83.5t51 61.5t69 38t80.5 13t77 -15.5t58 -42t34 -62.5t5 -76q-6 -44 -26.5 -80t-51.5 -62t-70 -40.5t-81 -14.5t-76 15.5t-57.5 42.5t-34 62.5t-4.5 76.5zM130 464q4 20 15 36.5t26 28t31.5 17.5t31.5 6q23 0 40.5 -9t31.5 -24q13 -16 23.5 -21 t24.5 -5q7 0 16 2t17.5 7t16 14t10.5 23q11 -1 22 -1.5t22 -1.5q-4 -20 -15 -36.5t-25.5 -27.5t-31 -17t-31.5 -6q-23 0 -40.5 9t-31.5 23q-13 16 -24 21t-25 5t-33 -9t-26 -37zM145 187q-3 -24 3 -45t19.5 -36.5t33 -24.5t43.5 -9t46.5 9t40.5 24.5t30 36.5t15 45t-3 45 t-19.5 37t-33.5 25t-44 9t-46 -9t-40 -25t-30 -37t-15 -45z" />
<glyph unicode="&#xf6;" horiz-adv-x="469" d="M62 188q6 47 26.5 83.5t51 61.5t69 38t80.5 13t77 -15.5t58 -42t34 -62.5t5 -76q-6 -44 -26.5 -80t-51.5 -62t-70 -40.5t-81 -14.5t-76 15.5t-57.5 42.5t-34 62.5t-4.5 76.5zM145 187q-3 -24 3 -45t19.5 -36.5t33 -24.5t43.5 -9t46.5 9t40.5 24.5t30 36.5t15 45t-3 45 t-19.5 37t-33.5 25t-44 9t-46 -9t-40 -25t-30 -37t-15 -45zM159 520q4 23 22 38t38 15q19 0 33 -15t10 -38q-3 -23 -21 -37.5t-37 -14.5q-20 0 -34 14.5t-11 37.5zM325 520q4 23 22 38t38 15q19 0 33 -15t10 -38q-3 -23 -21 -37.5t-37 -14.5q-20 0 -34 14.5t-11 37.5z" />
<glyph unicode="&#xf7;" horiz-adv-x="501" d="M62 206l11 81h360l-11 -81h-360zM181 123q3 23 21 38t38 15q19 0 33 -15t11 -38t-21 -37.5t-37 -14.5q-20 0 -34 14.5t-11 37.5zM216 373q3 23 21 38t38 15q19 0 33 -15t11 -38t-21 -37.5t-37 -14.5q-20 0 -34 14.5t-11 37.5z" />
<glyph unicode="&#xf8;" horiz-adv-x="469" d="M14 12q12 13 24.5 25t25.5 25q-18 26 -25.5 58t-2.5 68q6 40 26.5 76t51 62.5t69 42t80.5 15.5q56 0 96 -26q11 11 22 21.5t22 21.5q10 -10 19.5 -20t19.5 -20l-40 -40q21 -26 30.5 -60.5t4.5 -72.5q-6 -41 -26.5 -76.5t-51.5 -62.5t-70 -42.5t-81 -15.5q-31 0 -57 8.5 t-48 23.5q-12 -12 -24 -24.5t-25 -24.5q-10 10 -20 19t-20 19zM119 188q-6 -35 8 -63l170 170q-22 8 -45 8q-26 0 -48.5 -8.5t-40.5 -24t-29.5 -36.5t-14.5 -46zM165 85q24 -13 54 -13q26 0 48.5 9t40.5 24.5t29.5 37t15.5 45.5q5 41 -13 71q-45 -44 -88 -87z" />
<glyph unicode="&#xf9;" horiz-adv-x="529" d="M96 103l38 272h83l-33 -234q-2 -27 13 -46.5t53 -21.5q26 0 51 9t45 25t34 38t18 48l25 182h83l-54 -384h-83l9 60l9 45q-27 -48 -75.5 -76.5t-102.5 -28.5q-59 0 -88.5 31t-24.5 81zM194 612h83q18 -33 35.5 -66.5t35.5 -66.5h-59q-24 33 -47.5 66.5t-47.5 66.5z" />
<glyph unicode="&#xfa;" horiz-adv-x="529" d="M96 103l38 272h83l-33 -234q-2 -27 13 -46.5t53 -21.5q26 0 51 9t45 25t34 38t18 48l25 182h83l-54 -384h-83l9 60l9 45q-27 -48 -75.5 -76.5t-102.5 -28.5q-59 0 -88.5 31t-24.5 81zM294 479q27 33 54.5 66.5t54.5 66.5h84q-33 -33 -67 -66.5t-67 -66.5h-59z" />
<glyph unicode="&#xfb;" horiz-adv-x="529" d="M96 103l38 272h83l-33 -234q-2 -27 13 -46.5t53 -21.5q26 0 51 9t45 25t34 38t18 48l25 182h83l-54 -384h-83l9 60l9 45q-27 -48 -75.5 -76.5t-102.5 -28.5q-59 0 -88.5 31t-24.5 81zM205 479q36 45 72.5 90.5t72.5 90.5q24 -45 47.5 -90.5t47.5 -90.5h-59l-51 72 q-17 -18 -35.5 -36t-35.5 -36h-59z" />
<glyph unicode="&#xfc;" horiz-adv-x="529" d="M96 103l38 272h83l-33 -234q-2 -27 13 -46.5t53 -21.5q26 0 51 9t45 25t34 38t18 48l25 182h83l-54 -384h-83l9 60l9 45q-27 -48 -75.5 -76.5t-102.5 -28.5q-59 0 -88.5 31t-24.5 81zM194 520q4 23 22 38t38 15q19 0 33 -15t10 -38q-3 -23 -21 -37.5t-37 -14.5 q-20 0 -34 14.5t-11 37.5zM360 520q4 23 22 38t38 15q19 0 33 -15t10 -38q-3 -23 -21 -37.5t-37 -14.5q-20 0 -34 14.5t-11 37.5z" />
<glyph unicode="&#xfd;" horiz-adv-x="488" d="M53 -250q41 63 81 125t81 125q-35 94 -68.5 187.5t-68.5 187.5h83q-1 1 3.5 -11.5t12 -33.5t17 -48.5t19.5 -55.5l54 -152q0 -1 14 22t35.5 57t46 73.5t46 73t35 55.5t12.5 20h83q-101 -157 -201 -312.5t-202 -312.5h-83zM294 479q27 33 54.5 66.5t54.5 66.5h84 q-33 -33 -67 -66.5t-67 -66.5h-59z" />
<glyph unicode="&#xfe;" horiz-adv-x="557" d="M-3 -250l140 1000h83l-55 -390q-4 -8 -7.5 -16t-7.5 -16q1 3 12 11.5t29.5 18t42.5 17t51 7.5q42 0 76.5 -15.5t58 -42.5t34 -62.5t5.5 -74.5q-6 -40 -26.5 -75.5t-51.5 -62.5t-70 -42.5t-81 -15.5q-30 0 -52.5 7t-37.5 15.5t-22.5 16.5t-7.5 11q2 -5 3.5 -11t3.5 -11 l-38 -269h-82zM141 188q-7 -49 20.5 -82.5t79.5 -33.5q26 0 49 9t40.5 24.5t29.5 37t15 45.5q7 50 -21 82.5t-80 32.5q-26 0 -48.5 -8.5t-40.5 -24t-29.5 -36.5t-14.5 -46z" />
<glyph unicode="&#xff;" horiz-adv-x="488" d="M53 -250q41 63 81 125t81 125q-35 94 -68.5 187.5t-68.5 187.5h83q-1 1 3.5 -11.5t12 -33.5t17 -48.5t19.5 -55.5l54 -152q0 -1 14 22t35.5 57t46 73.5t46 73t35 55.5t12.5 20h83q-101 -157 -201 -312.5t-202 -312.5h-83zM190 520q4 23 22 38t38 15q19 0 33 -15t10 -38 q-3 -23 -21 -37.5t-37 -14.5q-20 0 -34 14.5t-11 37.5zM356 520q4 23 22 38t38 15q19 0 33 -15t10 -38q-3 -23 -21 -37.5t-37 -14.5q-20 0 -34 14.5t-11 37.5z" />
<glyph unicode="&#x2000;" horiz-adv-x="466" />
<glyph unicode="&#x2001;" horiz-adv-x="932" />
<glyph unicode="&#x2002;" horiz-adv-x="466" />
<glyph unicode="&#x2003;" horiz-adv-x="932" />
<glyph unicode="&#x2004;" horiz-adv-x="310" />
<glyph unicode="&#x2005;" horiz-adv-x="233" />
<glyph unicode="&#x2006;" horiz-adv-x="155" />
<glyph unicode="&#x2007;" horiz-adv-x="155" />
<glyph unicode="&#x2008;" horiz-adv-x="116" />
<glyph unicode="&#x2009;" horiz-adv-x="186" />
<glyph unicode="&#x200a;" horiz-adv-x="51" />
<glyph unicode="&#x2010;" d="M47 147l11 81h184l-11 -81h-184z" />
<glyph unicode="&#x2011;" d="M47 147l11 81h184l-11 -81h-184z" />
<glyph unicode="&#x2012;" d="M47 147l11 81h184l-11 -81h-184z" />
<glyph unicode="&#x2013;" horiz-adv-x="509" d="M94 174l11 81h301l-11 -81h-301z" />
<glyph unicode="&#x2014;" horiz-adv-x="700" d="M93 174l11 81h502l-11 -81h-502z" />
<glyph unicode="&#x2018;" horiz-adv-x="164" d="M34 631.5q-7 37.5 7 79.5q12 -2 25 -3.5t26 -3.5q-12 -35 -7 -64.5t24 -49.5l-45 -24q-23 28 -30 65.5z" />
<glyph unicode="&#x2019;" horiz-adv-x="164" d="M28 590q23 20 37 49.5t12 64.5q13 2 26 3.5t27 3.5q2 -42 -15.5 -79.5t-49.5 -65.5q-10 6 -18.5 12t-18.5 12z" />
<glyph unicode="&#x201a;" horiz-adv-x="146" d="M12 -29q23 20 37 49.5t12 64.5q13 2 26 3.5t27 3.5q2 -42 -15.5 -79.5t-49.5 -65.5q-10 6 -18.5 12t-18.5 12z" />
<glyph unicode="&#x201c;" horiz-adv-x="249" d="M34 631.5q-7 37.5 7 79.5q12 -2 25 -3.5t26 -3.5q-12 -35 -7 -64.5t24 -49.5l-45 -24q-23 28 -30 65.5zM138 631.5q-7 37.5 7 79.5q12 -2 25 -3.5t26 -3.5q-12 -35 -7 -64.5t24 -49.5l-45 -24q-23 28 -30 65.5z" />
<glyph unicode="&#x201d;" horiz-adv-x="248" d="M4 590q23 20 37 49.5t12 64.5q13 2 26 3.5t27 3.5q2 -42 -15.5 -79.5t-49.5 -65.5q-10 6 -18.5 12t-18.5 12zM108 590q23 20 37 49.5t12 64.5q13 2 26 3.5t27 3.5q2 -42 -15.5 -79.5t-49.5 -65.5q-10 6 -18.5 12t-18.5 12z" />
<glyph unicode="&#x201e;" horiz-adv-x="341" d="M12 -29q23 20 37 49.5t12 64.5q13 2 26 3.5t27 3.5q2 -42 -15.5 -79.5t-49.5 -65.5q-10 6 -18.5 12t-18.5 12zM116 -29q23 20 37 49.5t12 64.5q13 2 26 3.5t27 3.5q2 -42 -15.5 -79.5t-49.5 -65.5q-10 6 -18.5 12t-18.5 12z" />
<glyph unicode="&#x2022;" horiz-adv-x="479" d="M112 300q4 27 17 50t32.5 40.5t44 27.5t50.5 10q27 0 48.5 -10t36.5 -27.5t22 -40.5t3 -50t-17 -50t-32.5 -40t-44 -26.5t-51.5 -9.5q-26 0 -48 9.5t-36.5 26.5t-21.5 40t-3 50z" />
<glyph unicode="&#x202f;" horiz-adv-x="186" />
<glyph unicode="&#x2039;" horiz-adv-x="392" d="M117 239q48 41 96.5 80.5t96.5 80.5l-13 -95q-19 -17 -37 -33t-37 -33q14 -17 27.5 -33.5t27.5 -33.5l-13 -95z" />
<glyph unicode="&#x203a;" horiz-adv-x="392" d="M94 77l13 95q19 17 37 33.5t38 33.5q-14 17 -28 33t-28 33l13 95q38 -41 74.5 -80.5t74.5 -80.5z" />
<glyph unicode="&#x205f;" horiz-adv-x="233" />
<glyph unicode="&#xe000;" horiz-adv-x="375" d="M0 0v375h375v-375h-375z" />
</font>
</defs>
</svg>
