<?xml version="1.0" standalone="no"?>
<!DOCTYPE svg PUBLIC "-//W3C//DTD SVG 1.1//EN" "http://www.w3.org/Graphics/SVG/1.1/DTD/svg11.dtd" >
<svg xmlns="http://www.w3.org/2000/svg">
<metadata></metadata>
<defs>
<font id="josefin_sansbold" horiz-adv-x="300" >
<font-face units-per-em="1000" ascent="750" descent="-250" />
<missing-glyph horiz-adv-x="500" />
<glyph horiz-adv-x="1000" />
<glyph horiz-adv-x="1000" />
<glyph unicode="&#xd;" />
<glyph unicode=" " />
<glyph unicode="!" horiz-adv-x="201" d="M48 53q0 23 16 37.5t36 14.5q19 0 35 -14.5t16 -37.5t-16 -38t-35 -15q-20 0 -36 15t-16 38zM58 166v584h83v-584h-83z" />
<glyph unicode="&#x22;" horiz-adv-x="335" d="M63 472v248h83q-1 -63 -2 -124t-2 -124h-79zM196 472v248h83q-1 -63 -2 -124t-2 -124h-79z" />
<glyph unicode="#" horiz-adv-x="571" d="M25 188q2 20 5 40.5t5 40.5h92l12 102h-91q2 20 4 40.5t4 40.5h92q6 48 12 95.5t12 95.5h84q-6 -48 -12 -95.5t-12 -95.5h100q6 48 12 95.5t12 95.5h84q-6 -48 -12 -95.5t-12 -95.5h102q-2 -20 -4 -40.5t-4 -40.5h-103l-12 -102h102q-2 -20 -5 -40.5t-5 -40.5h-102 q-5 -48 -11 -94t-11 -94h-84q5 48 11 94t11 94h-100q-5 -48 -11 -94t-11 -94h-84q5 48 11 94t11 94h-92zM211 269h100l12 102h-100z" />
<glyph unicode="$" horiz-adv-x="567" d="M46 106l52 52q23 -24 56 -49.5t78 -34.5v258q-5 2 -12 5t-15 7q-19 9 -41.5 21.5t-42 33t-33 49t-14.5 69.5q-1 30 7 60t26.5 56t49 44t75.5 24v63h84v-64q29 -6 62 -21.5t71 -47.5q-12 -15 -23.5 -30t-23.5 -30q-13 11 -35 25.5t-51 22.5v-228q30 -12 60 -29.5t54 -42 t39 -57t15 -75.5q0 -39 -13 -72t-35.5 -58t-53.5 -40.5t-66 -21.5v-63h-84v64q-32 5 -60.5 16.5t-52.5 26.5t-43 32.5t-30 34.5zM157 514q0 -33 14 -52t37 -30q5 -3 11.5 -5.5t12.5 -4.5v198q-38 -11 -56.5 -40t-18.5 -66zM316 78q36 11 60.5 38t24.5 72q0 46 -25.5 71.5 t-59.5 41.5v-223z" />
<glyph unicode="%" horiz-adv-x="726" d="M90 389q0 26 10 49t27.5 40t41 27t49.5 10t49 -10t40.5 -27t28 -40t10.5 -49q0 -27 -10.5 -50t-28 -40t-40.5 -27t-49 -10t-49.5 10t-41 27t-27.5 40t-10 50zM174 0q75 126 149 250t149 250h91q-75 -126 -149 -250t-149 -250h-91zM174 389q0 -20 12 -33t32 -13t32 13 t12 33t-12 32.5t-32 12.5t-32 -12.5t-12 -32.5zM394 111q0 26 10 49t27.5 40t41 27t49.5 10t49 -10t40.5 -27t28 -40t10.5 -49q0 -27 -10.5 -50t-28 -40t-40.5 -27t-49 -10t-49.5 10t-41 27t-27.5 40t-10 50zM478 111q0 -20 12 -33t32 -13t32 13t12 33t-12 32.5t-32 12.5 t-32 -12.5t-12 -32.5z" />
<glyph unicode="&#x26;" horiz-adv-x="700" d="M105 188q0 36 12 68t34 57.5t51 43t64 23.5q-17 29 -35 58t-35 58q-18 30 -25.5 62t-2.5 62.5t23.5 58t51.5 47.5q28 17 57.5 20.5t57.5 -2t52.5 -16.5t43.5 -23q-8 -17 -16.5 -32.5t-16.5 -32.5q-10 6 -25.5 13.5t-32.5 11.5t-34 4t-30 -9q-41 -26 -45.5 -66t19.5 -79 q38 -61 74.5 -121t74.5 -121q1 17 3 29.5t5 23.5q7 22 20 32.5t29.5 14t35.5 3t39 -0.5h47v-81h-44q-15 0 -25 -3.5t-16 -14t-8 -30.5t-2 -52v-7q0 -20 -5 -42q19 -30 37.5 -60.5t37.5 -60.5q-17 -11 -32.5 -21.5t-32.5 -21.5q-13 20 -25 41t-25 41q-28 -33 -68 -52.5 t-88 -19.5q-42 0 -78.5 15.5t-63.5 42.5t-42.5 62.5t-15.5 76.5zM188 188q0 -49 32.5 -82.5t84.5 -33.5q38 0 66.5 19t41.5 50l-99 162q-56 0 -91 -30.5t-35 -84.5z" />
<glyph unicode="'" horiz-adv-x="163" d="M42 472v248h84q-1 -63 -2 -124t-2 -124h-80z" />
<glyph unicode="(" horiz-adv-x="424" d="M115 291q0 75 14 143t37 126t52.5 105.5t61.5 80.5q18 -6 36.5 -11.5t36.5 -11.5q-29 -33 -56.5 -78t-49.5 -100t-35 -119t-13 -135t13 -135t35 -119t49.5 -100t56.5 -78q-18 -6 -36.5 -11.5t-36.5 -11.5q-32 33 -61.5 80.5t-52.5 105.5t-37 126t-14 143z" />
<glyph unicode=")" horiz-adv-x="400" d="M74 -146q29 33 56.5 78t49.5 100t35 119t13 135t-13 135t-35 119t-49.5 100t-56.5 78q18 6 36.5 12.5t36.5 12.5q31 -33 61 -80.5t53 -105.5t37 -126t14 -143t-14 -143t-37 -126t-53 -105.5t-61 -80.5q-18 5 -36.5 10.5t-36.5 10.5z" />
<glyph unicode="*" horiz-adv-x="335" d="M25 542q16 8 31 17t31 17q-15 9 -30.5 18.5t-30.5 18.5l39 69q16 -9 31.5 -18.5t31.5 -18.5v75h84q0 -19 -0.5 -37.5t-0.5 -37.5l32 18l32 18q10 -17 20 -34.5t20 -34.5q-17 -9 -32.5 -18.5t-32.5 -18.5l63 -36q-11 -18 -21 -36.5t-21 -36.5q-16 9 -31 18.5t-31 18.5 q0 -17 -0.5 -34.5t-0.5 -34.5h-80v70q-15 -9 -30.5 -17.5t-30.5 -17.5q-11 18 -21 36.5t-21 36.5z" />
<glyph unicode="+" horiz-adv-x="543" d="M86 190v81h138v140h84v-140h138v-81h-138v-139h-84v139h-138z" />
<glyph unicode="," horiz-adv-x="200" d="M2 -120q20 52 38.5 103t38.5 103h84q-22 -52 -43 -103t-43 -103h-75z" />
<glyph unicode="-" d="M53 147v81h184v-81h-184z" />
<glyph unicode="." horiz-adv-x="163" d="M33 52q0 23 16 38t36 15q19 0 35 -15t16 -38t-16 -37.5t-35 -14.5q-20 0 -36 14.5t-16 37.5z" />
<glyph unicode="/" horiz-adv-x="380" d="M17 -19q70 190 139 377.5t139 377.5h84q-70 -190 -139 -377.5t-139 -377.5h-84z" />
<glyph unicode="0" horiz-adv-x="616" d="M37 327q0 76 21.5 137.5t58 104.5t85.5 66t105 23t105 -24t85 -67.5t56 -105.5t20 -138t-23.5 -137t-61.5 -104.5t-86 -66.5t-99 -23t-99 24t-85.5 68t-59.5 105.5t-22 137.5zM121 326q0 -53 14 -99t39 -80t58 -54t71 -20q37 0 71 19t59.5 53t40.5 80t15 99q0 36 -9 80 t-30.5 82.5t-56.5 64.5t-86 26t-86.5 -25.5t-57.5 -63.5t-32 -82t-10 -80z" />
<glyph unicode="1" horiz-adv-x="273" d="M34 569v81h152v-650h-84v569h-68z" />
<glyph unicode="2" horiz-adv-x="519" d="M44 455q0 40 13.5 77t40 65t65.5 44.5t90 16.5q46 0 84 -17t65 -45.5t42 -66t15 -79.5q0 -50 -17.5 -96.5t-46 -92.5t-65.5 -90.5t-77 -89.5h243v-81h-443q62 62 120 120.5t103 113t72 106t27 98.5q0 37 -12 63t-30.5 43t-40 25t-39.5 8q-38 0 -62 -13t-38 -32t-19.5 -40 t-5.5 -37q0 -33 10 -58.5t29 -45.5q-13 -13 -25 -25.5t-25 -25.5q-17 11 -30.5 29.5t-23 40t-14.5 44t-5 41.5z" />
<glyph unicode="3" horiz-adv-x="515" d="M59 63q15 14 30.5 28.5t30.5 28.5q18 -22 43.5 -34.5t55.5 -12.5q28 0 52.5 11t43 29.5t29.5 43t11 52.5t-11 52.5t-29.5 42.5t-43 28.5t-52.5 10.5q-36 0 -65 -17q35 61 69.5 121t69.5 121h-190v82h329q-36 -60 -71.5 -119t-71.5 -119q33 -12 60 -31.5t47 -45.5t31 -58 t11 -68q0 -45 -17.5 -84.5t-47.5 -69t-69.5 -46.5t-84.5 -17q-48 0 -89 19.5t-71 51.5z" />
<glyph unicode="4" horiz-adv-x="529" d="M37 183q92 119 183 237.5t183 237.5v-394h97v-81h-97v-183h-84v183h-282zM205 264h114v149q-29 -38 -57 -74.5t-57 -74.5z" />
<glyph unicode="5" horiz-adv-x="543" d="M103 53q15 14 30.5 28t30.5 28q17 -17 40 -26.5t49 -9.5q28 0 52.5 11t43 29.5t29.5 43t11 52.5t-11 52.5t-29.5 42.5t-43 28.5t-52.5 10.5q-35 0 -64 -11.5t-46 -39.5v358h287v-81h-203v-147q6 1 12.5 1.5t13.5 0.5q45 0 84.5 -16.5t69.5 -46t47.5 -68.5t17.5 -84 t-17.5 -84.5t-47.5 -69t-69.5 -46.5t-84.5 -17q-44 0 -82.5 16t-67.5 45z" />
<glyph unicode="6" horiz-adv-x="520" d="M48 197q0 72 30.5 134.5t78.5 116.5t107 101t115 88l26 -32l26 -32q-65 -43 -110 -80.5t-77 -69.5q5 0 10.5 0.5t10.5 0.5q45 0 84.5 -16.5t69.5 -46t47.5 -68.5t17.5 -84t-17.5 -84.5t-47.5 -69t-69.5 -46.5t-84.5 -17q-43 0 -81.5 16t-68 43.5t-47.5 65t-20 80.5z M134 209q0 -28 10 -52.5t28 -43t42 -29.5t51 -11q28 0 52.5 11t43 29.5t29.5 43t11 52.5t-11 52.5t-29.5 42.5t-43 28.5t-52.5 10.5q-27 0 -51 -10.5t-42 -28.5t-28 -42.5t-10 -52.5z" />
<glyph unicode="7" horiz-adv-x="469" d="M14 568v82h413q-73 -164 -146 -325t-146 -325h-95q65 143 128.5 284t128.5 284h-283z" />
<glyph unicode="8" horiz-adv-x="510" d="M36 209q0 58 28 105.5t74 76.5q-20 20 -31.5 47.5t-11.5 59.5q0 33 12.5 62t34 51t50 34.5t61.5 12.5t62 -12.5t51 -34.5t34.5 -51t12.5 -62q0 -32 -12 -59.5t-32 -47.5q46 -29 74.5 -76.5t28.5 -105.5q0 -45 -17.5 -84.5t-47.5 -69t-69.5 -46.5t-84.5 -17t-84.5 17 t-69 46.5t-46.5 69t-17 84.5zM122 209q0 -28 10 -52.5t28 -43t42 -29.5t51 -11q28 0 52.5 11t43 29.5t29.5 43t11 52.5q0 27 -10.5 51t-28 42t-41.5 29t-51 12q-29 0 -54 -10.5t-43 -28.5t-28.5 -42.5t-10.5 -52.5zM180 498q0 -32 22 -53t53 -21q32 0 53.5 21t21.5 53 t-21.5 55.5t-53.5 23.5q-31 0 -53 -23.5t-22 -55.5z" />
<glyph unicode="9" horiz-adv-x="525" d="M26 419q0 45 17.5 84.5t47.5 69t69.5 46.5t84.5 17t84.5 -17.5t69 -47t46.5 -69t17 -83.5q0 -68 -31.5 -129t-80.5 -114.5t-107 -99.5t-112 -85l-26 32l-26 32q65 43 110 80.5t77 69.5q-5 -1 -10.5 -1h-10.5q-45 0 -84.5 16.5t-69.5 46t-47.5 68.5t-17.5 84zM109 419 q0 -28 11 -52.5t29.5 -42.5t43 -28.5t52.5 -10.5q27 0 51 10.5t42 28.5t28 42.5t10 52.5t-10 52.5t-28 43t-42 29.5t-51 11q-28 0 -52.5 -11t-43 -29.5t-29.5 -43t-11 -52.5z" />
<glyph unicode=":" horiz-adv-x="175" d="M33 52q0 23 16 38t36 15q19 0 35 -15t16 -38t-16 -37.5t-35 -14.5q-20 0 -36 14.5t-16 37.5zM33 302q0 23 16 38t36 15q19 0 35 -15t16 -38t-16 -37.5t-35 -14.5q-20 0 -36 14.5t-16 37.5z" />
<glyph unicode=";" horiz-adv-x="201" d="M-12 -120q20 52 38.5 103t38.5 103h84q-22 -52 -43 -103t-43 -103h-75zM64 302q0 23 16 38t36 15q19 0 35 -15t16 -38t-16 -37.5t-35 -14.5q-20 0 -36 14.5t-16 37.5z" />
<glyph unicode="&#x3c;" horiz-adv-x="680" d="M116 238q110 63 218.5 126t218.5 126v-113q-60 -35 -120.5 -69.5t-120.5 -69.5q60 -35 120.5 -69.5t120.5 -69.5v-113q-110 63 -218.5 126t-218.5 126z" />
<glyph unicode="=" horiz-adv-x="708" d="M100 112v81h506v-81h-506zM100 306v81h506v-81h-506z" />
<glyph unicode="&#x3e;" horiz-adv-x="650" d="M116 -14v113q60 35 120.5 69.5t120.5 69.5q-60 35 -120.5 69.5t-120.5 69.5v113q110 -63 218.5 -126t218.5 -126q-110 -63 -218.5 -126t-218.5 -126z" />
<glyph unicode="?" horiz-adv-x="452" d="M41 579q7 22 20 48.5t36 49.5t58 39t86 16q41 0 77 -15.5t62.5 -42t41.5 -62t15 -75.5q0 -56 -26.5 -97.5t-71.5 -75.5q-14 -10 -30 -20.5t-30 -24t-23 -32t-9 -45.5v-78h-84v97q0 32 10 52t27 35.5t38 29t44 31.5q36 27 53 59t17 69q0 49 -30.5 81.5t-80.5 32.5 q-56 0 -84 -25t-43 -74q-18 7 -36.5 13.5t-36.5 13.5zM152 52q0 23 16 38t36 15q19 0 35 -15t16 -38t-16 -37.5t-35 -14.5q-20 0 -36 14.5t-16 37.5z" />
<glyph unicode="@" horiz-adv-x="990" d="M65 189q0 87 33.5 164t91 134t134.5 90t165 33q87 0 164 -33t134 -90t90 -134t33 -165q-4 -53 -24.5 -88.5t-48.5 -58t-60 -32t-59 -9.5h-106v20v20q-1 -3 -10 -11t-25.5 -16t-39.5 -15t-52 -7q-42 0 -79 15.5t-64 42.5t-42.5 62.5t-15.5 75.5q0 39 15.5 74.5t42.5 62.5 t64 42.5t79 15.5q26 0 48.5 -7t39.5 -16.5t27 -18.5t12 -12q0 11 2 23t2 24h69v-294h33q20 0 39 5.5t34 18t24 33t11 50.5q0 71 -26.5 133t-72.5 108.5t-107 73t-131 26.5q-71 0 -132.5 -26.5t-108 -73t-73 -108.5t-26.5 -133t26.5 -132.5t73 -107.5t108 -72.5t132.5 -26.5 q59 0 111.5 17.5t97.5 48.5q13 -15 25 -29.5t25 -29.5q-25 -22 -56 -38.5t-65.5 -27.5t-69.5 -16.5t-68 -5.5q-88 0 -165 33t-134.5 90t-91 134t-33.5 164zM368 188q0 -49 32.5 -82.5t84.5 -33.5t84.5 33.5t32.5 82.5q0 50 -32.5 82.5t-84.5 32.5t-84.5 -32.5t-32.5 -82.5z " />
<glyph unicode="A" horiz-adv-x="740" d="M61 0q78 184 155 366t155 366q78 -184 155 -366t155 -366h-83q-29 69 -58.5 138.5t-58.5 138.5h-220q-29 -69 -58.5 -138.5t-58.5 -138.5h-83zM295 356h152q-17 40 -33.5 79.5t-33.5 79.5l-9 33q-14 -50 -35 -97t-41 -95z" />
<glyph unicode="B" horiz-adv-x="535" d="M58 0v700h183q49 0 89.5 -10t69 -31t44.5 -54.5t16 -79.5q0 -62 -29.5 -109t-89.5 -64q28 -6 54.5 -20t46 -36t31.5 -51t12 -65q0 -45 -19 -78.5t-50.5 -56t-72.5 -34t-84 -11.5h-201zM141 79h111q31 0 58 7t47.5 21.5t32.5 35.5t12 50q0 31 -14 54t-36.5 37.5 t-52.5 21.5t-61 7h-97v-234zM141 392h108q59 0 93.5 33t34.5 87q0 59 -36 84t-94 25h-106v-229z" />
<glyph unicode="C" horiz-adv-x="670" d="M62 349q0 74 28 139.5t76.5 114t113.5 77t139 28.5q51 0 96.5 -13t86.5 -37q-11 -17 -23 -33.5t-23 -33.5q-31 18 -65 28t-72 10q-57 0 -106.5 -22t-87 -60.5t-59 -89.5t-21.5 -108t21.5 -108t59 -88.5t87 -59.5t106.5 -22q74 0 137 37l45 -66q-40 -23 -85.5 -36.5 t-96.5 -13.5q-74 0 -139 28t-113.5 76.5t-76.5 113.5t-28 139z" />
<glyph unicode="D" horiz-adv-x="652" d="M60 0v700h163q72 0 136 -24.5t112 -70.5t76 -110.5t28 -145.5q0 -59 -20.5 -121t-66.5 -112.5t-119.5 -83t-179.5 -32.5h-129zM143 80h70q59 0 110 19t88.5 54.5t59 85t21.5 111.5t-21.5 112t-59 85.5t-88.5 54.5t-110 19h-70v-541z" />
<glyph unicode="E" horiz-adv-x="601" d="M69 0v700h431v-79h-348v-229h309v-79h-309v-234h362v-79h-445z" />
<glyph unicode="F" horiz-adv-x="587" d="M69 0v700h431v-79h-348v-229h309v-79h-309v-313h-83z" />
<glyph unicode="G" horiz-adv-x="692" d="M62 349q0 74 28 139.5t76.5 114t113.5 77t139 28.5q51 0 96.5 -13t86.5 -37q-11 -17 -23 -33.5t-23 -33.5q-31 18 -65 28t-72 10q-57 0 -106.5 -22t-87 -60.5t-59 -89.5t-21.5 -108t21.5 -108t59 -88.5t87 -59.5t106.5 -22q52 0 99 18v102q0 17 -3.5 23.5t-19.5 6.5h-80 v79h138q29 0 38.5 -14.5t9.5 -45.5v-198q-40 -23 -85.5 -36.5t-96.5 -13.5q-74 0 -139 28t-113.5 76.5t-76.5 113.5t-28 139z" />
<glyph unicode="H" horiz-adv-x="700" d="M78 0v700h83v-308h378v308h83v-700h-83v313h-378v-313h-83z" />
<glyph unicode="I" horiz-adv-x="278" d="M99 0v700h83v-700h-83z" />
<glyph unicode="J" horiz-adv-x="342" d="M17 -65q69 4 113.5 44t44.5 114v607h83v-610q0 -56 -18.5 -99t-50.5 -72.5t-76.5 -45.5t-95.5 -17v79z" />
<glyph unicode="K" horiz-adv-x="600" d="M51 0v700h83v-274q-1 -8 -1.5 -16t-1.5 -16q5 6 9.5 11.5t9.5 11.5q75 71 148.5 141.5t148.5 141.5h102q-75 -72 -149 -142t-149 -142q83 -105 165 -208t165 -208h-99q-72 91 -143 181.5t-143 181.5q-16 -15 -31 -29.5t-31 -29.5v-304h-83z" />
<glyph unicode="L" horiz-adv-x="593" d="M69 0v700h83v-621h362v-79h-445z" />
<glyph unicode="M" horiz-adv-x="937" d="M100 0v732q92 -119 183 -237.5t183 -237.5q92 119 183 237.5t183 237.5v-732h-83v470q1 8 1.5 16t1.5 16q-66 -98 -140 -190.5t-146 -186.5q-67 88 -134 175t-134 175l-18 27q1 -8 1.5 -16t1.5 -16v-470h-83z" />
<glyph unicode="N" horiz-adv-x="813" d="M100 0v732q129 -140 256 -277.5t256 -277.5q5 -7 9.5 -13t9.5 -13q-1 8 -1.5 16t-1.5 16v517h83v-732q-129 137 -256 272t-256 272q-5 7 -9.5 13t-9.5 13q1 -8 1.5 -16t1.5 -16v-506h-83z" />
<glyph unicode="O" horiz-adv-x="840" d="M62 349q0 73 28 138.5t76.5 114.5t113.5 77.5t139 28.5q73 0 138.5 -28.5t114.5 -77.5t77.5 -114.5t28.5 -138.5q0 -74 -28.5 -139t-77.5 -113.5t-114.5 -76.5t-138.5 -28q-74 0 -139 28t-113.5 76.5t-76.5 113.5t-28 139zM145 349q0 -58 21.5 -108.5t59 -88t87.5 -59.5 t107 -22t107 22t87.5 59.5t59 88t21.5 108.5t-21.5 108.5t-59 88.5t-87.5 60t-107 22t-107 -22t-87.5 -60t-59 -88.5t-21.5 -108.5z" />
<glyph unicode="P" horiz-adv-x="489" d="M58 0v700h165q34 0 75.5 -10.5t77.5 -33.5t60 -59t24 -87q0 -91 -54 -144.5t-156 -53.5h-109v-312h-83zM141 392h87q44 0 72.5 11.5t45.5 28.5t24 38t7 40q0 22 -11.5 42.5t-31 36t-47 24.5t-58.5 9h-88v-230z" />
<glyph unicode="Q" horiz-adv-x="842" d="M62 349q0 74 28 139.5t76.5 114t113.5 77t139 28.5t139.5 -28.5t114 -77t77 -114t28.5 -139.5q0 -81 -34 -151t-91 -119h147v-79h-307q-38 -8 -74 -8q-74 0 -139 28t-113.5 76.5t-76.5 113.5t-28 139zM145 349q0 -57 21.5 -108t59 -88.5t87 -59.5t106.5 -22t107 22 t87.5 59.5t59.5 88.5t22 108t-22 108t-59.5 89.5t-87.5 60.5t-107 22t-106.5 -22t-87 -60.5t-59 -89.5t-21.5 -108z" />
<glyph unicode="R" horiz-adv-x="519" d="M58 0v700h165q34 0 75.5 -10.5t77.5 -33.5t60 -59t24 -87q0 -75 -37.5 -125.5t-109.5 -66.5l150 -318h-90l-147 312h-17h-68v-312h-83zM141 392h87q44 0 72.5 11.5t45.5 28.5t24 38t7 40q0 22 -11.5 42.5t-31 36t-47 24.5t-58.5 9h-88v-230z" />
<glyph unicode="S" horiz-adv-x="563" d="M46 106l52 52q13 -14 31 -29.5t39 -28.5t46 -21t54 -8q26 0 50 7.5t42.5 22t29.5 36.5t11 51q0 40 -19.5 65t-48 41.5t-59.5 26.5t-54 19q-18 7 -43 19t-47.5 32.5t-38.5 51t-17 74.5v6q0 30 9 60q10 33 33 60t61 44t93 17q40 0 83 -14t96 -59q-12 -15 -23.5 -30 t-23.5 -30q-8 8 -21 17.5t-29.5 17.5t-37 13.5t-43.5 5.5q-58 0 -86 -33t-28 -78q0 -25 9.5 -42t25 -28.5t35 -19.5t40.5 -15q33 -12 71 -28.5t70.5 -42t54 -62.5t21.5 -89q0 -45 -16.5 -81t-45 -61.5t-66.5 -39t-80 -13.5q-38 0 -74 10.5t-66 27t-53.5 36.5t-36.5 40z" />
<glyph unicode="T" horiz-adv-x="553" d="M0 621v79h553v-79h-234v-621h-83v621h-236z" />
<glyph unicode="U" horiz-adv-x="652" d="M76 226v474h83v-471q0 -38 12.5 -67.5t35 -49.5t53.5 -30.5t68 -10.5t68 10.5t53.5 30.5t35.5 49.5t13 67.5v471h83v-474q0 -57 -19.5 -101t-53.5 -73.5t-80 -44.5t-100 -15t-100 15t-80 44.5t-53 73.5t-19 101z" />
<glyph unicode="V" horiz-adv-x="722" d="M54 700h83q55 -130 109 -257.5t109 -257.5l9 -33l9 33q55 130 109 257.5t109 257.5h83q-78 -184 -155 -366t-155 -366q-78 184 -155 366t-155 366z" />
<glyph unicode="W" horiz-adv-x="1108" d="M54 700h83q55 -130 109 -257.5t109 -257.5l9 -33q12 45 29.5 89.5t37 89t40 88.5t38.5 87q-20 49 -41 97t-41 97h83q55 -130 109 -257.5t109 -257.5l9 -33l9 33q55 130 109 257.5t109 257.5h83q-78 -184 -155 -366t-155 -366l-177 417q-2 9 -5 17.5t-5 17.5 q-14 -56 -36 -113.5t-48 -114.5t-52.5 -113.5t-49.5 -110.5q-78 184 -155 366t-155 366z" />
<glyph unicode="X" horiz-adv-x="700" d="M93 0q59 90 116.5 178.5t116.5 178.5q-56 86 -111.5 171.5t-111.5 171.5h102q41 -63 81.5 -125.5t81.5 -125.5q3 -7 6.5 -13.5t6.5 -13.5q3 7 6.5 13.5t6.5 13.5q41 63 81.5 125.5t81.5 125.5h102q-57 -88 -113.5 -174.5t-113.5 -174.5q57 -88 114.5 -175.5t114.5 -175.5 h-103l-168 258q-4 7 -7 14t-7 14q-3 -7 -6.5 -14t-6.5 -14q-42 -65 -83.5 -129t-83.5 -129h-103z" />
<glyph unicode="Y" horiz-adv-x="638" d="M12 700h102q48 -81 96 -161.5t96 -161.5q3 -8 5.5 -15.5t5.5 -15.5h1q3 8 6 15.5t6 15.5q48 81 95.5 161.5t95.5 161.5h102q-64 -109 -127 -215.5t-127 -215.5v-269h-102v270q-64 108 -127.5 215t-127.5 215z" />
<glyph unicode="Z" horiz-adv-x="700" d="M81 0v80q108 136 214 270.5t214 270.5h-338q-31 0 -52.5 18t-21.5 47v49h83v-12q0 -16 6.5 -19.5t23.5 -3.5h401v-79q-108 -136 -214 -270.5t-214 -270.5h457v-80h-559z" />
<glyph unicode="[" horiz-adv-x="338" d="M83 -149v895h192v-81h-109v-733h109v-81h-192z" />
<glyph unicode="\" horiz-adv-x="385" d="M0 736h94q70 -190 139 -377.5t139 -377.5h-94q-70 190 -139 377.5t-139 377.5z" />
<glyph unicode="]" horiz-adv-x="342" d="M59 -68h109v733h-109v81h192v-895h-192v81z" />
<glyph unicode="^" horiz-adv-x="470" d="M112 479q30 45 60 90.5t60 90.5q30 -45 60 -90.5t60 -90.5h-59q-15 18 -30.5 36t-30.5 36q-15 -18 -30.5 -36t-30.5 -36h-59z" />
<glyph unicode="_" horiz-adv-x="600" d="M100 0v81h400v-81h-400z" />
<glyph unicode="`" horiz-adv-x="200" d="M-51 612h84q23 -33 45 -66.5t45 -66.5h-59q-29 33 -57.5 66.5t-57.5 66.5z" />
<glyph unicode="a" horiz-adv-x="510" d="M49 187q0 39 15.5 75t42.5 63t64 43t79 16q27 0 50 -8t40 -17.5t27 -18.5t10 -12q0 11 2 23t2 24h69v-375h-73v32v9q0 -3 -9 -11t-25 -16.5t-39.5 -15.5t-53.5 -7q-42 0 -79 15.5t-64 42.5t-42.5 62.5t-15.5 75.5zM133 188q0 -49 32.5 -82.5t84.5 -33.5t84.5 33.5 t32.5 82.5q0 50 -32.5 82.5t-84.5 32.5t-84.5 -32.5t-32.5 -82.5z" />
<glyph unicode="b" horiz-adv-x="533" d="M82 0v750h83v-388q-2 -8 -5 -16t-5 -16q0 3 10 11.5t27 18t40 17t50 7.5q42 0 79 -15.5t64 -42.5t42.5 -62.5t15.5 -75.5t-15.5 -76t-42.5 -63t-64 -42.5t-79 -15.5q-30 0 -53.5 7t-39.5 15.5t-25 16.5t-9 11v-9v-32h-73zM165 188q0 -49 32.5 -82.5t84.5 -33.5t84.5 33.5 t32.5 82.5q0 50 -32.5 82.5t-84.5 32.5t-84.5 -32.5t-32.5 -82.5z" />
<glyph unicode="c" horiz-adv-x="395" d="M36 188q0 40 15.5 76t42.5 62.5t63.5 42t78.5 15.5q37 0 69 -11.5t58 -31.5q-13 -16 -26 -31t-26 -31q-32 24 -75 24q-52 0 -84.5 -32.5t-32.5 -82.5q0 -49 32.5 -82.5t84.5 -33.5q44 0 75 25q13 -16 25 -31.5t25 -31.5q-26 -20 -57.5 -31.5t-67.5 -11.5 q-42 0 -78.5 15.5t-63.5 42.5t-42.5 62.5t-15.5 76.5z" />
<glyph unicode="d" horiz-adv-x="528" d="M49 188q0 40 15.5 75.5t42.5 62.5t64 42.5t79 15.5q27 0 50 -7.5t40 -17t27 -18t10 -11.5q-2 8 -5 16t-5 16v388h83v-750h-73v32v9q0 -3 -9 -11t-25 -16.5t-39.5 -15.5t-53.5 -7q-42 0 -79 15.5t-64 42.5t-42.5 63t-15.5 76zM133 188q0 -49 32.5 -82.5t84.5 -33.5 t84.5 33.5t32.5 82.5q0 50 -32.5 82.5t-84.5 32.5t-84.5 -32.5t-32.5 -82.5z" />
<glyph unicode="e" horiz-adv-x="451" d="M36 188q0 40 15.5 76t42.5 62.5t63.5 42t78.5 15.5q31 0 59.5 -12.5t51 -34.5t39.5 -52.5t26 -66.5q-68 -25 -135.5 -50t-135.5 -50q15 -21 39.5 -33.5t55.5 -12.5q46 0 76 32l51 -60q-25 -25 -57 -39t-70 -14q-42 0 -78.5 15.5t-63.5 42.5t-42.5 62.5t-15.5 76.5z M119 196q47 17 93.5 34.5t93.5 34.5q-14 17 -31.5 27.5t-38.5 10.5q-40 0 -69 -20t-41 -52q-5 -15 -7 -35z" />
<glyph unicode="f" horiz-adv-x="328" d="M22 303v81h64v133q0 56 18.5 99t50.5 72.5t76.5 45t95.5 17.5v-79q-69 -4 -113.5 -44t-44.5 -114v-130h117v-81h-117v-303h-83v303h-64z" />
<glyph unicode="g" horiz-adv-x="518" d="M49 187q0 39 15.5 75t42.5 63t64 43t79 16q27 0 50 -8t40 -17.5t27 -18.5t10 -12q0 11 2 23t2 24h69v-391v-44q0 -40 -15.5 -74.5t-42.5 -60t-63 -40.5t-78 -15q-45 0 -87 19.5t-72 40.5q14 17 27.5 34t27.5 34q20 -15 46.5 -28.5t55.5 -13.5q26 0 47.5 9t37.5 24.5 t24.5 37t8.5 46.5v67q2 5 4.5 9.5t4.5 9.5q-3 -4 -13 -12t-26 -15.5t-38 -13.5t-49 -6q-42 0 -79 15.5t-64 42t-42.5 62t-15.5 75.5zM133 188q0 -49 32.5 -82.5t84.5 -33.5t84.5 33.5t32.5 82.5q0 50 -32.5 82.5t-84.5 32.5t-84.5 -32.5t-32.5 -82.5z" />
<glyph unicode="h" horiz-adv-x="525" d="M82 0v750h83v-426l-3 -45q22 49 64 75.5t99 29.5q59 0 93 -31t36 -81v-272h-83v234q-2 27 -19.5 46.5t-55.5 21.5q-26 0 -49.5 -9t-41.5 -25t-29 -38t-11 -48v-182h-83z" />
<glyph unicode="i" horiz-adv-x="200" d="M49 520q0 23 16 38t36 15q19 0 35 -15t16 -38t-16 -37.5t-35 -14.5q-20 0 -36 14.5t-16 37.5zM58 0v375h83v-375h-83z" />
<glyph unicode="j" horiz-adv-x="225" d="M21 -119q26 20 40 50t14 72v373q21 0 41.5 -0.5t41.5 -0.5v-375q0 -61 -21 -106.5t-59 -74.5q-14 16 -28.5 31t-28.5 31zM68 520q0 23 16 38t36 15q19 0 35 -15t16 -38t-16 -37.5t-35 -14.5q-20 0 -36 14.5t-16 37.5z" />
<glyph unicode="k" horiz-adv-x="449" d="M58 0v750h83v-539q48 45 93 86.5t93 86.5l49 -49q-34 -32 -64 -60.5t-64 -60.5q39 -54 78 -107t78 -107h-96q-29 40 -59 80t-59 80q-12 -11 -24.5 -23t-24.5 -23v-114h-83z" />
<glyph unicode="l" horiz-adv-x="194" d="M58 0v750h83v-750h-83z" />
<glyph unicode="m" horiz-adv-x="796" d="M82 0v375h73v-9q2 -24 3.5 -43.5t3.5 -43.5q21 48 63.5 75.5t99.5 29.5q55 0 88.5 -27.5t39.5 -72.5q22 46 64 72t97 28q59 0 93 -31t36 -81v-272h-83v234q-2 27 -19.5 46.5t-55.5 21.5q-26 0 -49.5 -9t-41.5 -25t-29 -38t-11 -48v-182h-83v234q-2 27 -19.5 46.5 t-55.5 21.5q-26 0 -49.5 -9t-41.5 -25t-29 -38t-11 -48v-182h-83z" />
<glyph unicode="n" horiz-adv-x="495" d="M82 0v375h73v-9q2 -24 3.5 -43.5t3.5 -43.5q20 48 64.5 76.5t98.5 28.5q59 0 93 -31t36 -81v-272h-83v234q-2 27 -19.5 46.5t-55.5 21.5q-26 0 -49.5 -9t-41.5 -25t-29 -38t-11 -48v-182h-83z" />
<glyph unicode="o" horiz-adv-x="475" d="M36 188q0 40 15.5 76t42.5 62.5t63.5 42t78.5 15.5t79 -15.5t64 -42t42.5 -62.5t15.5 -76q0 -41 -15.5 -76.5t-42.5 -62.5t-64 -42.5t-79 -15.5t-78.5 15.5t-63.5 42.5t-42.5 62.5t-15.5 76.5zM119 187q0 -24 9 -45t24.5 -36.5t36.5 -24.5t45 -9t45 9t37 24.5t25 36.5 t9 45t-9 45t-25 37t-37 25t-45 9t-45 -9t-36.5 -25t-24.5 -37t-9 -45z" />
<glyph unicode="p" horiz-adv-x="525" d="M67 -250v625h69q0 -12 1.5 -23.5t2.5 -23.5q0 3 10 12t27 18.5t40 17.5t50 8q42 0 79 -15.5t64 -42.5t42.5 -62.5t15.5 -75.5t-15.5 -76t-42.5 -63t-64 -42.5t-79 -15.5q-30 0 -53.5 7t-39.5 15.5t-25 16.5t-9 11q2 -5 5 -11t5 -11v-269h-83zM150 188q0 -49 32.5 -82.5 t84.5 -33.5t84.5 33.5t32.5 82.5q0 50 -32.5 82.5t-84.5 32.5t-84.5 -32.5t-32.5 -82.5z" />
<glyph unicode="q" horiz-adv-x="512" d="M49 188q0 40 15.5 75.5t42.5 62.5t64 42.5t79 15.5q27 0 50 -8t40 -17.5t27 -18.5t10 -12q1 12 2.5 23.5t1.5 23.5h69v-625h-83v269q2 5 5 11t5 11q0 -3 -9 -11t-25 -16.5t-39.5 -15.5t-53.5 -7q-42 0 -79 15.5t-64 42.5t-42.5 63t-15.5 76zM133 188q0 -49 32.5 -82.5 t84.5 -33.5t84.5 33.5t32.5 82.5q0 50 -32.5 82.5t-84.5 32.5t-84.5 -32.5t-32.5 -82.5z" />
<glyph unicode="r" horiz-adv-x="331" d="M82 0v375h73v-9q2 -24 3.5 -43.5t3.5 -43.5q12 25 30.5 44.5t39 33t40 20.5t34.5 7l-6 -82q-61 0 -98 -34t-37 -86v-182h-83z" />
<glyph unicode="s" horiz-adv-x="354" d="M57 39q13 15 25 30.5t25 30.5q22 -14 37 -20.5t39 -6.5q1 0 7.5 0.5t14.5 4t14.5 10.5t7.5 21q1 18 -10 27.5t-28.5 16t-38.5 13t-39.5 18t-30.5 32.5t-12 56q0 31 12 52t30 34.5t39 19.5t38 6q10 0 24.5 -2t29.5 -7t29.5 -13t25.5 -20q-11 -16 -23 -31t-23 -31 q-5 5 -19.5 14t-38.5 9q-22 0 -32 -9.5t-8 -25.5q2 -12 15 -19.5t30.5 -14.5t37.5 -16t37 -22.5t28 -34t11 -51.5q0 -14 -5.5 -34t-19.5 -39t-39 -32t-65 -13q-37 0 -71 12.5t-54 34.5z" />
<glyph unicode="t" d="M24 303v81h84v235h83v-235h98v-81h-98v-303h-83v303h-84z" />
<glyph unicode="u" horiz-adv-x="529" d="M82 103v272h83v-234q2 -27 19.5 -46.5t55.5 -21.5q26 0 49.5 9t41.5 25t29 38t11 48v182h83v-384h-83v60l3 45q-20 -48 -64.5 -76.5t-98.5 -28.5q-59 0 -93 31t-36 81z" />
<glyph unicode="v" horiz-adv-x="500" d="M54 375h83q16 -30 35 -62t37.5 -64t34 -64.5t26.5 -64.5q10 32 26 64.5t34.5 64.5l37 64t35.5 62h83q-54 -100 -108 -199t-108 -199q-54 100 -108 199t-108 199z" />
<glyph unicode="w" horiz-adv-x="772" d="M54 375h83q29 -63 62.5 -126.5t55.5 -128.5q18 54 44.5 105.5t49.5 102.5q-6 12 -11.5 23.5t-11.5 23.5h83q29 -63 62.5 -126.5t55.5 -128.5q22 65 55.5 128.5t62.5 126.5h83q-51 -100 -100.5 -199t-100.5 -199q-34 68 -68 134.5t-68 134.5q-34 -68 -68 -134.5 t-68 -134.5q-51 100 -100.5 199t-100.5 199z" />
<glyph unicode="x" horiz-adv-x="475" d="M21 0q37 51 74 101t74 101q-32 44 -63.5 86.5t-63.5 86.5h102q25 -33 49.5 -66.5t49.5 -66.5q24 33 48.5 66.5t48.5 66.5h102q-37 -51 -73.5 -101t-73.5 -101q32 -44 64.5 -86.5t64.5 -86.5h-106q-25 33 -49 66.5t-49 66.5q-24 -33 -48.5 -66.5t-48.5 -66.5h-102z" />
<glyph unicode="y" horiz-adv-x="500" d="M26 375h83q37 -73 79.5 -148.5t68.5 -152.5q13 38 30.5 76.5t37.5 76t40.5 75t38.5 73.5h83q-79 -157 -157.5 -312.5t-157.5 -312.5h-83q32 63 63 125t63 125z" />
<glyph unicode="z" horiz-adv-x="451" d="M42 0v81q31 28 58.5 54.5t54 52.5t53.5 53t59 55h-139q-31 0 -52.5 18t-21.5 47v49h83v-12q0 -16 6.5 -19.5t23.5 -3.5h217v-81q-32 -28 -59 -54.5t-53.5 -52.5t-54 -52t-58.5 -54h248v-81h-365z" />
<glyph unicode="{" horiz-adv-x="320" d="M30 256v81q24 1 39.5 14.5t24.5 33.5t12 43.5t3 43.5v156q0 46 9.5 70.5t25.5 35t37.5 11.5t45.5 1h63v-81h-44q-15 0 -25 -4t-16 -15.5t-8.5 -31.5t-2.5 -52v-129q0 -31 -6.5 -53.5t-16.5 -38.5t-21 -26.5t-21 -16.5q10 -6 21 -16.5t21 -27t16.5 -38.5t6.5 -52v-129 q0 -32 2.5 -52.5t8.5 -31.5t16 -15t25 -4h44v-81h-63q-23 0 -44.5 1t-38 11.5t-26 34.5t-9.5 71v152q0 20 -3 43.5t-12 43.5t-24.5 33.5t-39.5 14.5z" />
<glyph unicode="|" horiz-adv-x="271" d="M91 -232v932h84v-932h-84z" />
<glyph unicode="}" horiz-adv-x="320" d="M30 -68h44q15 0 25 4t16 15t8.5 31.5t2.5 52.5v129q0 30 6.5 52.5t16.5 38.5t21.5 26.5t20.5 16.5q-10 6 -21.5 16.5t-21 26.5t-16 38.5t-6.5 53.5v129q0 32 -2.5 52t-8.5 31.5t-16 15.5t-25 4h-44v81h63q23 0 44.5 -1t38 -11.5t26 -34.5t9.5 -71v-156q0 -20 3.5 -43.5 t12 -43.5t24 -33.5t39.5 -14.5v-81q-24 -1 -39.5 -14.5t-24 -33.5t-12 -43.5t-3.5 -43.5v-152q0 -47 -9.5 -71t-25.5 -34.5t-37.5 -11.5t-45.5 -1h-63v81z" />
<glyph unicode="~" horiz-adv-x="489" d="M121 464q1 20 10 36.5t22 28t28.5 17.5t30.5 6q23 0 41.5 -9t35.5 -24q15 -16 26.5 -21t25.5 -5q7 0 15.5 2t16.5 7t13.5 14t7.5 23l45 -3q-1 -20 -10 -36.5t-22 -27.5t-28.5 -17t-30.5 -6q-23 0 -41.5 9t-35.5 23q-15 16 -26.5 21t-25.5 5t-32 -9t-21 -37z" />
<glyph unicode="&#xa0;" />
<glyph unicode="&#xa1;" horiz-adv-x="200" d="M48 487q0 -23 16 -37.5t36 -14.5q19 0 35 14.5t16 37.5t-16 38t-35 15q-20 0 -36 -15t-16 -38zM58 -210h83v584h-83v-584z" />
<glyph unicode="&#xa2;" horiz-adv-x="385" d="M36 188q0 33 10.5 63t29.5 55t45.5 43t57.5 27v62h84v-56q27 -4 53.5 -14t46.5 -27q-13 -16 -26 -31t-26 -31q-20 14 -48 21v-226q13 3 25.5 9t22.5 14q13 -16 25 -31.5t25 -31.5q-42 -35 -98 -41v-61h-84v68q-31 9 -57.5 27t-45.5 42.5t-29.5 55t-10.5 63.5zM119 188 q0 -34 16 -61t44 -42v204q-28 -14 -44 -40.5t-16 -60.5z" />
<glyph unicode="&#xa3;" horiz-adv-x="574" d="M29 0v81h44q16 0 26 3.5t16 14.5t8 30.5t2 51.5v92h-65v81h65v146q0 69 58 101.5t163 32.5q67 0 107 -30t60 -70q-16 -9 -31.5 -18.5t-31.5 -18.5q-5 7 -11.5 16.5t-17.5 18.5t-29 15t-46 6q-68 0 -102.5 -14t-34.5 -61v-124h117v-81h-117v-110q0 -29 -2.5 -48.5 t-18.5 -33.5h172q32 0 52 2.5t31.5 8.5t15.5 16t4 25v44q21 0 42 0.5t42 0.5v-93q0 -18 -4 -34t-17 -27t-36 -17.5t-61 -6.5h-400z" />
<glyph unicode="&#xa4;" horiz-adv-x="500" d="M85 255l24 24q-22 38 -22 82q0 22 5.5 41.5t15.5 36.5q-6 6 -11.5 12t-11.5 12l59 59l24 -24q19 9 38 15t41 6t42 -5.5t38 -15.5l24 24l59 -59l-22 -22q22 -38 22 -80q0 -44 -23 -81l24 -24l-59 -59q-7 6 -13 12.5t-13 12.5q-35 -20 -79 -20q-42 0 -78 19l-25 -25z M171 360q0 -32 22.5 -54.5t54.5 -22.5q16 0 30.5 6t25 16.5t16.5 24.5t6 30q0 32 -23 55t-55 23q-16 0 -30 -6t-24.5 -16.5t-16.5 -25t-6 -30.5z" />
<glyph unicode="&#xa5;" horiz-adv-x="638" d="M12 700h102q48 -81 96 -161.5t96 -161.5q3 -8 5.5 -15.5t5.5 -15.5h1q3 8 6 15.5t6 15.5q48 81 95.5 161.5t95.5 161.5h102q-53 -90 -105 -178t-105 -178h70v-81h-114v-82h114v-81h-114v-100h-102v100h-117v81h117v82h-117v81h73q-53 90 -105.5 178t-105.5 178z" />
<glyph unicode="&#xa6;" horiz-adv-x="215" d="M69 117h84v-350h-84v350zM69 350v350h84v-350h-84z" />
<glyph unicode="&#xa7;" horiz-adv-x="500" d="M119.5 331.5q-4.5 26.5 0 52.5t17 49t33.5 40q29 23 70 27q-11 17 -20 34t-20 35q-19 33 -25 56.5t-2 41t15.5 29.5t28.5 22q18 11 37 22t37 22q11 -17 21 -35t21 -35q-10 -5 -19.5 -11t-19.5 -11q-12 -8 -18.5 -15t-7 -17t4.5 -23.5t17 -34.5h1q23 -38 44.5 -74.5 t44.5 -74.5q14 -23 18.5 -49t-0.5 -51.5t-18.5 -48.5t-34.5 -39q-29 -23 -70 -29q11 -17 21 -35t21 -35q19 -33 25.5 -57t2.5 -41.5t-16 -30t-28 -22.5q-18 -11 -36.5 -21.5t-36.5 -21.5q-11 17 -21 35t-21 35q10 6 19.5 11.5t19.5 11.5q12 7 18.5 15t5.5 19.5t-8.5 28 t-23.5 42.5q-28 44 -43.5 70t-23.5 39.5t-10 18t-2 6.5q-14 23 -18.5 49.5zM194 360q0 -27 18.5 -45.5t45.5 -18.5q26 0 45 18.5t19 45.5q0 26 -18.5 45t-45.5 19q-26 0 -45 -18.5t-19 -45.5z" />
<glyph unicode="&#xa8;" horiz-adv-x="370" d="M49 520q0 23 16 38t36 15q19 0 35 -15t16 -38t-16 -37.5t-35 -14.5q-20 0 -36 14.5t-16 37.5zM215 520q0 23 16 38t36 15q19 0 35 -15t16 -38t-16 -37.5t-35 -14.5q-20 0 -36 14.5t-16 37.5z" />
<glyph unicode="&#xa9;" horiz-adv-x="793" d="M137 372q0 57 21 105t56.5 83t83.5 54.5t102 19.5t102 -19.5t83.5 -54.5t56.5 -83t21 -105q0 -56 -21 -103.5t-56.5 -82.5t-83.5 -55t-102 -20t-102 20t-83.5 55t-56.5 82.5t-21 103.5zM177 372q0 -48 17 -89t47 -71t71 -47t88 -17t88 17t71 47t47 71t17 89q0 49 -17 90 t-47 71t-71 47t-88 17t-88 -17t-71 -47t-47 -71t-17 -90zM245 375q0 34 12.5 63.5t34.5 51.5t51.5 34.5t62.5 12.5q45 0 83 -22q-5 -8 -10.5 -15.5t-10.5 -15.5q-29 18 -62 18q-26 0 -48 -10t-39 -27.5t-26.5 -40.5t-9.5 -49t9.5 -49t26.5 -40t39 -27t48 -10q34 0 62 17 l21 -30q-18 -11 -39 -17t-44 -6q-33 0 -62.5 13t-51.5 35t-34.5 51.5t-12.5 62.5z" />
<glyph unicode="&#xaa;" horiz-adv-x="585" d="M77 356q0 28 11.5 54t31 45.5t46 31t56.5 11.5q20 0 36.5 -6t29 -12.5t19.5 -13t7 -8.5q0 8 1.5 16.5t1.5 16.5h50v-270h-53v23v7q0 -3 -6.5 -8.5t-18 -11.5t-28.5 -11t-39 -5q-30 0 -56.5 11t-46 30.5t-31 45t-11.5 54.5zM138 357q0 -36 23.5 -60t60.5 -24q38 0 61.5 24 t23.5 60t-23.5 59.5t-61.5 23.5q-37 0 -60.5 -23.5t-23.5 -59.5z" />
<glyph unicode="&#xab;" horiz-adv-x="601" d="M117 239q43 41 85.5 80.5t85.5 80.5v-95q-17 -17 -32.5 -33t-32.5 -33q17 -17 32.5 -33.5t32.5 -33.5v-95zM288 239q43 41 85.5 80.5t85.5 80.5v-94q-17 -17 -32.5 -33.5t-32.5 -33.5q17 -17 32.5 -33.5t32.5 -33.5v-95z" />
<glyph unicode="&#xac;" horiz-adv-x="559" d="M100 188v60h360v-100h-84v40h-276z" />
<glyph unicode="&#xad;" d="M53 147v81h184v-81h-184z" />
<glyph unicode="&#xae;" horiz-adv-x="801" d="M137 372q0 57 21 105t56.5 83t83.5 54.5t102 19.5t102 -19.5t83.5 -54.5t56.5 -83t21 -105q0 -56 -21 -103.5t-56.5 -82.5t-83.5 -55t-102 -20t-102 20t-83.5 55t-56.5 82.5t-21 103.5zM177 372q0 -48 17 -89t47 -71t71 -47t88 -17t88 17t71 47t47 71t17 89q0 49 -17 90 t-47 71t-71 47t-88 17t-88 -17t-71 -47t-47 -71t-17 -90zM320 210v331h79q16 0 35.5 -5t36.5 -16t28.5 -28t11.5 -41q0 -35 -18 -59t-52 -32q18 -38 36 -75t35 -75h-42q-17 37 -35 73.5t-35 74.5h-8h-32v-148h-40zM360 395h41q21 0 34.5 5.5t22 13.5t11.5 18t3 19 q0 21 -20.5 37t-49.5 16h-42v-109z" />
<glyph unicode="&#xaf;" horiz-adv-x="399" d="M85 478v53h230v-53h-230z" />
<glyph unicode="&#xb0;" horiz-adv-x="282" d="M36 560q0 21 8 39t21.5 31.5t32.5 21.5t40 8t39 -8t31.5 -21.5t21.5 -31.5t8 -39t-8 -39.5t-21.5 -32t-31.5 -21t-39 -7.5t-40 7.5t-32.5 21t-21.5 32t-8 39.5zM90 559q0 -20 14 -34t34 -14t34.5 14t14.5 34t-14.5 34.5t-34.5 14.5t-34 -14.5t-14 -34.5z" />
<glyph unicode="&#xb1;" horiz-adv-x="524" d="M86 100v81h360v-81h-360zM86 350v81h138v140h84v-140h138v-81h-138v-139h-84v139h-138z" />
<glyph unicode="&#xb2;" horiz-adv-x="398" d="M60 410q0 19 6.5 37.5t19.5 32.5t32.5 22t44.5 8q23 0 41.5 -8.5t32 -22.5t20.5 -32.5t7 -39.5q0 -24 -8.5 -47t-22.5 -46t-32 -45t-38 -44h120v-40h-219l59.5 59.5t50.5 55.5t35.5 52.5t13.5 48.5q0 19 -6 31.5t-15 21t-19.5 12.5t-19.5 4q-19 0 -31 -6.5t-18.5 -16 t-9.5 -19.5t-3 -18q0 -17 5 -29.5t14 -22.5l-12 -12t-12 -13q-9 6 -15.5 15t-11 19.5t-7 21.5t-2.5 21z" />
<glyph unicode="&#xb3;" horiz-adv-x="419" d="M53 218q8 7 15.5 14t14.5 14q9 -11 21.5 -17t27.5 -6q14 0 26 5.5t21 14.5t14.5 21t5.5 26t-5.5 26t-14.5 21t-21 14t-26 5q-18 0 -32 -8q17 30 34 59.5t35 59.5h-94v40h162q-18 -29 -35.5 -58.5t-34.5 -58.5q16 -6 29.5 -15.5t23 -22.5t15 -28.5t5.5 -33.5 q0 -22 -8.5 -41.5t-23.5 -34t-34.5 -23t-41.5 -8.5q-24 0 -44 9.5t-35 25.5z" />
<glyph unicode="&#xb4;" horiz-adv-x="274" d="M100 479q23 33 45 66.5t45 66.5h84q-29 -33 -57.5 -66.5t-57.5 -66.5h-59z" />
<glyph unicode="&#xb5;" horiz-adv-x="545" d="M82 -201v576h83v-234q2 -27 19.5 -46.5t55.5 -21.5q26 0 49.5 9t41.5 25t29 38t11 48v182h83v-384h-83v60l3 45q-21 -48 -63.5 -75.5t-99.5 -29.5q-25 0 -46 6v-198h-83z" />
<glyph unicode="&#xb6;" horiz-adv-x="547" d="M38 586q0 34 12.5 64t34.5 52t52 35t64 13h246v-750h-83v669h-80v-669h-83v423q-34 0 -64 12.5t-52 34.5t-34.5 52t-12.5 64z" />
<glyph unicode="&#xb7;" horiz-adv-x="168" d="M34 282q0 23 16 38t36 15q19 0 35 -15t16 -38t-16 -37.5t-35 -14.5q-20 0 -36 14.5t-16 37.5z" />
<glyph unicode="&#xb8;" horiz-adv-x="452" d="M106 -175q11 6 23 12t23 12q5 -16 18 -26.5t33 -10.5q24 0 37 16t13 40q0 20 -11 31.5t-23.5 20.5t-23.5 19t-11 27v34h51v-7q0 -14 4 -22.5t10.5 -14t14 -9t13.5 -8.5q21 -16 29.5 -36t8.5 -45q0 -21 -6.5 -40.5t-20 -34.5t-33 -24t-45.5 -9q-34 0 -62.5 18.5 t-41.5 56.5z" />
<glyph unicode="&#xb9;" horiz-adv-x="273" d="M35 446v37h70v-299h-39v262h-31z" />
<glyph unicode="&#xba;" horiz-adv-x="469" d="M73 357q0 28 11 54t30.5 45.5t46 30.5t56.5 11q31 0 57.5 -11t46 -30.5t30.5 -45.5t11 -54q0 -30 -11 -55.5t-30.5 -45t-46 -30.5t-57.5 -11q-30 0 -56.5 11t-46 30.5t-30.5 45t-11 55.5zM133 356q0 -17 6.5 -32.5t17.5 -26.5t26 -17.5t33 -6.5q17 0 32 6.5t26.5 17.5 t18 26.5t6.5 32.5t-6.5 32t-18 27t-26.5 18.5t-32 6.5q-18 0 -33 -6.5t-26 -18.5t-17.5 -27t-6.5 -32z" />
<glyph unicode="&#xbb;" horiz-adv-x="601" d="M117 77l171 162q-43 41 -85.5 80.5t-85.5 80.5v-94q17 -17 32.5 -33.5t32.5 -33.5q-17 -17 -32.5 -33.5t-32.5 -33.5v-95zM288 77l171 162q-43 41 -85.5 80.5t-85.5 80.5v-95q17 -17 32.5 -33t32.5 -33q-17 -17 -32.5 -33.5t-32.5 -33.5v-95z" />
<glyph unicode="&#xbc;" horiz-adv-x="968" d="M93 570v57h108v-461h-60v404h-48zM256 -19q70 190 139 377.5t139 377.5h84q-70 -190 -139 -377.5t-139 -377.5h-84zM379 136q69 89 136.5 177t135.5 177v-293h72v-61h-72v-136h-62v136h-210zM504 197h85v111q-22 -29 -42.5 -56t-42.5 -55z" />
<glyph unicode="&#xbd;" horiz-adv-x="1069" d="M93 570v57h108v-461h-60v404h-48zM256 -19q70 190 139 377.5t139 377.5h84q-70 -190 -139 -377.5t-139 -377.5h-84zM392 323q0 28 9.5 54.5t28.5 46.5t46.5 31.5t63.5 11.5q33 0 60 -12t46 -32.5t29.5 -47t10.5 -56.5q0 -35 -12.5 -68t-32.5 -65.5t-46 -64.5t-55 -64h172 v-57h-313q43 44 84.5 85.5t73 80t51 75t19.5 70.5q0 26 -8.5 44.5t-22 30.5t-28.5 18t-28 6q-27 0 -44 -9.5t-27 -23t-13.5 -28.5t-3.5 -26q0 -23 7 -41.5t20 -32.5q-9 -9 -17.5 -18t-17.5 -18q-12 8 -21.5 21t-16.5 28t-10.5 31t-3.5 30z" />
<glyph unicode="&#xbe;" horiz-adv-x="1276" d="M118 208q11 11 23 22l24 22q14 -17 33.5 -27t42.5 -10q22 0 41 8.5t33 23t22.5 33.5t8.5 41q0 21 -8.5 40t-22.5 33t-33 22t-41 8q-28 0 -50 -13q27 47 53.5 93.5t54.5 93.5h-147v64h254q-28 -47 -55.5 -92.5t-55.5 -91.5q26 -10 47 -25t36.5 -35t24 -44.5t8.5 -52.5 q0 -35 -13.5 -65.5t-37 -53.5t-54 -36t-65.5 -13q-37 0 -68.5 15t-54.5 40zM446 -19q70 190 139 377.5t139 377.5h84q-70 -190 -139 -377.5t-139 -377.5h-84zM527 136q69 89 136.5 177t135.5 177v-293h72v-61h-72v-136h-62v136h-210zM652 197h85v111q-22 -29 -42.5 -56 t-42.5 -55z" />
<glyph unicode="&#xbf;" horiz-adv-x="452" d="M31 2q0 56 26.5 97.5t71.5 75.5q14 10 30 20.5t30 24t23 32t9 45.5v78h84v-97q0 -32 -10 -52t-27 -35.5t-38 -29t-44 -31.5q-36 -27 -53 -59t-17 -69q0 -49 30.5 -81.5t80.5 -32.5q56 0 84 25t43 74q18 -7 36.5 -13.5t36.5 -13.5q-7 -22 -20 -48.5t-36 -49.5t-58 -39 t-86 -16q-41 0 -77 15.5t-62.5 42t-41.5 62t-15 75.5zM213 487q0 23 16 37.5t35 14.5q20 0 36 -14.5t16 -37.5t-16 -38t-36 -15q-19 0 -35 15t-16 38z" />
<glyph unicode="&#xc0;" horiz-adv-x="740" d="M61 0q78 184 155 366t155 366q78 -184 155 -366t155 -366h-83q-29 69 -58.5 138.5t-58.5 138.5h-220q-29 -69 -58.5 -138.5t-58.5 -138.5h-83zM215 883h84q23 -33 45 -66.5t45 -66.5h-59q-29 33 -57.5 66.5t-57.5 66.5zM295 356h152q-17 40 -33.5 79.5t-33.5 79.5l-9 33 q-14 -50 -35 -97t-41 -95z" />
<glyph unicode="&#xc1;" horiz-adv-x="740" d="M61 0q78 184 155 366t155 366q78 -184 155 -366t155 -366h-83q-29 69 -58.5 138.5t-58.5 138.5h-220q-29 -69 -58.5 -138.5t-58.5 -138.5h-83zM295 356h152q-17 40 -33.5 79.5t-33.5 79.5l-9 33q-14 -50 -35 -97t-41 -95zM342 750q23 33 45 66.5t45 66.5h84 q-29 -33 -57.5 -66.5t-57.5 -66.5h-59z" />
<glyph unicode="&#xc2;" horiz-adv-x="740" d="M61 0q78 184 155 366t155 366q78 -184 155 -366t155 -366h-83q-29 69 -58.5 138.5t-58.5 138.5h-220q-29 -69 -58.5 -138.5t-58.5 -138.5h-83zM251 750q30 45 60 90.5t60 90.5q30 -45 60 -90.5t60 -90.5h-59q-15 18 -30.5 36t-30.5 36q-15 -18 -30.5 -36t-30.5 -36h-59z M295 356h152q-17 40 -33.5 79.5t-33.5 79.5l-9 33q-14 -50 -35 -97t-41 -95z" />
<glyph unicode="&#xc3;" horiz-adv-x="740" d="M61 0q78 184 155 366t155 366q78 -184 155 -366t155 -366h-83q-29 69 -58.5 138.5t-58.5 138.5h-220q-29 -69 -58.5 -138.5t-58.5 -138.5h-83zM212 768q1 20 10 36.5t22 28t28.5 17.5t30.5 6q23 0 41.5 -9t35.5 -24q15 -16 26.5 -21t25.5 -5q7 0 15.5 2t16.5 7t13.5 14 t7.5 23l45 -3q-1 -20 -10 -36.5t-22 -27.5t-28.5 -17t-30.5 -6q-23 0 -41.5 9t-35.5 23q-15 16 -26.5 21t-25.5 5t-32 -9t-21 -37zM295 356h152q-17 40 -33.5 79.5t-33.5 79.5l-9 33q-14 -50 -35 -97t-41 -95z" />
<glyph unicode="&#xc4;" horiz-adv-x="740" d="M61 0q78 184 155 366t155 366q78 -184 155 -366t155 -366h-83q-29 69 -58.5 138.5t-58.5 138.5h-220q-29 -69 -58.5 -138.5t-58.5 -138.5h-83zM237 810q0 23 16 38t36 15q19 0 35 -15t16 -38t-16 -37.5t-35 -14.5q-20 0 -36 14.5t-16 37.5zM295 356h152 q-17 40 -33.5 79.5t-33.5 79.5l-9 33q-14 -50 -35 -97t-41 -95zM403 810q0 23 16 38t36 15q19 0 35 -15t16 -38t-16 -37.5t-35 -14.5q-20 0 -36 14.5t-16 37.5z" />
<glyph unicode="&#xc5;" horiz-adv-x="740" d="M61 0q78 184 155 366t155 366q78 -184 155 -366t155 -366h-83q-29 69 -58.5 138.5t-58.5 138.5h-220q-29 -69 -58.5 -138.5t-58.5 -138.5h-83zM284 838q0 18 7 33.5t19 27.5t27.5 19t33.5 7t33.5 -7t27.5 -19t19 -27.5t7 -33.5t-7 -33.5t-19 -27.5t-27.5 -19t-33.5 -7 t-33.5 7t-27.5 19t-19 27.5t-7 33.5zM295 356h152q-17 40 -33.5 79.5t-33.5 79.5l-9 33q-14 -50 -35 -97t-41 -95zM339 837q0 -14 9 -23t23 -9t23.5 9t9.5 23t-9.5 23.5t-23.5 9.5t-23 -9.5t-9 -23.5z" />
<glyph unicode="&#xc6;" horiz-adv-x="800" d="M60 0q75 176 148 350t148 350h350v-79h-253v-229h214v-79h-214v-234h267v-79h-350v264h-115l-56 -132l-56 -132h-83zM288 343h82v205q-14 -52 -37.5 -103t-44.5 -102z" />
<glyph unicode="&#xc7;" horiz-adv-x="670" d="M62 349q0 74 28 139.5t76.5 114t113.5 77t139 28.5q51 0 96.5 -13t86.5 -37q-11 -17 -23 -33.5t-23 -33.5q-31 18 -65 28t-72 10q-57 0 -106.5 -22t-87 -60.5t-59 -89.5t-21.5 -108t21.5 -108t59 -88.5t87 -59.5t106.5 -22q74 0 137 37l45 -66q-38 -22 -80 -35t-88 -15 q0 -14 4.5 -22.5t10.5 -14t13.5 -9t13.5 -7.5q21 -16 29.5 -36t8.5 -45q0 -21 -6.5 -40.5t-20 -34.5t-33 -24t-45.5 -9q-34 0 -62.5 18.5t-41.5 56.5q11 6 23 12t23 12q5 -16 18 -26.5t33 -10.5q24 0 37 16t13 40q0 20 -11 31.5t-23.5 20.5t-23.5 19t-11 27v28 q-68 7 -126 37t-101.5 77.5t-68 109.5t-24.5 131z" />
<glyph unicode="&#xc8;" horiz-adv-x="601" d="M69 0v700h431v-79h-348v-229h309v-79h-309v-234h362v-79h-445zM145 883h84q23 -33 45 -66.5t45 -66.5h-59q-29 33 -57.5 66.5t-57.5 66.5z" />
<glyph unicode="&#xc9;" horiz-adv-x="601" d="M69 0v700h431v-79h-348v-229h309v-79h-309v-234h362v-79h-445zM263 750q23 33 45 66.5t45 66.5h84q-29 -33 -57.5 -66.5t-57.5 -66.5h-59z" />
<glyph unicode="&#xca;" horiz-adv-x="601" d="M69 0v700h431v-79h-348v-229h309v-79h-309v-234h362v-79h-445zM180 750q30 45 60 90.5t60 90.5q30 -45 60 -90.5t60 -90.5h-59q-15 18 -30.5 36t-30.5 36q-15 -18 -30.5 -36t-30.5 -36h-59z" />
<glyph unicode="&#xcb;" horiz-adv-x="601" d="M69 0v700h431v-79h-348v-229h309v-79h-309v-234h362v-79h-445zM156 810q0 23 16 38t36 15q19 0 35 -15t16 -38t-16 -37.5t-35 -14.5q-20 0 -36 14.5t-16 37.5zM322 810q0 23 16 38t36 15q19 0 35 -15t16 -38t-16 -37.5t-35 -14.5q-20 0 -36 14.5t-16 37.5z" />
<glyph unicode="&#xcc;" horiz-adv-x="236" d="M-15 883h84q23 -33 45 -66.5t45 -66.5h-59q-29 33 -57.5 66.5t-57.5 66.5zM99 0v700h83v-700h-83z" />
<glyph unicode="&#xcd;" horiz-adv-x="236" d="M99 0v700h83v-700h-83zM123 750q23 33 45 66.5t45 66.5h84q-29 -33 -57.5 -66.5t-57.5 -66.5h-59z" />
<glyph unicode="&#xce;" horiz-adv-x="286" d="M21 750q30 45 60 90.5t60 90.5q30 -45 60 -90.5t60 -90.5h-59q-15 18 -30.5 36t-30.5 36q-15 -18 -30.5 -36t-30.5 -36h-59zM99 0v700h83v-700h-83z" />
<glyph unicode="&#xcf;" horiz-adv-x="236" d="M4 810q0 23 16 38t36 15q19 0 35 -15t16 -38t-16 -37.5t-35 -14.5q-20 0 -36 14.5t-16 37.5zM99 0v700h83v-700h-83zM170 810q0 23 16 38t36 15q19 0 35 -15t16 -38t-16 -37.5t-35 -14.5q-20 0 -36 14.5t-16 37.5z" />
<glyph unicode="&#xd0;" horiz-adv-x="646" d="M22 309v81h38v310h152q79 0 150.5 -24.5t124.5 -70t84.5 -110.5t31.5 -145q0 -59 -23 -121t-74 -113t-133 -83.5t-200 -32.5h-113v309h-38zM143 79h75q64 0 119.5 19t96 54.5t63.5 85.5t23 112t-23 112.5t-63.5 86t-96 54.5t-119.5 19h-75v-232h181v-81h-181v-230z" />
<glyph unicode="&#xd1;" horiz-adv-x="813" d="M100 0v732q129 -140 256 -277.5t256 -277.5q5 -7 9.5 -13t9.5 -13q-1 8 -1.5 16t-1.5 16v517h83v-732q-129 137 -256 272t-256 272q-5 7 -9.5 13t-9.5 13q1 -8 1.5 -16t1.5 -16v-506h-83zM252 756q1 20 10 36.5t22 28t28.5 17.5t30.5 6q23 0 41.5 -9t35.5 -24 q15 -16 26.5 -21t25.5 -5q7 0 15.5 2t16.5 7t13.5 14t7.5 23l45 -3q-1 -20 -10 -36.5t-22 -27.5t-28.5 -17t-30.5 -6q-23 0 -41.5 9t-35.5 23q-15 16 -26.5 21t-25.5 5t-32 -9t-21 -37z" />
<glyph unicode="&#xd2;" horiz-adv-x="839" d="M60 349q0 73 28 138.5t76.5 114.5t113.5 77.5t139 28.5q73 0 138.5 -28.5t114.5 -77.5t77.5 -114.5t28.5 -138.5q0 -74 -28.5 -139t-77.5 -113.5t-114.5 -76.5t-138.5 -28q-74 0 -139 28t-113.5 76.5t-76.5 113.5t-28 139zM143 349q0 -58 21.5 -108.5t59 -88t87.5 -59.5 t107 -22t107 22t87.5 59.5t59 88t21.5 108.5t-21.5 108.5t-59 88.5t-87.5 60t-107 22t-107 -22t-87.5 -60t-59 -88.5t-21.5 -108.5zM260 883h84q23 -33 45 -66.5t45 -66.5h-59q-29 33 -57.5 66.5t-57.5 66.5z" />
<glyph unicode="&#xd3;" horiz-adv-x="840" d="M60 349q0 73 28 138.5t76.5 114.5t113.5 77.5t139 28.5q73 0 138.5 -28.5t114.5 -77.5t77.5 -114.5t28.5 -138.5q0 -74 -28.5 -139t-77.5 -113.5t-114.5 -76.5t-138.5 -28q-74 0 -139 28t-113.5 76.5t-76.5 113.5t-28 139zM143 349q0 -58 21.5 -108.5t59 -88t87.5 -59.5 t107 -22t107 22t87.5 59.5t59 88t21.5 108.5t-21.5 108.5t-59 88.5t-87.5 60t-107 22t-107 -22t-87.5 -60t-59 -88.5t-21.5 -108.5zM400 750q23 33 45 66.5t45 66.5h84q-29 -33 -57.5 -66.5t-57.5 -66.5h-59z" />
<glyph unicode="&#xd4;" horiz-adv-x="839" d="M60 349q0 73 28 138.5t76.5 114.5t113.5 77.5t139 28.5q73 0 138.5 -28.5t114.5 -77.5t77.5 -114.5t28.5 -138.5q0 -74 -28.5 -139t-77.5 -113.5t-114.5 -76.5t-138.5 -28q-74 0 -139 28t-113.5 76.5t-76.5 113.5t-28 139zM143 349q0 -58 21.5 -108.5t59 -88t87.5 -59.5 t107 -22t107 22t87.5 59.5t59 88t21.5 108.5t-21.5 108.5t-59 88.5t-87.5 60t-107 22t-107 -22t-87.5 -60t-59 -88.5t-21.5 -108.5zM297 750q30 45 60 90.5t60 90.5q30 -45 60 -90.5t60 -90.5h-59q-15 18 -30.5 36t-30.5 36q-15 -18 -30.5 -36t-30.5 -36h-59z" />
<glyph unicode="&#xd5;" horiz-adv-x="839" d="M60 349q0 73 28 138.5t76.5 114.5t113.5 77.5t139 28.5q73 0 138.5 -28.5t114.5 -77.5t77.5 -114.5t28.5 -138.5q0 -74 -28.5 -139t-77.5 -113.5t-114.5 -76.5t-138.5 -28q-74 0 -139 28t-113.5 76.5t-76.5 113.5t-28 139zM143 349q0 -58 21.5 -108.5t59 -88t87.5 -59.5 t107 -22t107 22t87.5 59.5t59 88t21.5 108.5t-21.5 108.5t-59 88.5t-87.5 60t-107 22t-107 -22t-87.5 -60t-59 -88.5t-21.5 -108.5zM262 791q1 20 10 36.5t22 28t28.5 17.5t30.5 6q23 0 41.5 -9t35.5 -24q15 -16 26.5 -21t25.5 -5q7 0 15.5 2t16.5 7t13.5 14t7.5 23l45 -3 q-1 -20 -10 -36.5t-22 -27.5t-28.5 -17t-30.5 -6q-23 0 -41.5 9t-35.5 23q-15 16 -26.5 21t-25.5 5t-32 -9t-21 -37z" />
<glyph unicode="&#xd6;" horiz-adv-x="839" d="M60 349q0 73 28 138.5t76.5 114.5t113.5 77.5t139 28.5q73 0 138.5 -28.5t114.5 -77.5t77.5 -114.5t28.5 -138.5q0 -74 -28.5 -139t-77.5 -113.5t-114.5 -76.5t-138.5 -28q-74 0 -139 28t-113.5 76.5t-76.5 113.5t-28 139zM143 349q0 -58 21.5 -108.5t59 -88t87.5 -59.5 t107 -22t107 22t87.5 59.5t59 88t21.5 108.5t-21.5 108.5t-59 88.5t-87.5 60t-107 22t-107 -22t-87.5 -60t-59 -88.5t-21.5 -108.5zM284 810q0 23 16 38t36 15q19 0 35 -15t16 -38t-16 -37.5t-35 -14.5q-20 0 -36 14.5t-16 37.5zM450 810q0 23 16 38t36 15q19 0 35 -15 t16 -38t-16 -37.5t-35 -14.5q-20 0 -36 14.5t-16 37.5z" />
<glyph unicode="&#xd7;" horiz-adv-x="500" d="M109 255l59 59l99 -99l98 98q14 -14 28.5 -29t28.5 -29l-97 -97q25 -25 49 -49.5t49 -49.5l-59 -59q-25 25 -49.5 49t-49.5 49l-97 -97q-14 14 -29 28.5t-29 28.5l98 98z" />
<glyph unicode="&#xd8;" horiz-adv-x="840" d="M62 349q0 74 28 139.5t76.5 114t113.5 77t139 28.5q57 0 108.5 -17t95.5 -47q16 19 32 37.5t32 37.5q14 -13 29 -25.5t29 -25.5q-16 -19 -32 -37t-32 -37q45 -48 71 -111t26 -134q0 -74 -28.5 -139t-77 -113.5t-114 -76.5t-139.5 -28q-57 0 -107.5 16t-93.5 45 q-15 -17 -30 -35t-30 -35q-14 13 -29 25.5t-29 25.5q15 17 29.5 34.5t29.5 34.5q-45 48 -71 111t-26 135zM145 349q0 -53 18 -99.5t50 -83.5q90 105 178.5 208t178.5 208q-33 22 -71 34.5t-80 12.5q-57 0 -106.5 -22t-87 -60.5t-59 -89.5t-21.5 -108zM271 115 q32 -21 69 -32.5t79 -11.5q57 0 107 22t87.5 59.5t59.5 88.5t22 108q0 52 -18 98.5t-50 83.5q-90 -105 -178 -208t-178 -208z" />
<glyph unicode="&#xd9;" horiz-adv-x="652" d="M76 226v474h83v-471q0 -38 12.5 -67.5t35 -49.5t53.5 -30.5t68 -10.5t68 10.5t53.5 30.5t35.5 49.5t13 67.5v471h83v-474q0 -57 -19.5 -101t-53.5 -73.5t-80 -44.5t-100 -15t-100 15t-80 44.5t-53 73.5t-19 101zM186 883h84q23 -33 45 -66.5t45 -66.5h-59 q-29 33 -57.5 66.5t-57.5 66.5z" />
<glyph unicode="&#xda;" horiz-adv-x="652" d="M76 226v474h83v-471q0 -38 12.5 -67.5t35 -49.5t53.5 -30.5t68 -10.5t68 10.5t53.5 30.5t35.5 49.5t13 67.5v471h83v-474q0 -57 -19.5 -101t-53.5 -73.5t-80 -44.5t-100 -15t-100 15t-80 44.5t-53 73.5t-19 101zM300 750q23 33 45 66.5t45 66.5h84q-29 -33 -57.5 -66.5 t-57.5 -66.5h-59z" />
<glyph unicode="&#xdb;" horiz-adv-x="652" d="M76 226v474h83v-471q0 -38 12.5 -67.5t35 -49.5t53.5 -30.5t68 -10.5t68 10.5t53.5 30.5t35.5 49.5t13 67.5v471h83v-474q0 -57 -19.5 -101t-53.5 -73.5t-80 -44.5t-100 -15t-100 15t-80 44.5t-53 73.5t-19 101zM206 751q30 45 60 90.5t60 90.5q30 -45 60 -90.5t60 -90.5 h-59q-15 18 -30.5 36t-30.5 36q-15 -18 -30.5 -36t-30.5 -36h-59z" />
<glyph unicode="&#xdc;" horiz-adv-x="652" d="M76 226v474h83v-471q0 -38 12.5 -67.5t35 -49.5t53.5 -30.5t68 -10.5t68 10.5t53.5 30.5t35.5 49.5t13 67.5v471h83v-474q0 -57 -19.5 -101t-53.5 -73.5t-80 -44.5t-100 -15t-100 15t-80 44.5t-53 73.5t-19 101zM196 810q0 23 16 38t36 15q19 0 35 -15t16 -38t-16 -37.5 t-35 -14.5q-20 0 -36 14.5t-16 37.5zM362 810q0 23 16 38t36 15q19 0 35 -15t16 -38t-16 -37.5t-35 -14.5q-20 0 -36 14.5t-16 37.5z" />
<glyph unicode="&#xdd;" horiz-adv-x="638" d="M12 700h102q48 -81 96 -161.5t96 -161.5q3 -8 5.5 -15.5t5.5 -15.5h1q3 8 6 15.5t6 15.5q48 81 95.5 161.5t95.5 161.5h102q-64 -109 -127 -215.5t-127 -215.5v-269h-102v270q-64 108 -127.5 215t-127.5 215zM278 750q23 33 45 66.5t45 66.5h84q-29 -33 -57.5 -66.5 t-57.5 -66.5h-59z" />
<glyph unicode="&#xde;" horiz-adv-x="501" d="M100 0v700h83v-165h82q34 0 75.5 -10.5t77.5 -33.5t60 -59t24 -87q0 -91 -54 -144.5t-156 -53.5h-109v-147h-83zM183 227h87q44 0 72.5 11.5t45.5 28.5t24 38t7 40q0 22 -11.5 42.5t-31 36t-47 24.5t-58.5 9h-88v-230z" />
<glyph unicode="&#xdf;" horiz-adv-x="573" d="M9 334v81h64v8q0 54 17.5 97.5t46.5 74t67 46.5t79 16q33 0 62 -12.5t51 -34.5t34.5 -51t12.5 -62q0 -32 -12 -59.5t-32 -47.5q46 -29 74.5 -76.5t28.5 -105.5q0 -45 -17.5 -84.5t-47.5 -69t-69.5 -46.5t-84.5 -17q-47 0 -86 18q8 19 17 37t17 37q25 -11 52 -11 q28 0 52.5 11t43 29.5t29.5 43t11 52.5t-11 52.5t-30 42.5t-43.5 28.5t-52.5 10.5h-1q0 10 -0.5 19.5t-0.5 20.5v41q34 0 57 19.5t23 54.5q0 16 -6 30.5t-16 25.5t-24 17t-30 6q-57 -3 -92.5 -43.5t-35.5 -114.5v-418h-83v334h-64z" />
<glyph unicode="&#xe0;" horiz-adv-x="551" d="M49 187q0 39 15.5 75t42.5 63t64 43t79 16q27 0 50 -8t40 -17.5t27 -18.5t10 -12q0 11 2 23t2 24h69v-375h-73v32v9q0 -3 -9 -11t-25 -16.5t-39.5 -15.5t-53.5 -7q-42 0 -79 15.5t-64 42.5t-42.5 62.5t-15.5 75.5zM104 612h84q23 -33 45 -66.5t45 -66.5h-59 q-29 33 -57.5 66.5t-57.5 66.5zM133 188q0 -49 32.5 -82.5t84.5 -33.5t84.5 33.5t32.5 82.5q0 50 -32.5 82.5t-84.5 32.5t-84.5 -32.5t-32.5 -82.5z" />
<glyph unicode="&#xe1;" horiz-adv-x="551" d="M49 187q0 39 15.5 75t42.5 63t64 43t79 16q27 0 50 -8t40 -17.5t27 -18.5t10 -12q0 11 2 23t2 24h69v-375h-73v32v9q0 -3 -9 -11t-25 -16.5t-39.5 -15.5t-53.5 -7q-42 0 -79 15.5t-64 42.5t-42.5 62.5t-15.5 75.5zM133 188q0 -49 32.5 -82.5t84.5 -33.5t84.5 33.5 t32.5 82.5q0 50 -32.5 82.5t-84.5 32.5t-84.5 -32.5t-32.5 -82.5zM232 479q23 33 45 66.5t45 66.5h84q-29 -33 -57.5 -66.5t-57.5 -66.5h-59z" />
<glyph unicode="&#xe2;" horiz-adv-x="551" d="M49 187q0 39 15.5 75t42.5 63t64 43t79 16q27 0 50 -8t40 -17.5t27 -18.5t10 -12q0 11 2 23t2 24h69v-375h-73v32v9q0 -3 -9 -11t-25 -16.5t-39.5 -15.5t-53.5 -7q-42 0 -79 15.5t-64 42.5t-42.5 62.5t-15.5 75.5zM133 188q0 -49 32.5 -82.5t84.5 -33.5t84.5 33.5 t32.5 82.5q0 50 -32.5 82.5t-84.5 32.5t-84.5 -32.5t-32.5 -82.5zM141 479q30 45 60 90.5t60 90.5q30 -45 60 -90.5t60 -90.5h-59q-15 18 -30.5 36t-30.5 36q-15 -18 -30.5 -36t-30.5 -36h-59z" />
<glyph unicode="&#xe3;" horiz-adv-x="551" d="M49 187q0 39 15.5 75t42.5 63t64 43t79 16q27 0 50 -8t40 -17.5t27 -18.5t10 -12q0 11 2 23t2 24h69v-375h-73v32v9q0 -3 -9 -11t-25 -16.5t-39.5 -15.5t-53.5 -7q-42 0 -79 15.5t-64 42.5t-42.5 62.5t-15.5 75.5zM116 464q1 20 10 36.5t22 28t28.5 17.5t30.5 6 q23 0 41.5 -9t35.5 -24q15 -16 26.5 -21t25.5 -5q7 0 15.5 2t16.5 7t13.5 14t7.5 23l45 -3q-1 -20 -10 -36.5t-22 -27.5t-28.5 -17t-30.5 -6q-23 0 -41.5 9t-35.5 23q-15 16 -26.5 21t-25.5 5t-32 -9t-21 -37zM133 188q0 -49 32.5 -82.5t84.5 -33.5t84.5 33.5t32.5 82.5 q0 50 -32.5 82.5t-84.5 32.5t-84.5 -32.5t-32.5 -82.5z" />
<glyph unicode="&#xe4;" horiz-adv-x="551" d="M49 187q0 39 15.5 75t42.5 63t64 43t79 16q27 0 50 -8t40 -17.5t27 -18.5t10 -12q0 11 2 23t2 24h69v-375h-73v32v9q0 -3 -9 -11t-25 -16.5t-39.5 -15.5t-53.5 -7q-42 0 -79 15.5t-64 42.5t-42.5 62.5t-15.5 75.5zM127 520q0 23 16 38t36 15q19 0 35 -15t16 -38 t-16 -37.5t-35 -14.5q-20 0 -36 14.5t-16 37.5zM133 188q0 -49 32.5 -82.5t84.5 -33.5t84.5 33.5t32.5 82.5q0 50 -32.5 82.5t-84.5 32.5t-84.5 -32.5t-32.5 -82.5zM293 520q0 23 16 38t36 15q19 0 35 -15t16 -38t-16 -37.5t-35 -14.5q-20 0 -36 14.5t-16 37.5z" />
<glyph unicode="&#xe5;" horiz-adv-x="551" d="M49 187q0 39 15.5 75t42.5 63t64 43t79 16q27 0 50 -8t40 -17.5t27 -18.5t10 -12q0 11 2 23t2 24h69v-375h-73v32v9q0 -3 -9 -11t-25 -16.5t-39.5 -15.5t-53.5 -7q-42 0 -79 15.5t-64 42.5t-42.5 62.5t-15.5 75.5zM133 188q0 -49 32.5 -82.5t84.5 -33.5t84.5 33.5 t32.5 82.5q0 50 -32.5 82.5t-84.5 32.5t-84.5 -32.5t-32.5 -82.5zM163 540q0 18 7 33.5t19 27.5t27.5 19t33.5 7t33.5 -7t27.5 -19t19 -27.5t7 -33.5t-7 -33.5t-19 -27.5t-27.5 -19t-33.5 -7t-33.5 7t-27.5 19t-19 27.5t-7 33.5zM218 539q0 -14 9 -23t23 -9t23.5 9t9.5 23 t-9.5 23.5t-23.5 9.5t-23 -9.5t-9 -23.5z" />
<glyph unicode="&#xe6;" horiz-adv-x="629" d="M43 112q0 31 12 52.5t32.5 34t46.5 18t53 5.5h89v24q0 15 -2.5 25.5t-10 18t-22 11t-37.5 3.5q-13 0 -27.5 -2.5t-28.5 -6.5t-26.5 -9t-19.5 -10q-11 14 -22 26.5t-22 26.5q11 11 28.5 21.5t37.5 18t41 12t40 4.5q78 0 112 -22q44 22 93 22q31 0 59.5 -12.5t51 -34.5 t39.5 -52.5t26 -66.5q-57 -21 -113 -42t-113 -42v-4q0 -24 -5 -47q12 -6 26 -8.5t29 -2.5q46 0 76 32l51 -60q-25 -25 -57 -39t-70 -14q-53 0 -98 25q-37 -25 -109 -25q-36 0 -65.5 5.5t-50.5 19.5t-32.5 37t-11.5 58zM127 108q0 -21 24 -28t51 -7q11 0 24 0.5t24 3.5 t18.5 10.5t7.5 22.5v26h-56q-14 0 -30.5 -1t-30.5 -4t-23 -8.5t-9 -14.5zM357 293q3 -21 3 -49v-22l60 22l60 22q-14 17 -31.5 27.5t-38.5 10.5q-29 0 -53 -11z" />
<glyph unicode="&#xe7;" horiz-adv-x="395" d="M36 188q0 40 15.5 76t42.5 62.5t63.5 42t78.5 15.5q37 0 69 -11.5t58 -31.5q-13 -16 -26 -31t-26 -31q-32 24 -75 24q-52 0 -84.5 -32.5t-32.5 -82.5q0 -49 32.5 -82.5t84.5 -33.5q44 0 75 25q13 -16 25 -31.5t25 -31.5q-26 -20 -58 -31.5t-68 -11.5q0 -14 4.5 -22 t11 -13.5t13.5 -9t13 -7.5q21 -16 29.5 -36t8.5 -45q0 -34 -17 -62.5t-51 -39.5q-17 -6 -37 -6q-34 0 -62.5 18.5t-41.5 56.5q11 6 23 12t23 12q5 -16 18 -26.5t33 -10.5q24 0 37 16t13 40q0 20 -11 31.5t-23.5 20.5t-23.5 19t-11 27v32q-32 8 -59.5 26t-47 43t-30.5 56 t-11 65z" />
<glyph unicode="&#xe8;" horiz-adv-x="451" d="M36 188q0 40 15.5 76t42.5 62.5t63.5 42t78.5 15.5q31 0 59.5 -12.5t51 -34.5t39.5 -52.5t26 -66.5q-68 -25 -135.5 -50t-135.5 -50q15 -21 39.5 -33.5t55.5 -12.5q46 0 76 32l51 -60q-25 -25 -57 -39t-70 -14q-42 0 -78.5 15.5t-63.5 42.5t-42.5 62.5t-15.5 76.5z M58 612h84q23 -33 45 -66.5t45 -66.5h-59q-29 33 -57.5 66.5t-57.5 66.5zM119 196q47 17 93.5 34.5t93.5 34.5q-14 17 -31.5 27.5t-38.5 10.5q-40 0 -69 -20t-41 -52q-5 -15 -7 -35z" />
<glyph unicode="&#xe9;" horiz-adv-x="451" d="M36 188q0 40 15.5 76t42.5 62.5t63.5 42t78.5 15.5q31 0 59.5 -12.5t51 -34.5t39.5 -52.5t26 -66.5q-68 -25 -135.5 -50t-135.5 -50q15 -21 39.5 -33.5t55.5 -12.5q46 0 76 32l51 -60q-25 -25 -57 -39t-70 -14q-42 0 -78.5 15.5t-63.5 42.5t-42.5 62.5t-15.5 76.5z M119 196q47 17 93.5 34.5t93.5 34.5q-14 17 -31.5 27.5t-38.5 10.5q-40 0 -69 -20t-41 -52q-5 -15 -7 -35zM219 479q23 33 45 66.5t45 66.5h84q-29 -33 -57.5 -66.5t-57.5 -66.5h-59z" />
<glyph unicode="&#xea;" horiz-adv-x="451" d="M36 188q0 40 15.5 76t42.5 62.5t63.5 42t78.5 15.5q31 0 59.5 -12.5t51 -34.5t39.5 -52.5t26 -66.5q-68 -25 -135.5 -50t-135.5 -50q15 -21 39.5 -33.5t55.5 -12.5q46 0 76 32l51 -60q-25 -25 -57 -39t-70 -14q-42 0 -78.5 15.5t-63.5 42.5t-42.5 62.5t-15.5 76.5z M112 479q30 45 60 90.5t60 90.5q30 -45 60 -90.5t60 -90.5h-59q-15 18 -30.5 36t-30.5 36q-15 -18 -30.5 -36t-30.5 -36h-59zM119 196q47 17 93.5 34.5t93.5 34.5q-14 17 -31.5 27.5t-38.5 10.5q-40 0 -69 -20t-41 -52q-5 -15 -7 -35z" />
<glyph unicode="&#xeb;" horiz-adv-x="451" d="M36 188q0 40 15.5 76t42.5 62.5t63.5 42t78.5 15.5q31 0 59.5 -12.5t51 -34.5t39.5 -52.5t26 -66.5q-68 -25 -135.5 -50t-135.5 -50q15 -21 39.5 -33.5t55.5 -12.5q46 0 76 32l51 -60q-25 -25 -57 -39t-70 -14q-42 0 -78.5 15.5t-63.5 42.5t-42.5 62.5t-15.5 76.5z M95 520q0 23 16 38t36 15q19 0 35 -15t16 -38t-16 -37.5t-35 -14.5q-20 0 -36 14.5t-16 37.5zM119 196q47 17 93.5 34.5t93.5 34.5q-14 17 -31.5 27.5t-38.5 10.5q-40 0 -69 -20t-41 -52q-5 -15 -7 -35zM261 520q0 23 16 38t36 15q19 0 35 -15t16 -38t-16 -37.5t-35 -14.5 q-20 0 -36 14.5t-16 37.5z" />
<glyph unicode="&#xec;" horiz-adv-x="174" d="M-57 612h84q23 -33 45 -66.5t45 -66.5h-59q-29 33 -57.5 66.5t-57.5 66.5zM58 0v375h83v-375h-83z" />
<glyph unicode="&#xed;" horiz-adv-x="194" d="M58 0v375h83v-375h-83zM82 479q23 33 45 66.5t45 66.5h84q-29 -33 -57.5 -66.5t-57.5 -66.5h-59z" />
<glyph unicode="&#xee;" horiz-adv-x="239" d="M-4 479q30 45 60 90.5t60 90.5q30 -45 60 -90.5t60 -90.5h-59q-15 18 -30.5 36t-30.5 36q-15 -18 -30.5 -36t-30.5 -36h-59zM75 0v375h83v-375h-83z" />
<glyph unicode="&#xef;" horiz-adv-x="271" d="M6 520q0 23 16 38t36 15q19 0 35 -15t16 -38t-16 -37.5t-35 -14.5q-20 0 -36 14.5t-16 37.5zM99 0v375h83v-375h-83zM172 520q0 23 16 38t36 15q19 0 35 -15t16 -38t-16 -37.5t-35 -14.5q-20 0 -36 14.5t-16 37.5z" />
<glyph unicode="&#xf0;" horiz-adv-x="493" d="M52 185q-1 40 13.5 76.5t41 63.5t62.5 43.5t78 17.5q32 1 64 -8q-13 40 -32.5 77.5t-43.5 72.5q-11 -13 -23 -25t-23 -25q-14 14 -29 26.5t-29 26.5l28 30l28 30q-44 51 -92 92q15 14 30.5 27.5t30.5 27.5q45 -35 90 -83q11 13 22.5 25t22.5 25q14 -13 29 -25.5t29 -25.5 q-14 -15 -27 -29.5t-27 -29.5q31 -41 59.5 -90t50.5 -101t35 -105t13 -102q1 -41 -13.5 -77t-40.5 -63.5t-62 -44.5t-78 -18t-79 13.5t-65 40.5t-45 61t-18 76zM136 188q0 -25 9.5 -46t25 -36t37.5 -23.5t48 -7.5t47 10.5t36 25.5t23 37.5t8 45.5q-1 25 -10.5 46t-25 36 t-37.5 23t-47 7q-53 -2 -84.5 -35t-29.5 -83z" />
<glyph unicode="&#xf1;" horiz-adv-x="523" d="M82 0v375h73v-9q2 -24 3.5 -43.5t3.5 -43.5q20 48 64.5 76.5t98.5 28.5q59 0 93 -31t36 -81v-272h-83v234q-2 27 -19.5 46.5t-55.5 21.5q-26 0 -49.5 -9t-41.5 -25t-29 -38t-11 -48v-182h-83zM127 458q1 20 10 36.5t22 28t28.5 17.5t30.5 6q23 0 41.5 -9t35.5 -24 q15 -16 26.5 -21t25.5 -5q7 0 15.5 2t16.5 7t13.5 14t7.5 23l45 -3q-1 -20 -10 -36.5t-22 -27.5t-28.5 -17t-30.5 -6q-23 0 -41.5 9t-35.5 23q-15 16 -26.5 21t-25.5 5t-32 -9t-21 -37z" />
<glyph unicode="&#xf2;" horiz-adv-x="469" d="M36 188q0 40 15.5 76t42.5 62.5t63.5 42t78.5 15.5t79 -15.5t64 -42t42.5 -62.5t15.5 -76q0 -41 -15.5 -76.5t-42.5 -62.5t-64 -42.5t-79 -15.5t-78.5 15.5t-63.5 42.5t-42.5 62.5t-15.5 76.5zM69 612h84q23 -33 45 -66.5t45 -66.5h-59q-29 33 -57.5 66.5t-57.5 66.5z M119 187q0 -24 9 -45t24.5 -36.5t36.5 -24.5t45 -9t45 9t37 24.5t25 36.5t9 45t-9 45t-25 37t-37 25t-45 9t-45 -9t-36.5 -25t-24.5 -37t-9 -45z" />
<glyph unicode="&#xf3;" horiz-adv-x="469" d="M36 188q0 40 15.5 76t42.5 62.5t63.5 42t78.5 15.5t79 -15.5t64 -42t42.5 -62.5t15.5 -76q0 -41 -15.5 -76.5t-42.5 -62.5t-64 -42.5t-79 -15.5t-78.5 15.5t-63.5 42.5t-42.5 62.5t-15.5 76.5zM119 187q0 -24 9 -45t24.5 -36.5t36.5 -24.5t45 -9t45 9t37 24.5t25 36.5 t9 45t-9 45t-25 37t-37 25t-45 9t-45 -9t-36.5 -25t-24.5 -37t-9 -45zM231 479q23 33 45 66.5t45 66.5h84q-29 -33 -57.5 -66.5t-57.5 -66.5h-59z" />
<glyph unicode="&#xf4;" horiz-adv-x="469" d="M36 188q0 40 15.5 76t42.5 62.5t63.5 42t78.5 15.5t79 -15.5t64 -42t42.5 -62.5t15.5 -76q0 -41 -15.5 -76.5t-42.5 -62.5t-64 -42.5t-79 -15.5t-78.5 15.5t-63.5 42.5t-42.5 62.5t-15.5 76.5zM112 479q30 45 60 90.5t60 90.5q30 -45 60 -90.5t60 -90.5h-59 q-15 18 -30.5 36t-30.5 36q-15 -18 -30.5 -36t-30.5 -36h-59zM119 187q0 -24 9 -45t24.5 -36.5t36.5 -24.5t45 -9t45 9t37 24.5t25 36.5t9 45t-9 45t-25 37t-37 25t-45 9t-45 -9t-36.5 -25t-24.5 -37t-9 -45z" />
<glyph unicode="&#xf5;" horiz-adv-x="469" d="M36 188q0 40 15.5 76t42.5 62.5t63.5 42t78.5 15.5t79 -15.5t64 -42t42.5 -62.5t15.5 -76q0 -41 -15.5 -76.5t-42.5 -62.5t-64 -42.5t-79 -15.5t-78.5 15.5t-63.5 42.5t-42.5 62.5t-15.5 76.5zM81 464q1 20 10 36.5t22 28t28.5 17.5t30.5 6q23 0 41.5 -9t35.5 -24 q15 -16 26.5 -21t25.5 -5q7 0 15.5 2t16.5 7t13.5 14t7.5 23l45 -3q-1 -20 -10 -36.5t-22 -27.5t-28.5 -17t-30.5 -6q-23 0 -41.5 9t-35.5 23q-15 16 -26.5 21t-25.5 5t-32 -9t-21 -37zM119 187q0 -24 9 -45t24.5 -36.5t36.5 -24.5t45 -9t45 9t37 24.5t25 36.5t9 45t-9 45 t-25 37t-37 25t-45 9t-45 -9t-36.5 -25t-24.5 -37t-9 -45z" />
<glyph unicode="&#xf6;" horiz-adv-x="469" d="M36 188q0 40 15.5 76t42.5 62.5t63.5 42t78.5 15.5t79 -15.5t64 -42t42.5 -62.5t15.5 -76q0 -41 -15.5 -76.5t-42.5 -62.5t-64 -42.5t-79 -15.5t-78.5 15.5t-63.5 42.5t-42.5 62.5t-15.5 76.5zM101 520q0 23 16 38t36 15q19 0 35 -15t16 -38t-16 -37.5t-35 -14.5 q-20 0 -36 14.5t-16 37.5zM119 187q0 -24 9 -45t24.5 -36.5t36.5 -24.5t45 -9t45 9t37 24.5t25 36.5t9 45t-9 45t-25 37t-37 25t-45 9t-45 -9t-36.5 -25t-24.5 -37t-9 -45zM267 520q0 23 16 38t36 15q19 0 35 -15t16 -38t-16 -37.5t-35 -14.5q-20 0 -36 14.5t-16 37.5z" />
<glyph unicode="&#xf7;" horiz-adv-x="501" d="M68 206v81h360v-81h-360zM199 123q0 23 16 38t36 15q19 0 35 -15t16 -38t-16 -37.5t-35 -14.5q-20 0 -36 14.5t-16 37.5zM199 373q0 23 16 38t36 15q19 0 35 -15t16 -38t-16 -37.5t-35 -14.5q-20 0 -36 14.5t-16 37.5z" />
<glyph unicode="&#xf8;" horiz-adv-x="469" d="M36 188q0 40 15.5 76t42.5 62.5t63.5 42t78.5 15.5q56 0 100 -26q9 11 18.5 21.5t18.5 21.5q11 -10 22.5 -20t22.5 -20q-8 -10 -17 -20t-17 -20q25 -26 39 -60.5t14 -72.5q0 -41 -15.5 -76.5t-42.5 -62.5t-64 -42.5t-79 -15.5q-31 0 -58.5 8.5t-50.5 23.5 q-11 -12 -21 -24.5t-21 -24.5q-11 10 -23 19t-23 19q11 13 21.5 25t21.5 25q-22 26 -34 58t-12 68zM119 188q0 -35 17 -63q37 43 73 85t73 85q-22 8 -46 8q-52 0 -84.5 -32.5t-32.5 -82.5zM180 85q26 -13 56 -13q52 0 84.5 33.5t32.5 82.5q0 20 -6 38.5t-17 32.5z" />
<glyph unicode="&#xf9;" horiz-adv-x="529" d="M82 103v272h83v-234q2 -27 19.5 -46.5t55.5 -21.5q26 0 49.5 9t41.5 25t29 38t11 48v182h83v-384h-83v60l3 45q-20 -48 -64.5 -76.5t-98.5 -28.5q-59 0 -93 31t-36 81zM126 612h84q23 -33 45 -66.5t45 -66.5h-59q-29 33 -57.5 66.5t-57.5 66.5z" />
<glyph unicode="&#xfa;" horiz-adv-x="529" d="M82 103v272h83v-234q2 -27 19.5 -46.5t55.5 -21.5q26 0 49.5 9t41.5 25t29 38t11 48v182h83v-384h-83v60l3 45q-20 -48 -64.5 -76.5t-98.5 -28.5q-59 0 -93 31t-36 81zM231 479q23 33 45 66.5t45 66.5h84q-29 -33 -57.5 -66.5t-57.5 -66.5h-59z" />
<glyph unicode="&#xfb;" horiz-adv-x="529" d="M82 103v272h83v-234q2 -27 19.5 -46.5t55.5 -21.5q26 0 49.5 9t41.5 25t29 38t11 48v182h83v-384h-83v60l3 45q-20 -48 -64.5 -76.5t-98.5 -28.5q-59 0 -93 31t-36 81zM146 479q30 45 60 90.5t60 90.5q30 -45 60 -90.5t60 -90.5h-59q-15 18 -30.5 36t-30.5 36 q-15 -18 -30.5 -36t-30.5 -36h-59z" />
<glyph unicode="&#xfc;" horiz-adv-x="529" d="M82 103v272h83v-234q2 -27 19.5 -46.5t55.5 -21.5q26 0 49.5 9t41.5 25t29 38t11 48v182h83v-384h-83v60l3 45q-20 -48 -64.5 -76.5t-98.5 -28.5q-59 0 -93 31t-36 81zM128 520q0 23 16 38t36 15q19 0 35 -15t16 -38t-16 -37.5t-35 -14.5q-20 0 -36 14.5t-16 37.5z M294 520q0 23 16 38t36 15q19 0 35 -15t16 -38t-16 -37.5t-35 -14.5q-20 0 -36 14.5t-16 37.5z" />
<glyph unicode="&#xfd;" horiz-adv-x="488" d="M26 375h83q37 -73 79.5 -148.5t68.5 -152.5q13 38 30.5 76.5t37.5 76t40.5 75t38.5 73.5h83q-79 -157 -157.5 -312.5t-157.5 -312.5h-83q32 63 63 125t63 125zM241 479q23 33 45 66.5t45 66.5h84q-29 -33 -57.5 -66.5t-57.5 -66.5h-59z" />
<glyph unicode="&#xfe;" horiz-adv-x="557" d="M67 -250v1000h83v-390q-2 -8 -5 -16t-5 -16q0 3 10 11.5t27 18t40 17t50 7.5q42 0 79 -15.5t64 -42.5t42.5 -62.5t15.5 -74.5q0 -40 -15.5 -75.5t-42.5 -62.5t-64 -42.5t-79 -15.5q-30 0 -53.5 7t-39.5 15.5t-25 16.5t-9 11q2 -5 5 -11t5 -11v-269h-83zM150 188 q0 -49 32.5 -82.5t84.5 -33.5t84.5 33.5t32.5 82.5q0 50 -32.5 82.5t-84.5 32.5t-84.5 -32.5t-32.5 -82.5z" />
<glyph unicode="&#xff;" horiz-adv-x="488" d="M26 375h83q37 -73 79.5 -148.5t68.5 -152.5q13 38 30.5 76.5t37.5 76t40.5 75t38.5 73.5h83q-79 -157 -157.5 -312.5t-157.5 -312.5h-83q32 63 63 125t63 125zM120 520q0 23 16 38t36 15q19 0 35 -15t16 -38t-16 -37.5t-35 -14.5q-20 0 -36 14.5t-16 37.5zM286 520 q0 23 16 38t36 15q19 0 35 -15t16 -38t-16 -37.5t-35 -14.5q-20 0 -36 14.5t-16 37.5z" />
<glyph unicode="&#x2000;" horiz-adv-x="466" />
<glyph unicode="&#x2001;" horiz-adv-x="932" />
<glyph unicode="&#x2002;" horiz-adv-x="466" />
<glyph unicode="&#x2003;" horiz-adv-x="932" />
<glyph unicode="&#x2004;" horiz-adv-x="310" />
<glyph unicode="&#x2005;" horiz-adv-x="233" />
<glyph unicode="&#x2006;" horiz-adv-x="155" />
<glyph unicode="&#x2007;" horiz-adv-x="155" />
<glyph unicode="&#x2008;" horiz-adv-x="116" />
<glyph unicode="&#x2009;" horiz-adv-x="186" />
<glyph unicode="&#x200a;" horiz-adv-x="51" />
<glyph unicode="&#x2010;" d="M53 147v81h184v-81h-184z" />
<glyph unicode="&#x2011;" d="M53 147v81h184v-81h-184z" />
<glyph unicode="&#x2012;" d="M53 147v81h184v-81h-184z" />
<glyph unicode="&#x2013;" horiz-adv-x="509" d="M100 174v81h301v-81h-301z" />
<glyph unicode="&#x2014;" horiz-adv-x="700" d="M99 174v81h502v-81h-502z" />
<glyph unicode="&#x2018;" horiz-adv-x="164" d="M31 711q13 -2 26 -3.5t26 -3.5q-7 -35 2.5 -64.5t30.5 -49.5q-11 -6 -20.5 -12t-20.5 -12q-28 28 -40 65.5t-4 79.5z" />
<glyph unicode="&#x2019;" horiz-adv-x="164" d="M35 590q21 20 30.5 49.5t2.5 64.5q13 2 26 3.5t26 3.5q8 -42 -4 -79.5t-40 -65.5q-11 6 -20.5 12t-20.5 12z" />
<glyph unicode="&#x201a;" horiz-adv-x="146" d="M19 -29q21 20 30.5 49.5t2.5 64.5q13 2 26 3.5t26 3.5q8 -42 -4 -79.5t-40 -65.5q-11 6 -20.5 12t-20.5 12z" />
<glyph unicode="&#x201c;" horiz-adv-x="249" d="M31 711q13 -2 26 -3.5t26 -3.5q-7 -35 2.5 -64.5t30.5 -49.5q-11 -6 -20.5 -12t-20.5 -12q-28 28 -40 65.5t-4 79.5zM135 711q13 -2 26 -3.5t26 -3.5q-7 -35 2.5 -64.5t30.5 -49.5q-11 -6 -20.5 -12t-20.5 -12q-28 28 -40 65.5t-4 79.5z" />
<glyph unicode="&#x201d;" horiz-adv-x="248" d="M11 590q21 20 30.5 49.5t2.5 64.5q13 2 26 3.5t26 3.5q8 -42 -4 -79.5t-40 -65.5q-11 6 -20.5 12t-20.5 12zM115 590q21 20 30.5 49.5t2.5 64.5q13 2 26 3.5t26 3.5q8 -42 -4 -79.5t-40 -65.5q-11 6 -20.5 12t-20.5 12z" />
<glyph unicode="&#x201e;" horiz-adv-x="341" d="M19 -29q21 20 30.5 49.5t2.5 64.5q13 2 26 3.5t26 3.5q8 -42 -4 -79.5t-40 -65.5q-11 6 -20.5 12t-20.5 12zM123 -29q21 20 30.5 49.5t2.5 64.5q13 2 26 3.5t26 3.5q8 -42 -4 -79.5t-40 -65.5q-11 6 -20.5 12t-20.5 12z" />
<glyph unicode="&#x2022;" horiz-adv-x="479" d="M113 300q0 27 10 50t27 40.5t40 27.5t49 10q27 0 50 -10t40.5 -27.5t27.5 -40.5t10 -50t-10 -50t-27.5 -40t-40.5 -26.5t-50 -9.5q-26 0 -49 9.5t-40 26.5t-27 40t-10 50z" />
<glyph unicode="&#x202f;" horiz-adv-x="186" />
<glyph unicode="&#x2039;" horiz-adv-x="392" d="M117 239q43 41 85.5 80.5t85.5 80.5v-95q-17 -17 -32.5 -33t-32.5 -33q17 -17 32.5 -33.5t32.5 -33.5v-95z" />
<glyph unicode="&#x203a;" horiz-adv-x="392" d="M117 77l171 162q-43 41 -85.5 80.5t-85.5 80.5v-95q17 -17 32.5 -33t32.5 -33q-17 -17 -32.5 -33.5t-32.5 -33.5v-95z" />
<glyph unicode="&#x205f;" horiz-adv-x="233" />
<glyph unicode="&#xe000;" horiz-adv-x="375" d="M0 0v375h375v-375h-375z" />
</font>
</defs>
</svg>
