<?xml version="1.0" standalone="no"?>
<!DOCTYPE svg PUBLIC "-//W3C//DTD SVG 1.1//EN" "http://www.w3.org/Graphics/SVG/1.1/DTD/svg11.dtd" >
<svg xmlns="http://www.w3.org/2000/svg">
<metadata></metadata>
<defs>
<font id="arsenalregular" horiz-adv-x="654" >
<font-face units-per-em="1000" ascent="750" descent="-250" />
<missing-glyph horiz-adv-x="233" />
<glyph unicode="&#xfb01;" horiz-adv-x="525" d="M43 451v42l52 6v72q0 97 37 142.5t125 45.5q83 0 140 -75q7 3 17 3q19 0 30 -10q12 -13 12 -33q0 -18 -12 -32q-14 -11 -30 -11q-18 0 -30 12.5t-12 30.5q0 10 3 17q-44 52 -104 52q-58 0 -81 -32.5t-23 -117.5v-63h145v-49h-145v-451h-72v451h-52zM377 0v500h73v-500 h-73z" />
<glyph unicode="&#xfb02;" horiz-adv-x="523" d="M43 451v42l52 6v72q0 188 130 188q65 0 150 -40v29l72 4v-752h-72v675q-78 39 -131 39q-42 0 -59.5 -33t-17.5 -118v-63h145v-49h-145v-451h-72v451h-52z" />
<glyph horiz-adv-x="1000" />
<glyph horiz-adv-x="1000" />
<glyph unicode="&#xd;" horiz-adv-x="1000" />
<glyph unicode=" "  horiz-adv-x="233" />
<glyph unicode="&#x09;" horiz-adv-x="233" />
<glyph unicode="&#xa0;" horiz-adv-x="233" />
<glyph unicode="!" horiz-adv-x="276" d="M94 37q0 19 13 32.5t32 13.5t32 -12q13 -13 13 -34q0 -20 -13 -33t-32 -13t-32 13.5t-13 32.5zM99 667v83h81v-83l-19 -455h-44z" />
<glyph unicode="&#x22;" horiz-adv-x="299" d="M34 750l67 -2l-22 -230h-41zM175 750l67 -2l-22 -230h-41z" />
<glyph unicode="#" horiz-adv-x="480" d="M49 218v41h88l27 130h-115v42h124l29 137l34 -10l-27 -127h104l27 126l34 -10l-24 -116h80v-42h-89l-27 -130h116v-41h-125l-28 -138l-34 10l26 128h-105l-26 -127l-34 10l24 117h-79zM173 259h105l27 130h-105z" />
<glyph unicode="$" horiz-adv-x="408" d="M36 130l25 35q5 -7 14 -18t41.5 -29t70.5 -18q56 0 84.5 28t28.5 68q0 37 -25 59t-60.5 34t-71.5 26t-61 44t-25 78q0 54 33.5 89.5t90.5 45.5l5 128h42l6 -125q30 -1 60.5 -10.5t45.5 -18.5l15 -9l-12 -43q-53 40 -114 40q-46 0 -74.5 -23t-28.5 -58q0 -37 26 -60 t62.5 -35.5t73 -26.5t62.5 -44.5t26 -78.5q0 -58 -36 -99.5t-106 -50.5l-4 -108h-42l-6 106q-30 2 -56 10.5t-42 19t-27.5 20.5t-16.5 17z" />
<glyph unicode="%" horiz-adv-x="802" d="M48 474q0 86 42 137.5t115 51.5q72 0 114.5 -52t42.5 -137q0 -86 -42 -137t-115 -51q-75 0 -116 51t-41 137zM108 475q0 -71 25 -109t71 -38q47 0 72.5 38.5t25.5 108.5q0 71 -25.5 108.5t-71.5 37.5q-97 0 -97 -146zM236 12l281 629l43 -10l-281 -629zM441 174 q0 86 42 137.5t115 51.5q72 0 114.5 -52t42.5 -137q0 -86 -42 -137t-115 -51q-75 0 -116 51t-41 137zM501 175q0 -71 25 -109t71 -38q47 0 72.5 38.5t25.5 108.5q0 71 -25.5 108.5t-71.5 37.5q-97 0 -97 -146z" />
<glyph unicode="&#x26;" horiz-adv-x="603" d="M48 175q0 63 37 103.5t91 57.5q-41 20 -68 58t-27 95q0 77 47.5 123.5t129.5 46.5q31 0 62.5 -7.5t47.5 -15.5l16 -8l-8 -43q-45 29 -103 29q-57 0 -87.5 -34.5t-30.5 -95.5q0 -63 29.5 -95.5t67.5 -32.5h123l33 144h33v-144h129v-43h-129v-175q0 -60 15 -81t50 -21 q18 0 35 3t25 7l8 3l2 -40q-27 -19 -92 -19q-78 0 -99 59q-47 -59 -137 -59q-102 0 -151 51t-49 134zM124 176q0 -140 135 -140q83 0 115 67q-1 9 -1 31v179h-134q-46 -2 -80.5 -38t-34.5 -99z" />
<glyph unicode="'" horiz-adv-x="158" d="M34 750l67 -2l-22 -230h-41z" />
<glyph unicode="(" horiz-adv-x="307" d="M85 272q0 87 14.5 165.5t35.5 129t42.5 89t36.5 55.5l14 17l38 -21q-5 -6 -12 -17.5t-26.5 -52t-34 -86.5t-26.5 -122t-12 -157q0 -82 11.5 -156.5t27.5 -122t32.5 -83.5t27.5 -52l12 -16l-36 -21q-6 6 -15.5 17.5t-34.5 52.5t-44.5 88.5t-35 126.5t-15.5 166z" />
<glyph unicode=")" horiz-adv-x="307" d="M40 -158q5 6 12 17.5t26.5 52.5t34 87t26.5 121.5t12 156.5t-11.5 155t-27.5 122t-32.5 84t-27.5 52l-12 17l37 21q6 -6 15.5 -17.5t34.5 -52.5t44 -88.5t34.5 -126.5t15.5 -166t-15 -165.5t-36 -129t-42 -89t-36 -55.5l-15 -17z" />
<glyph unicode="*" horiz-adv-x="393" d="M19 527l21 70l143 -79l-20 186h67l-22 -186l145 79l20 -70l-157 -36l111 -137l-55 -44l-76 162l-76 -162l-54 44l110 136z" />
<glyph unicode="+" horiz-adv-x="408" d="M34 254v47h149v174h44v-174h146v-47h-146v-174h-44v174h-149z" />
<glyph unicode="," horiz-adv-x="226" d="M45 -139q31 29 50 73.5t18 81.5h-3q-11 0 -20.5 5.5t-15 15t-5.5 21.5q0 17 12 31q11 10 28 10q18 0 29 -10q16 -22 16 -55q0 -48 -25 -106t-63 -89z" />
<glyph unicode="-" horiz-adv-x="297" d="M34 254v47h229v-47h-229z" />
<glyph unicode="." horiz-adv-x="243" d="M75 37q0 19 13 32.5t32 13.5q18 0 32 -12q13 -13 13 -34q0 -20 -13 -33t-32 -13t-32 13.5t-13 32.5z" />
<glyph unicode="/" horiz-adv-x="417" d="M1 -250l375 1000h55l-374 -1000h-56z" />
<glyph unicode="0" horiz-adv-x="562" d="M56 324q0 159 56.5 247t168.5 88t168.5 -88t56.5 -247t-56.5 -246.5t-168.5 -87.5t-168.5 87.5t-56.5 246.5zM136 324q0 -150 35.5 -219t109.5 -69t109.5 69.5t35.5 218.5t-36 219t-109 70q-74 0 -109.5 -70t-35.5 -219z" />
<glyph unicode="1" horiz-adv-x="369" d="M50 564l149 86h60v-650h-72v592l-120 -67z" />
<glyph unicode="2" horiz-adv-x="475" d="M43 0v60q11 4 41.5 29t73 68t81 92.5t65.5 109.5t27 113q0 71 -28.5 104.5t-97.5 33.5q-33 0 -68.5 -14t-54.5 -28l-19 -13l-8 45q8 7 22.5 16.5t56.5 26t82 16.5q100 0 147.5 -48.5t47.5 -132.5q0 -58 -30 -121t-79.5 -119t-91.5 -95.5t-88 -74.5h307v-68h-386z" />
<glyph unicode="3" horiz-adv-x="475" d="M39 61l24 39q6 -7 17.5 -17.5t48.5 -27.5t77 -17q71 0 107.5 39t36.5 113q0 66 -30.5 102t-89.5 36q-15 0 -29.5 -5.5t-21.5 -10.5l-7 -6l-26 30l184 245h-261l4 69h327v-47l-180 -235q12 3 27 3q80 0 129.5 -49.5t49.5 -131.5q0 -93 -59 -146.5t-153 -53.5 q-34 0 -64.5 7.5t-49.5 17.5t-33.5 20.5t-20.5 18.5z" />
<glyph unicode="4" horiz-adv-x="492" d="M30 202q92 182 163 457l69 -9q-56 -214 -176 -441h229l17 346h57v-346h71v-40l-71 -5v-164h-74v164h-280z" />
<glyph unicode="5" horiz-adv-x="465" d="M26 60l26 37q2 -2 5.5 -6t16 -14.5t27 -18t38 -14t48.5 -6.5q73 0 115 43.5t42 122.5q0 70 -38 111t-101 41q-33 0 -58 -10t-29 -21l-30 4l30 321h272l-3 -70h-231l-17 -195q35 13 72 13q94 0 151.5 -52t57.5 -141q0 -99 -66 -157t-163 -58q-32 0 -61 7t-47 17.5 t-31.5 21t-19.5 17.5z" />
<glyph unicode="6" horiz-adv-x="517" d="M56 250q0 40 3 73q10 169 67 252.5t151 83.5q31 0 63 -8.5t48 -16.5l17 -9l-10 -44q-53 32 -112 32q-146 0 -155 -265q60 62 145 62q91 0 143.5 -55t52.5 -147q0 -94 -52 -156t-149 -62q-102 0 -157 67t-55 193zM132 227q0 -193 136 -193q65 0 95 48.5t30 126.5 q0 72 -32 116t-97 44q-80 0 -128 -73l1 -1q-5 -25 -5 -68z" />
<glyph unicode="7" horiz-adv-x="421" d="M41 578v72h361v-60q-66 -123 -126.5 -288t-87.5 -302h-79q49 226 231 578h-299z" />
<glyph unicode="8" horiz-adv-x="502" d="M48 170q0 118 132 162q-119 37 -119 161q0 78 51 122t139 44t139.5 -44.5t51.5 -124.5q0 -117 -122 -157q135 -36 135 -165q0 -91 -54 -134.5t-150 -43.5t-149.5 44t-53.5 136zM128 172q0 -141 123 -141t123 140q0 41 -14 70.5t-36.5 43.5t-40 20t-35.5 8 q-17 -2 -33.5 -8t-38 -20t-35 -43t-13.5 -70zM138 490q0 -40 12 -69t32 -43t36.5 -20t33.5 -8q16 1 31.5 7t35.5 19.5t32.5 42.5t12.5 69q0 130 -113 130t-113 -128z" />
<glyph unicode="9" horiz-adv-x="517" d="M48 431q0 94 55 161t152 67q101 0 153.5 -67t52.5 -193q0 -48 -2 -70q-7 -165 -69.5 -252t-158.5 -87q-43 0 -77 12t-46 24l-13 12l19 43q4 -5 13 -12.5t38.5 -20t62.5 -12.5q70 0 113 64.5t47 194.5q-52 -68 -144 -68q-90 0 -143 56t-53 148zM124 434q0 -73 32.5 -119.5 t96.5 -46.5q54 0 86.5 27.5t41.5 57.5q3 27 3 69q0 97 -30.5 145t-98.5 48q-65 0 -98 -52t-33 -129z" />
<glyph unicode=":" horiz-adv-x="245" d="M75 37q0 19 13 32.5t32 13.5q18 0 32 -12q13 -13 13 -34q0 -20 -13 -33t-32 -13t-32 13.5t-13 32.5zM75 416q0 19 13 32.5t32 13.5q18 0 32 -12q13 -13 13 -34q0 -20 -13 -33t-32 -13t-32 13.5t-13 32.5z" />
<glyph unicode=";" horiz-adv-x="243" d="M55 -139q31 29 50 73.5t18 81.5h-3q-17 0 -29 12t-12 29.5t12 31.5q11 10 28 10q18 0 29 -10q16 -22 16 -55q0 -48 -25 -106t-63 -89zM75 416q0 12 6 22.5t16.5 17t22.5 6.5q18 0 32 -12q13 -13 13 -34q0 -20 -13 -33t-32 -13q-12 0 -22.5 6t-16.5 17t-6 23z" />
<glyph unicode="&#x3c;" horiz-adv-x="368" d="M61 318l240 199l25 -29l-196 -170l197 -171l-26 -29z" />
<glyph unicode="=" horiz-adv-x="470" d="M34 159v47h402v-47h-402zM34 349v47h402v-47h-402z" />
<glyph unicode="&#x3e;" horiz-adv-x="368" d="M42 147l194 171l-194 170l25 29l241 -199l-241 -200z" />
<glyph unicode="?" horiz-adv-x="411" d="M40 705q6 6 17.5 15t51.5 24t84 15q87 0 131 -49t44 -118q0 -47 -15.5 -83t-39 -55.5t-51 -41.5t-51 -42t-39 -55.5t-15.5 -82.5q0 -14 1 -22l-31 -3q-5 27 -5 60q0 48 17 82.5t41 55.5t48 41.5t41 54.5t17 81q0 59 -27 95t-84 36q-36 0 -67.5 -12.5t-45.5 -25.5l-14 -13 zM101 37q0 19 13 32.5t32 13.5q18 0 32 -12q13 -13 13 -34q0 -20 -13 -33t-32 -13t-32 13.5t-13 32.5z" />
<glyph unicode="@" horiz-adv-x="831" d="M56 188q0 210 100.5 328t289.5 118q162 0 248.5 -92t86.5 -258q0 -152 -49 -224.5t-124 -72.5t-88 54q-35 -55 -110 -55t-120 51t-45 152q0 97 48.5 158t127.5 61q60 0 100 -40l14 26h32v-304q0 -38 12 -52.5t35 -14.5q46 0 77.5 59t31.5 200q0 154 -70 232.5t-207 78.5 q-155 0 -240 -101t-85 -304q0 -184 83 -278.5t230 -94.5q45 0 84.5 10t64.5 24t43.5 28t26.5 24l8 10l19 -36q-3 -4 -8.5 -11t-26.5 -25.5t-46.5 -32t-70 -25t-94.5 -11.5q-184 0 -281 108.5t-97 309.5zM307 189q0 -166 117 -166q65 0 92 67v230q-23 52 -88 52 q-60 0 -90.5 -48t-30.5 -135z" />
<glyph unicode="A" horiz-adv-x="568" d="M23 0l219 650h89l215 -650h-79l-68 200h-255l-68 -200h-53zM158 241h228l-113 351z" />
<glyph unicode="B" horiz-adv-x="542" d="M94 0v650h164q98 0 151.5 -44.5t53.5 -117.5q0 -98 -94 -147q58 -16 91.5 -56t33.5 -101q0 -88 -58.5 -136t-176.5 -48h-165zM170 44h86q163 0 163 143q0 64 -35 96t-92 32h-122v-271zM170 356h118q35 0 68.5 30t33.5 97q0 61 -37 92t-98 31h-85v-250z" />
<glyph unicode="C" horiz-adv-x="570" d="M48 319q0 156 76 248t204 92q46 0 93.5 -13.5t72.5 -27.5l25 -14l-9 -48q-10 6 -26.5 15t-62.5 23.5t-85 14.5q-97 0 -152 -73.5t-55 -214.5q0 -139 56 -210t157 -71q34 0 64.5 10t51 24.5t35.5 29t22 24.5l7 10l28 -32q-3 -5 -8 -12.5t-24 -27.5t-42 -35.5t-61.5 -28 t-81.5 -12.5q-135 0 -210 87.5t-75 241.5z" />
<glyph unicode="D" horiz-adv-x="634" d="M94 0v650h198q140 0 217.5 -84.5t77.5 -242.5q0 -157 -76.5 -240t-218.5 -83h-198zM170 48h123q212 0 212 275q0 279 -213 279h-122v-554z" />
<glyph unicode="E" horiz-adv-x="507" d="M94 0v650h350v-48h-274v-250h251v-46h-251v-258h296v-48h-372z" />
<glyph unicode="F" horiz-adv-x="464" d="M94 0v650h357v-48h-281v-259h242v-46h-242v-297h-76z" />
<glyph unicode="G" horiz-adv-x="620" d="M48 323q0 159 76 247.5t215 88.5q46 0 93.5 -13.5t72.5 -27.5l25 -14l-9 -48q-10 6 -26.5 15t-62.5 23.5t-85 14.5q-111 0 -164.5 -71.5t-53.5 -214.5q0 -140 52 -211.5t145 -71.5q41 0 72 13t47.5 34t23 34.5t10.5 26.5v147h-133v43h197v-338h-37l-19 71 q-56 -81 -172 -81q-127 0 -197 88t-70 245z" />
<glyph unicode="H" horiz-adv-x="638" d="M94 0v650h76v-292h297v292h76v-650h-76v312h-297v-312h-76z" />
<glyph unicode="I" horiz-adv-x="265" d="M94 0v650h76v-650h-76z" />
<glyph unicode="J" horiz-adv-x="362" d="M6 32l20 39q3 -4 8 -9.5t26 -14.5t47 -9q93 0 93 153v459h75v-459q0 -112 -40 -156.5t-111 -44.5q-41 0 -70.5 10.5t-38.5 21.5z" />
<glyph unicode="K" horiz-adv-x="580" d="M94 0v650h76v-354l79 70l219 284h61l-228 -290l259 -360h-95l-220 302l-75 -63v-239h-76z" />
<glyph unicode="L" horiz-adv-x="471" d="M94 0v650h76v-602h289v-48h-365z" />
<glyph unicode="M" horiz-adv-x="835" d="M94 0l3 650l2 -3l-1 3h93l229 -557h1l229 557h88l3 -650h-74l-3 557h-1l-225 -557h-61l-226 557l-2 -557h-55z" />
<glyph unicode="N" horiz-adv-x="651" d="M94 0v650h79l332 -536l-3 24v512h55v-650h-66l-346 554h-1l5 -31v-523h-55z" />
<glyph unicode="O" d="M48 324q0 155 73.5 245t204.5 90t205.5 -90t74.5 -245q0 -156 -74 -245t-206 -89q-131 0 -204.5 89t-73.5 245zM129 324q0 -140 50.5 -213t146.5 -73t147.5 73t51.5 213q0 139 -51.5 213t-147.5 74q-95 0 -146 -74t-51 -213z" />
<glyph unicode="P" horiz-adv-x="496" d="M94 0v650h156q100 0 155.5 -52t55.5 -154q0 -112 -61.5 -164t-147.5 -52h-82v-228h-76zM170 270h71q140 0 140 171q0 165 -139 165h-72v-336z" />
<glyph unicode="Q" d="M48 324q0 155 73.5 245t204.5 90q132 0 206 -88t74 -244q0 -139 -60 -227.5t-168 -105.5q73 -111 147 -111q17 0 33 6l5 -38q-24 -10 -53 -10q-59 0 -116.5 42t-92.5 108q-120 8 -186.5 96.5t-66.5 236.5zM129 324q0 -139 51 -212.5t146 -73.5q96 0 147.5 73.5 t51.5 212.5q0 138 -52 212.5t-147 74.5t-146 -74.5t-51 -212.5z" />
<glyph unicode="R" horiz-adv-x="539" d="M94 0v650h157q99 0 155 -51.5t56 -147.5q0 -77 -33 -126t-87 -70l163 -255h-87l-149 241h-99v-241h-76zM170 286h81q65 0 98 37t33 125q0 158 -140 158h-72v-320z" />
<glyph unicode="S" horiz-adv-x="490" d="M44 75l25 39q2 -3 5.5 -8t17.5 -18t31 -23t46.5 -18t63.5 -8q63 0 99 36.5t36 90.5q0 46 -30.5 76t-73.5 47.5t-86 36.5t-73.5 57.5t-30.5 96.5q0 82 52 130.5t139 48.5q43 0 81.5 -14t55.5 -28l17 -14l-10 -44q-6 6 -17.5 15t-48 24t-74.5 15q-56 0 -88 -31t-32 -84 q0 -46 30.5 -76t73.5 -47t86 -36.5t73.5 -59.5t30.5 -101q0 -83 -56.5 -135.5t-150.5 -52.5q-41 0 -76 9t-55.5 21t-35 24.5t-19.5 21.5z" />
<glyph unicode="T" horiz-adv-x="461" d="M7 602v48h447v-48h-186v-602h-76v602h-185z" />
<glyph unicode="U" horiz-adv-x="620" d="M86 212v438h75v-421q0 -91 40 -139.5t117 -48.5q80 0 120.5 49.5t40.5 138.5v421h55v-438q0 -102 -56 -162t-168 -60q-109 0 -166.5 60t-57.5 162z" />
<glyph unicode="V" horiz-adv-x="548" d="M15 650h79l189 -594l192 594h56l-216 -650h-88z" />
<glyph unicode="W" horiz-adv-x="848" d="M15 650h80l148 -563l159 563h67l162 -562l144 562h56l-175 -650h-70l-162 554l-160 -554h-70z" />
<glyph unicode="X" horiz-adv-x="541" d="M18 0l208 323l-200 327h92l161 -272l168 272h63l-199 -315l212 -335h-93l-171 279h-1l-173 -279h-67z" />
<glyph unicode="Y" horiz-adv-x="507" d="M2 650h85l179 -320l178 320h61l-212 -376v-274h-76v269z" />
<glyph unicode="Z" horiz-adv-x="527" d="M40 0v40l352 562h-343v48h436v-41l-353 -561h353v-48h-445z" />
<glyph unicode="[" horiz-adv-x="334" d="M88 -76v777h235v-44h-171v-688h171v-45h-235z" />
<glyph unicode="\" horiz-adv-x="417" d="M-14 750h55l375 -1000h-55z" />
<glyph unicode="]" horiz-adv-x="334" d="M11 -31h171v688h-171v44h236v-777h-236v45z" />
<glyph unicode="^" horiz-adv-x="336" d="M34 520l133 167l135 -167l-25 -26l-109 129l-111 -129z" />
<glyph unicode="_" horiz-adv-x="624" d="M34 -99h556v-47h-556v47z" />
<glyph unicode="`" horiz-adv-x="207" d="M-10 708l62 16l83 -143l-40 -8z" />
<glyph unicode="a" horiz-adv-x="477" d="M32 113q0 147 283 177v53q0 71 -23 97t-81 26q-26 0 -56.5 -11t-48.5 -21l-17 -11l-8 41q68 46 141 46q86 0 126 -36t40 -127v-245q0 -68 26 -68q7 0 16.5 2t15.5 4l7 3l3 -34q-49 -19 -78 -19q-26 0 -40 16.5t-17 58.5h-1q-1 -3 -4.5 -8t-15 -18t-26.5 -23t-40.5 -18 t-55.5 -8q-66 0 -106 32.5t-40 90.5zM107 122q0 -43 25 -65.5t68 -22.5q23 0 43.5 7.5t33 18t21.5 21.5t13 19l4 7v146q-208 -23 -208 -131z" />
<glyph unicode="b" horiz-adv-x="516" d="M75 0v748l73 4v-309h1q1 3 4 7.5t13.5 16t24.5 20.5t38 16.5t53 7.5q89 0 143 -65.5t54 -181.5q0 -126 -53 -200.5t-153 -74.5q-86 0 -132 50l-14 -39h-52zM148 82q4 -6 13 -15t35 -19.5t58 -10.5q77 0 112.5 56.5t35.5 168.5q0 201 -141 201q-27 0 -50 -9.5t-36 -24.5 t-18.5 -23.5t-8.5 -14.5v-309z" />
<glyph unicode="c" horiz-adv-x="423" d="M37 245q0 128 55.5 196.5t162.5 68.5q35 0 70 -11t53 -21l17 -11l-9 -41q-57 40 -123 40q-77 0 -113 -51t-36 -169q0 -212 145 -212q24 0 46 6.5t35.5 15.5t23.5 18t14 16l5 6l32 -21q-2 -3 -5 -9t-16.5 -20.5t-30.5 -26t-46.5 -20.5t-63.5 -9q-104 0 -160 64t-56 191z " />
<glyph unicode="d" horiz-adv-x="516" d="M37 236q0 125 53.5 199.5t150.5 74.5q41 0 72.5 -12t42.5 -24l12 -12h1v286l72 4v-752h-62l-8 59q-6 -12 -17 -25t-43 -28.5t-73 -15.5q-91 0 -146 65t-55 181zM114 238q0 -199 140 -199q23 0 43.5 7t33 17.5t21.5 21t13 17.5l4 7v307q-4 5 -11.5 12.5t-35 20.5t-59.5 13 q-149 0 -149 -224z" />
<glyph unicode="e" horiz-adv-x="453" d="M37 240q0 126 55 198t150 72q86 0 132.5 -59.5t46.5 -168.5l-5 -46h-303q0 -202 146 -202q25 0 47.5 6.5t36.5 16t25 19.5t16 16l4 7l29 -24q-2 -3 -5.5 -9t-18 -20.5t-32 -26t-47 -20.5t-63.5 -9q-100 0 -157 62.5t-57 187.5zM114 278h239q1 10 1 19q0 170 -112 170 q-118 0 -128 -189z" />
<glyph unicode="f" horiz-adv-x="313" d="M43 451v42l52 6v72q0 97 30 142.5t101 45.5q24 0 47.5 -7.5t35.5 -14.5l12 -7l-10 -39q-34 23 -72 23q-39 0 -55.5 -32t-16.5 -119v-63h145v-49h-145v-451h-72v451h-52z" />
<glyph unicode="g" horiz-adv-x="451" d="M20 -97q0 97 83 131q-18 21 -18 59q0 49 46 84q-84 43 -84 156q0 91 51.5 134t132.5 43q39 0 69 -10h1l128 -1v-39l-64 -2q40 -45 40 -125q0 -86 -46.5 -132t-128.5 -46q-34 0 -61 7q-35 -23 -35 -52q0 -27 22 -37.5t71 -10.5q219 0 219 -154q0 -82 -54.5 -125 t-155.5 -43q-106 0 -161 41.5t-55 121.5zM77 -96q0 -119 159 -119q70 0 108 28.5t38 82.5q0 105 -163 105q-47 0 -75 8q-67 -28 -67 -105zM117 333q0 -68 29 -103t82 -35q106 0 106 139q0 133 -107 133q-110 0 -110 -134z" />
<glyph unicode="h" horiz-adv-x="512" d="M74 0v748l73 4v-297h1l3 3q3 3 8.5 8t13.5 10.5t20 11.5t26 11t33 8t39 3q73 0 112.5 -40.5t39.5 -120.5v-349h-72v340q0 117 -104 117q-36 0 -66 -12.5t-42 -24.5l-12 -13v-407h-73z" />
<glyph unicode="i" horiz-adv-x="222" d="M69 644q0 18 12 30.5t30 12.5q19 0 30 -10q12 -13 12 -33q0 -18 -12 -32q-14 -11 -30 -11q-18 0 -30 12.5t-12 30.5zM74 0v500h73v-500h-73z" />
<glyph unicode="j" horiz-adv-x="240" d="M-49 -238l14 41q19 -16 50 -16q39 0 58 40t19 132v541h73v-541q0 -219 -141 -219q-24 0 -42 5.5t-24 10.5zM87 644q0 18 12 30.5t30 12.5q19 0 30 -10q12 -13 12 -33q0 -18 -12 -32q-14 -11 -30 -11q-18 0 -30 12.5t-12 30.5z" />
<glyph unicode="k" horiz-adv-x="456" d="M74 0v748l73 4v-481l61 42l149 187h55l-165 -205l186 -295h-83l-159 252l-44 -27v-225h-73z" />
<glyph unicode="l" horiz-adv-x="223" d="M75 0v748l72 4v-752h-72z" />
<glyph unicode="m" horiz-adv-x="725" d="M75 0v500h60l9 -53q55 63 141 63q81 0 105 -61q9 10 23 21.5t49 25.5t74 14q63 0 92 -33t29 -110v-367h-73v359q0 58 -18 78.5t-57 20.5q-29 0 -55 -12.5t-36.5 -22.5t-17.5 -20q2 -22 2 -35v-368h-73v359q0 57 -17.5 78t-55.5 21q-29 0 -55.5 -12.5t-37.5 -23t-16 -18.5 v-404h-72z" />
<glyph unicode="n" horiz-adv-x="512" d="M75 0v500h60l9 -48q50 58 148 58q72 0 112 -40.5t40 -120.5v-349h-73v334q0 123 -103 123q-36 0 -66.5 -12.5t-42.5 -24.5l-12 -13v-407h-72z" />
<glyph unicode="o" horiz-adv-x="501" d="M37 250q0 124 54.5 192t158.5 68t158.5 -68t54.5 -192q0 -123 -55.5 -191.5t-157.5 -68.5q-104 0 -158.5 68t-54.5 192zM114 250q0 -109 33 -162.5t103 -53.5q136 0 136 216t-136 216q-70 0 -103 -53.5t-33 -162.5z" />
<glyph unicode="p" horiz-adv-x="516" d="M75 -252v752h60l9 -60q5 8 13 16.5t25 22t44 22.5t60 9q88 0 140.5 -65t52.5 -181q0 -126 -53 -200t-150 -74q-41 0 -73 12t-43 24l-12 12h-1v-288zM147 82q37 -44 105 -44q78 0 114 55.5t36 168.5q0 199 -140 199q-23 0 -43.5 -7t-33 -17t-21.5 -20t-13 -17l-4 -7v-311z " />
<glyph unicode="q" horiz-adv-x="516" d="M38 236q0 125 54.5 199.5t152.5 74.5q81 0 127 -46l17 36h52v-750l-73 -2v312h-1q-1 -3 -4 -7.5t-13.5 -16.5t-24 -21.5t-38 -17t-52.5 -7.5q-89 0 -143 65t-54 181zM114 238q0 -106 37 -152.5t106 -46.5q37 0 64.5 17t36.5 34l10 17v312q-38 43 -103 43 q-151 0 -151 -224z" />
<glyph unicode="r" horiz-adv-x="329" d="M74 0v500h54l11 -103q1 5 3 12.5t11 27t20 34.5t31 27t44 12q14 0 32.5 -4t29.5 -8l12 -4l-7 -55q-44 15 -75 15q-22 0 -41 -13t-29.5 -31.5t-15.5 -30.5t-7 -19v-360h-73z" />
<glyph unicode="s" horiz-adv-x="408" d="M36 64l25 35q5 -7 14 -18t41.5 -29t70.5 -18q56 0 84.5 28t28.5 68q0 37 -25 59t-60.5 34t-71.5 26t-61 44t-25 78q0 64 46.5 101.5t119.5 37.5q32 0 65 -10t50 -20l17 -9l-12 -43q-53 40 -114 40q-46 0 -74.5 -23t-28.5 -58q0 -37 26 -60t62.5 -35.5t73 -26.5 t62.5 -44.5t26 -78.5q0 -65 -45 -108.5t-132 -43.5q-34 0 -63 7.5t-46.5 18.5t-30.5 22t-18 18z" />
<glyph unicode="t" horiz-adv-x="326" d="M40 451v42l52 6l27 159h46v-158h128v-49h-128v-299q0 -65 12.5 -89.5t43.5 -24.5q18 0 34 3t23 5l8 3l5 -40q-28 -19 -93 -19q-54 0 -80 33.5t-26 110.5v317h-52z" />
<glyph unicode="u" horiz-adv-x="512" d="M68 151v349h73v-334q0 -123 104 -123q36 0 65.5 12.5t41.5 25.5l12 13v406h73v-500h-61l-10 48q-7 -9 -18.5 -19.5t-47 -24.5t-79.5 -14q-73 0 -113 40.5t-40 120.5z" />
<glyph unicode="v" horiz-adv-x="435" d="M13 500h86l130 -421l138 421h55l-172 -500h-66z" />
<glyph unicode="w" horiz-adv-x="657" d="M14 500h81l94 -408l119 408h57l125 -408l98 408h56l-135 -500h-64l-117 403l-118 -403h-65z" />
<glyph unicode="x" horiz-adv-x="443" d="M12 0l166 249l-158 251h86l123 -209l129 209h59l-155 -239l168 -261h-85l-134 216l-139 -216h-60z" />
<glyph unicode="y" horiz-adv-x="449" d="M15 500h86l148 -418l134 418h53l-173 -508q-21 -59 -37.5 -98t-39.5 -77.5t-50.5 -57.5t-59.5 -19q-18 0 -33 3t-21 7l-6 3l8 46q19 -9 41 -9q46 0 77 49.5t69 154.5z" />
<glyph unicode="z" horiz-adv-x="415" d="M35 0v40l256 415h-234l-3 45h321v-40l-254 -415h252l2 -45h-340z" />
<glyph unicode="{" horiz-adv-x="375" d="M98 268v48q31 0 62 26t31 63q0 30 -13.5 98t-13.5 104q0 70 39 105.5t137 35.5v-43q-62 0 -88 -26t-26 -77q0 -32 13.5 -102t13.5 -103q0 -36 -21 -63t-57 -42q36 -15 57 -42t21 -63q0 -33 -13.5 -103t-13.5 -102q0 -51 26 -77t88 -26v-43q-98 0 -137 35.5t-39 105.5 q0 36 13.5 104t13.5 98q0 37 -31 63t-62 26z" />
<glyph unicode="|" horiz-adv-x="292" d="M121 -250v1000h50v-1000h-50z" />
<glyph unicode="}" horiz-adv-x="375" d="M60 -121q61 0 87 26t26 77q0 32 -13.5 102t-13.5 103q0 72 77 105q-77 33 -77 105q0 33 13.5 103t13.5 102q0 51 -26 77t-87 26v43q98 0 137 -35.5t39 -105.5q0 -36 -14 -104t-14 -98q0 -37 31.5 -63t62.5 -26v-48q-31 0 -62.5 -26t-31.5 -63q0 -30 14 -98t14 -104 q0 -70 -39 -105.5t-137 -35.5v43z" />
<glyph unicode="~" horiz-adv-x="573" d="M31 323q1 4 3.5 11.5t13.5 25.5t25 32t40.5 25.5t58.5 11.5q43 0 80.5 -16.5t60.5 -35.5t55.5 -35.5t66.5 -16.5q29 0 49 12.5t26 24.5l5 12l28 -19q-1 -4 -3 -11t-12 -24.5t-23 -30.5t-37 -24t-53 -11q-39 0 -75 16t-58.5 36t-56.5 36t-70 16q-20 0 -37 -6t-27 -14 t-17 -16t-10 -14l-3 -6z" />
<glyph unicode="&#xa1;" horiz-adv-x="276" d="M91 462q0 19 13 32.5t32 13.5q18 0 32 -12q13 -13 13 -34q0 -20 -13 -33t-32 -13t-32 13.5t-13 32.5zM96 -167l19 455h44l18 -455v-83h-81v83z" />
<glyph unicode="&#xa2;" horiz-adv-x="423" d="M37 312q0 117 46.5 184.5t136.5 78.5l4 125h42l6 -124q31 -2 62 -12.5t46 -19.5l15 -10l-9 -41q-57 40 -123 40q-77 0 -113 -51t-36 -169q0 -212 145 -212q24 0 46 6.5t35.5 15.5t23.5 18t14 15l5 7l32 -21q-1 -3 -4.5 -8t-15.5 -19t-26.5 -24.5t-40.5 -20.5t-56 -13 l-3 -107h-42l-6 109q-184 19 -184 253z" />
<glyph unicode="&#xa3;" horiz-adv-x="508" d="M46 0v67h38q58 40 58 148q0 33 -3 67l-93 3v43h88q-11 110 -11 155q0 85 45.5 130.5t130.5 45.5q27 0 58.5 -9.5t50.5 -18.5l18 -9l-12 -43q-56 32 -100 32q-56 0 -83 -31t-27 -101q0 -55 2 -151h223v-47h-223q-3 -154 -51 -214h331v-67h-440z" />
<glyph unicode="&#xa4;" horiz-adv-x="540" d="M50 539l28 37l94 -121q42 40 99 40q54 0 96 -37l95 117l27 -37l-101 -105q35 -49 35 -119q0 -69 -34 -118l101 -107l-27 -37l-94 120q-41 -39 -98 -39t-98 38l-94 -118l-28 37l101 106q-33 47 -33 118q0 67 32 117zM161 315q0 -63 30 -100.5t80 -37.5q49 0 79 37t30 100 q0 64 -30 100.5t-79 36.5q-50 0 -80 -36.5t-30 -99.5z" />
<glyph unicode="&#xa5;" horiz-adv-x="563" d="M29 650h85l179 -320l178 320h61l-186 -330h111v-40h-134l-3 -6v-89h137v-40h-137v-145h-76v145h-147v40h147v84l-6 11h-141v40h118z" />
<glyph unicode="&#xa6;" horiz-adv-x="292" d="M121 150h50v-400h-50v400zM121 350v400h50v-400h-50z" />
<glyph unicode="&#xa7;" horiz-adv-x="486" d="M67 308q0 82 64 121q-30 32 -30 81q0 64 44.5 106.5t128.5 42.5q33 0 67 -11.5t51 -23.5l17 -12l-8 -40q-57 43 -117 43q-59 0 -85.5 -29t-26.5 -68q0 -37 28.5 -61.5t69 -38.5t80.5 -29.5t68.5 -48t28.5 -82.5q0 -81 -70 -124q28 -33 28 -79q0 -63 -46 -103.5 t-136 -40.5q-47 0 -84.5 12.5t-51.5 24.5l-14 12l17 40q4 -5 13 -12.5t41.5 -20t69.5 -12.5q64 0 92 26.5t28 66.5q0 36 -27.5 59.5t-67 37t-78.5 30t-66.5 49.5t-27.5 84zM118 322q0 -47 37 -73t101.5 -48t92.5 -42q47 28 47 87q0 34 -26 58.5t-59 36t-79 29t-72 34.5 q-42 -24 -42 -82z" />
<glyph unicode="&#xa8;" horiz-adv-x="375" d="M38 644q0 19 11 30q13 10 27 10q13 0 26 -10q11 -13 11 -30q0 -16 -10.5 -27.5t-26.5 -11.5q-17 0 -27.5 11t-10.5 28zM192 644q0 19 11 30q13 10 26 10q16 0 27 -12t11 -28t-11 -27.5t-27 -11.5t-26.5 11.5t-10.5 27.5z" />
<glyph unicode="&#xa9;" horiz-adv-x="729" d="M73 323q0 157 77.5 248.5t212.5 91.5q136 0 213.5 -91.5t77.5 -248.5t-77 -247t-214 -90t-213.5 90t-76.5 247zM113 322q0 -142 66.5 -221t182.5 -79q118 0 185.5 79t67.5 221q0 143 -68 224t-185 81q-116 0 -182.5 -81t-66.5 -224zM219 317q0 84 43.5 132t114.5 48 q26 0 50 -8.5t35 -17.5l10 -9l-10 -31q-33 32 -80 32q-52 0 -81 -37t-29 -109q0 -69 30.5 -105.5t80.5 -36.5q28 0 49.5 13t29.5 26l8 13l19 -21q-1 -3 -3 -7.5t-11.5 -15.5t-21 -20t-33 -16t-47.5 -7q-66 0 -110 47.5t-44 129.5z" />
<glyph unicode="&#xaa;" horiz-adv-x="389" d="M33 411q0 113 225 129v17q0 46 -19 67.5t-62 21.5q-28 0 -53 -10t-36 -20l-11 -11l-16 24q4 6 12 14.5t40.5 22.5t74.5 14q69 0 102 -31t33 -97v-232h-51l-13 53q-4 -11 -12.5 -23t-34.5 -26t-62 -14q-57 0 -87 26.5t-30 74.5zM97 417q0 -70 79 -70q58 0 82 60v104 q-35 -3 -60 -8.5t-50 -15.5t-38 -27.5t-13 -42.5z" />
<glyph unicode="&#xab;" horiz-adv-x="484" d="M83 250l155 171l22 -26l-108 -146l108 -148l-23 -27zM245 250l155 171l22 -26l-108 -146l108 -148l-23 -27z" />
<glyph unicode="&#xac;" horiz-adv-x="447" d="M53 295v46h339v-213h-43v167h-296z" />
<glyph unicode="&#xad;" horiz-adv-x="310" d="M40 254v47h229v-47h-229z" />
<glyph unicode="&#xae;" horiz-adv-x="617" d="M52 453q0 139 69 221.5t187 82.5t187.5 -82.5t69.5 -221.5t-68 -221t-189 -82t-188.5 82t-67.5 221zM91 452q0 -125 57 -195.5t160 -70.5q102 0 160 71t58 195q0 125 -58 198t-160 73t-159.5 -73t-57.5 -198zM226 294v317h83q113 0 113 -90q0 -73 -69 -93l66 -134h-43 l-63 128h-48v-128h-39zM265 447h44q70 0 70 74q0 63 -70 63h-44v-137z" />
<glyph unicode="&#xaf;" horiz-adv-x="395" d="M104 636v36h186v-36h-186z" />
<glyph unicode="&#xb0;" horiz-adv-x="409" d="M48 573q0 86 42 137.5t115 51.5q72 0 114.5 -52t42.5 -137q0 -86 -42 -137t-115 -51q-75 0 -116 51t-41 137zM108 574q0 -71 25 -109t71 -38q47 0 72.5 38.5t25.5 108.5q0 71 -25.5 108.5t-71.5 37.5q-97 0 -97 -146z" />
<glyph unicode="&#xb1;" horiz-adv-x="470" d="M34 151v47h402v-47h-402zM66 502v47h149v174h44v-174h146v-47h-146v-174h-44v174h-149z" />
<glyph unicode="&#xb2;" horiz-adv-x="377" d="M41 230v55q13 5 45.5 36t69.5 75t65.5 102t28.5 106q0 57 -21 84t-71 27q-19 0 -43.5 -10.5t-39.5 -20.5l-15 -11l-8 39q60 46 123 46q74 0 110.5 -40.5t36.5 -108.5q0 -141 -211 -316h222v-63h-292z" />
<glyph unicode="&#xb3;" horiz-adv-x="376" d="M40 268l19 35q1 -1 4.5 -5t11.5 -10t19 -11t27.5 -9t35.5 -4q50 0 78.5 31t28.5 87q0 52 -20 79.5t-58 27.5q-24 0 -43 -19l-24 27l135 190h-190l4 63h247v-43l-132 -181q2 0 7.5 0.5t8.5 0.5q58 0 95 -40t37 -107q0 -75 -47 -117t-118 -42q-41 0 -72.5 11.5t-42.5 23.5z " />
<glyph unicode="&#xb4;" horiz-adv-x="207" d="M56 576l77 145l63 -15l-102 -135z" />
<glyph unicode="&#xb5;" horiz-adv-x="518" d="M74 151v349h73v-334q0 -123 104 -123q36 0 65.5 12.5t41.5 25.5l12 13v406h73v-500h-61l-10 48q-7 -9 -18.5 -19.5t-47 -24.5t-79.5 -14q-49 0 -83 18q5 -143 5 -258h-74v377q-1 8 -1 24z" />
<glyph unicode="&#xb6;" horiz-adv-x="597" d="M48 450q0 100 58.5 150t183.5 50h260v-55h-58v-595h-61v595h-95v-595h-60v244q-113 0 -170.5 48.5t-57.5 157.5z" />
<glyph unicode="&#xb7;" horiz-adv-x="243" d="M75 337q0 19 13 32.5t32 13.5q18 0 32 -12q13 -13 13 -34q0 -20 -13 -33t-32 -13t-32 13.5t-13 32.5z" />
<glyph unicode="&#xb8;" horiz-adv-x="234" d="M25 -209l18 20q22 -32 67 -32q66 0 66 68q0 26 -21 40t-42 17t-21 4l12 89h28l-7 -66l24 -6q24 -6 48 -26t24 -54q0 -45 -26.5 -70.5t-77.5 -25.5q-30 0 -53 10.5t-31 20.5z" />
<glyph unicode="&#xb9;" horiz-adv-x="376" d="M70 674l118 76h54v-520h-66v460l-89 -58z" />
<glyph unicode="&#xba;" horiz-adv-x="419" d="M37 495q0 88 43.5 136.5t128.5 48.5t128.5 -48.5t43.5 -136.5q0 -87 -44.5 -136t-127.5 -49q-85 0 -128.5 48.5t-43.5 136.5zM105 495q0 -152 104 -152t104 152q0 150 -104 150t-104 -150z" />
<glyph unicode="&#xbb;" horiz-adv-x="484" d="M61 100l108 145l-107 149l23 27l153 -177l-154 -170zM223 100l108 145l-107 149l23 27l153 -177l-154 -170z" />
<glyph unicode="&#xbc;" horiz-adv-x="727" d="M70 674l118 76h54v-520h-66v460l-89 -58zM219 20l303 562l35 -21l-303 -561zM357 -84q59 130 108 362l63 -8q-40 -182 -121 -347h150v163l16 108h52v-271h49v-36l-49 -6v-131h-68v131h-195z" />
<glyph unicode="&#xbd;" horiz-adv-x="786" d="M70 674l118 76h54v-520h-66v460l-89 -58zM219 20l303 562l35 -21l-303 -561zM430 -195q13 5 45.5 36t69.5 75t65.5 102t28.5 106q0 57 -21 83.5t-72 26.5q-19 0 -43 -10t-39 -20l-15 -11l-9 39q61 46 124 46q74 0 110.5 -41t36.5 -108q0 -142 -210 -316h220v-63h-291v55z " />
<glyph unicode="&#xbe;" horiz-adv-x="775" d="M41 268l19 35q1 -1 4.5 -5t11.5 -10t19 -11t27.5 -9t35.5 -4q50 0 78.5 31t28.5 87q0 52 -20 79.5t-58 27.5q-24 0 -43 -19l-24 27l135 190h-190l4 63h247v-43l-132 -181q2 0 7.5 0.5t8.5 0.5q58 0 95 -40t37 -107q0 -75 -47 -117t-118 -42q-41 0 -72.5 11.5t-42.5 23.5z M266 20l303 562l35 -21l-303 -561zM405 -84q59 130 108 362l63 -8q-40 -182 -121 -347h150v163l16 108h52v-271h49v-36l-49 -6v-131h-68v131h-195z" />
<glyph unicode="&#xbf;" horiz-adv-x="411" d="M37 -93q0 41 12 72.5t30.5 51.5t41.5 37l46 34t41.5 37.5t30.5 52t12 72.5q0 4 -0.5 11t-0.5 10l34 3q5 -35 5 -55q0 -42 -12.5 -74t-31.5 -49.5t-41 -37t-41 -36.5t-31.5 -47.5t-12.5 -71.5q0 -131 123 -131q25 0 49 5.5t35 10.5l11 6l18 -41q-41 -27 -120 -27 q-104 0 -151 49t-47 118zM219 462q0 19 13 32.5t32 13.5q18 0 32 -12q13 -13 13 -34q0 -20 -13 -33t-32 -13t-32 13.5t-13 32.5z" />
<glyph unicode="&#xc0;" horiz-adv-x="568" d="M23 0l219 650h89l215 -650h-79l-68 200h-255l-68 -200h-53zM158 241h228l-113 351zM175 843l62 16l83 -143l-40 -8z" />
<glyph unicode="&#xc1;" horiz-adv-x="568" d="M23 0l219 650h89l215 -650h-79l-68 200h-255l-68 -200h-53zM158 241h228l-113 351zM255 711l77 145l63 -15l-102 -135z" />
<glyph unicode="&#xc2;" horiz-adv-x="568" d="M23 0l219 650h89l215 -650h-79l-68 200h-255l-68 -200h-53zM155 764l110 114h39l108 -114l-18 -32l-110 97l-110 -97zM158 241h228l-113 351z" />
<glyph unicode="&#xc3;" horiz-adv-x="568" d="M23 0l219 650h89l215 -650h-79l-68 200h-255l-68 -200h-53zM130 762q1 3 3.5 7t11.5 15t19 19t27 15t35 7q33 0 80.5 -23t71.5 -23q16 0 29 6.5t17 13.5l5 7l23 -25q-3 -6 -8.5 -14.5t-27 -22.5t-49.5 -14q-30 0 -79 23t-75 23q-17 0 -32 -10t-21 -20l-7 -9zM158 241h228 l-113 351z" />
<glyph unicode="&#xc4;" horiz-adv-x="568" d="M23 0l219 650h89l215 -650h-79l-68 200h-255l-68 -200h-53zM158 241h228l-113 351zM172 779q0 19 11 30q13 10 27 10q13 0 26 -10q11 -13 11 -30q0 -16 -10.5 -27.5t-26.5 -11.5q-17 0 -27.5 11t-10.5 28zM326 779q0 19 11 30q13 10 26 10q16 0 27 -12t11 -28t-11 -27.5 t-27 -11.5t-26.5 11.5t-10.5 27.5z" />
<glyph unicode="&#xc5;" horiz-adv-x="568" d="M23 0l219 650h89l215 -650h-79l-68 200h-255l-68 -200h-53zM158 241h228l-113 351zM195 779q0 44 25 69t64 25q38 0 63.5 -25t25.5 -69q0 -45 -24.5 -69t-64.5 -24t-64.5 24t-24.5 69zM223 779q0 -34 17 -50.5t44 -16.5t43.5 16.5t16.5 50.5q0 33 -17 50t-43 17 q-27 0 -44 -17t-17 -50z" />
<glyph unicode="&#xc6;" horiz-adv-x="789" d="M-12 0l371 650h373v-48h-275v-250h251v-46h-251v-258h296v-48h-372v205h-220l-116 -205h-57zM183 246h198v356h-4z" />
<glyph unicode="&#xc7;" horiz-adv-x="570" d="M48 319q0 156 76 248t204 92q46 0 93.5 -13.5t72.5 -27.5l25 -14l-9 -48q-10 6 -26.5 15t-62.5 23.5t-85 14.5q-97 0 -152 -73.5t-55 -214.5q0 -139 56 -210t157 -71q34 0 64.5 10t51 24.5t35.5 29t22 24.5l7 10l28 -32q-3 -5 -8 -12.5t-24 -27.5t-42 -35t-61 -28 t-81 -13l-6 -59l24 -6q24 -6 48 -26t24 -54q0 -45 -26.5 -70.5t-77.5 -25.5q-30 0 -53 10.5t-31 20.5l-8 11l18 20q22 -32 67 -32q66 0 66 68q0 26 -21 40t-42 17t-21 4l11 83q-123 9 -190.5 95t-67.5 233z" />
<glyph unicode="&#xc8;" horiz-adv-x="507" d="M94 0v650h350v-48h-274v-250h251v-46h-251v-258h296v-48h-372zM168 843l62 16l83 -143l-40 -8z" />
<glyph unicode="&#xc9;" horiz-adv-x="507" d="M94 0v650h350v-48h-274v-250h251v-46h-251v-258h296v-48h-372zM248 711l77 145l63 -15l-102 -135z" />
<glyph unicode="&#xca;" horiz-adv-x="507" d="M94 0v650h350v-48h-274v-250h251v-46h-251v-258h296v-48h-372zM152 764l110 114h39l108 -114l-18 -32l-110 97l-110 -97z" />
<glyph unicode="&#xcb;" horiz-adv-x="507" d="M94 0v650h350v-48h-274v-250h251v-46h-251v-258h296v-48h-372zM153 779q0 17 10.5 28.5t26.5 11.5q14 0 27 -10q11 -13 11 -30q0 -16 -11 -29q-13 -10 -27 -10q-16 0 -26.5 11.5t-10.5 27.5zM307 779q0 19 11 30q13 10 26 10q16 0 27 -12t11 -28t-11 -27.5t-27 -11.5 t-26.5 11.5t-10.5 27.5z" />
<glyph unicode="&#xcc;" horiz-adv-x="265" d="M19 843l62 16l83 -143l-40 -8zM94 0v650h76v-650h-76z" />
<glyph unicode="&#xcd;" horiz-adv-x="265" d="M94 0v650h76v-650h-76zM99 711l77 145l63 -15l-102 -135z" />
<glyph unicode="&#xce;" horiz-adv-x="265" d="M2 764l110 114h39l108 -114l-18 -32l-110 97l-110 -97zM94 0v650h76v-650h-76z" />
<glyph unicode="&#xcf;" horiz-adv-x="265" d="M16 779q0 19 11 30q13 10 27 10q13 0 26 -10q11 -13 11 -30q0 -16 -10.5 -27.5t-26.5 -11.5q-17 0 -27.5 11t-10.5 28zM94 0v650h76v-650h-76zM170 779q0 19 11 30q13 10 26 10q16 0 27 -12t11 -28t-11 -27.5t-27 -11.5t-26.5 11.5t-10.5 27.5z" />
<glyph unicode="&#xd0;" horiz-adv-x="638" d="M25 302v42h69v306h198q140 0 217.5 -84.5t77.5 -242.5q0 -157 -76.5 -240t-218.5 -83h-198v302h-69zM170 48h123q212 0 212 275q0 279 -213 279h-122v-258h189v-42h-189v-254z" />
<glyph unicode="&#xd1;" horiz-adv-x="651" d="M94 0v650h79l332 -536l-3 24v512h55v-650h-66l-346 554h-1l5 -31v-523h-55zM173 762q1 3 3.5 7t11.5 15t19 19t27 15t35 7q33 0 80.5 -23t71.5 -23q16 0 28.5 6.5t17.5 13.5l5 7l23 -25q-3 -6 -8.5 -14.5t-27 -22.5t-49.5 -14q-30 0 -79 23t-75 23q-17 0 -32 -10t-22 -20 l-6 -9z" />
<glyph unicode="&#xd2;" d="M48 324q0 155 73.5 245t204.5 90t205.5 -90t74.5 -245q0 -156 -74 -245t-206 -89q-131 0 -204.5 89t-73.5 245zM129 324q0 -140 50.5 -213t146.5 -73t147.5 73t51.5 213q0 139 -51.5 213t-147.5 74q-95 0 -146 -74t-51 -213zM213 843l62 16l83 -143l-40 -8z" />
<glyph unicode="&#xd3;" d="M48 324q0 155 73.5 245t204.5 90t205.5 -90t74.5 -245q0 -156 -74 -245t-206 -89q-131 0 -204.5 89t-73.5 245zM129 324q0 -140 50.5 -213t146.5 -73t147.5 73t51.5 213q0 139 -51.5 213t-147.5 74q-95 0 -146 -74t-51 -213zM293 711l77 145l63 -15l-102 -135z" />
<glyph unicode="&#xd4;" d="M48 324q0 155 73.5 245t204.5 90t205.5 -90t74.5 -245q0 -156 -74 -245t-206 -89q-131 0 -204.5 89t-73.5 245zM129 324q0 -140 50.5 -213t146.5 -73t147.5 73t51.5 213q0 139 -51.5 213t-147.5 74q-95 0 -146 -74t-51 -213zM197 764l110 114h39l108 -114l-18 -32 l-110 97l-110 -97z" />
<glyph unicode="&#xd5;" d="M48 324q0 155 73.5 245t204.5 90t205.5 -90t74.5 -245q0 -156 -74 -245t-206 -89q-131 0 -204.5 89t-73.5 245zM129 324q0 -140 50.5 -213t146.5 -73t147.5 73t51.5 213q0 139 -51.5 213t-147.5 74q-95 0 -146 -74t-51 -213zM168 762q1 3 3.5 7t11.5 15t19 19t27 15t35 7 q33 0 80.5 -23t71.5 -23q16 0 29 6.5t17 13.5l5 7l23 -25q-3 -6 -8.5 -14.5t-27 -22.5t-49.5 -14q-30 0 -79 23t-75 23q-17 0 -32 -10t-21 -20l-7 -9z" />
<glyph unicode="&#xd6;" d="M48 324q0 155 73.5 245t204.5 90t205.5 -90t74.5 -245q0 -156 -74 -245t-206 -89q-131 0 -204.5 89t-73.5 245zM129 324q0 -140 50.5 -213t146.5 -73t147.5 73t51.5 213q0 139 -51.5 213t-147.5 74q-95 0 -146 -74t-51 -213zM210 779q0 19 11 30q13 10 27 10q13 0 26 -10 q11 -13 11 -30q0 -16 -10.5 -27.5t-26.5 -11.5q-17 0 -27.5 11t-10.5 28zM364 779q0 19 11 30q13 10 26 10q16 0 27 -12t11 -28t-11 -27.5t-27 -11.5t-26.5 11.5t-10.5 27.5z" />
<glyph unicode="&#xd7;" horiz-adv-x="353" d="M40 442l31 38l105 -123l106 123l31 -38l-105 -122l105 -122l-31 -37l-105 122l-105 -122l-31 37l104 122z" />
<glyph unicode="&#xd8;" d="M48 324q0 155 73.5 245t204.5 90q67 0 122 -26l38 95l28 -6l-41 -102q64 -40 98.5 -116t34.5 -180q0 -156 -74 -245t-206 -89q-52 0 -100 16l-43 -107l-26 6l44 111q-74 36 -113.5 115t-39.5 193zM129 324q0 -192 93 -256l205 514q-43 29 -101 29q-95 0 -146 -74 t-51 -213zM245 54q35 -16 81 -16q96 0 147.5 73t51.5 213q0 168 -75 240z" />
<glyph unicode="&#xd9;" horiz-adv-x="620" d="M86 212v438h75v-421q0 -91 40 -139.5t117 -48.5q80 0 120.5 49.5t40.5 138.5v421h55v-438q0 -102 -56 -162t-168 -60q-109 0 -166.5 60t-57.5 162zM213 843l62 16l83 -143l-40 -8z" />
<glyph unicode="&#xda;" horiz-adv-x="620" d="M86 212v438h75v-421q0 -91 40 -139.5t117 -48.5q80 0 120.5 49.5t40.5 138.5v421h55v-438q0 -102 -56 -162t-168 -60q-109 0 -166.5 60t-57.5 162zM274 711l77 145l63 -15l-102 -135z" />
<glyph unicode="&#xdb;" horiz-adv-x="620" d="M86 212v438h75v-421q0 -91 40 -139.5t117 -48.5q80 0 120.5 49.5t40.5 138.5v421h55v-438q0 -102 -56 -162t-168 -60q-109 0 -166.5 60t-57.5 162zM191 764l110 114h39l108 -114l-18 -32l-110 97l-110 -97z" />
<glyph unicode="&#xdc;" horiz-adv-x="620" d="M86 212v438h75v-421q0 -91 40 -139.5t117 -48.5q80 0 120.5 49.5t40.5 138.5v421h55v-438q0 -102 -56 -162t-168 -60q-109 0 -166.5 60t-57.5 162zM205 779q0 17 10.5 28.5t26.5 11.5q14 0 27 -10q11 -13 11 -30q0 -16 -11 -29q-13 -10 -27 -10q-16 0 -26.5 11.5 t-10.5 27.5zM359 779q0 19 11 30q13 10 26 10q16 0 27 -12t11 -28t-11 -27.5t-27 -11.5t-26.5 11.5t-10.5 27.5z" />
<glyph unicode="&#xdd;" horiz-adv-x="507" d="M2 650h85l179 -320l178 320h61l-212 -376v-274h-76v269zM237 711l77 145l63 -15l-102 -135z" />
<glyph unicode="&#xde;" horiz-adv-x="514" d="M106 0v650h75v-109h81q100 0 155.5 -52.5t55.5 -157.5q0 -60 -18.5 -104.5t-49.5 -69t-66.5 -36.5t-75.5 -12h-82v-109h-75zM181 154h76q139 0 139 174q0 167 -139 167h-76v-341z" />
<glyph unicode="&#xdf;" horiz-adv-x="530" d="M75 0v547q0 106 47.5 159t134.5 53q77 0 121 -37t44 -103q0 -93 -99 -134q171 -37 171 -247q0 -248 -193 -248q-38 0 -65.5 6.5t-35.5 13.5l-9 6l10 42q22 -22 82 -22q133 0 133 201q0 117 -42.5 166t-141.5 49v48q5 0 13 1t28 8t35.5 18t28.5 33.5t13 51.5q0 50 -25 76 t-72 26q-106 0 -106 -167v-547h-72z" />
<glyph unicode="&#xe0;" horiz-adv-x="477" d="M32 113q0 147 283 177v53q0 71 -23 97t-81 26q-26 0 -56.5 -11t-48.5 -21l-17 -11l-8 41q68 46 141 46q86 0 126 -36t40 -127v-245q0 -68 26 -68q7 0 16.5 2t15.5 4l7 3l3 -34q-49 -19 -78 -19q-26 0 -40 16.5t-17 58.5h-1q-1 -3 -4.5 -8t-15 -18t-26.5 -23t-40.5 -18 t-55.5 -8q-66 0 -106 32.5t-40 90.5zM107 122q0 -43 25 -65.5t68 -22.5q23 0 43.5 7.5t33 18t21.5 21.5t13 19l4 7v146q-208 -23 -208 -131zM121 708l62 16l83 -143l-40 -8z" />
<glyph unicode="&#xe1;" horiz-adv-x="477" d="M32 113q0 147 283 177v53q0 71 -23 97t-81 26q-26 0 -56.5 -11t-48.5 -21l-17 -11l-8 41q68 46 141 46q86 0 126 -36t40 -127v-245q0 -68 26 -68q7 0 16.5 2t15.5 4l7 3l3 -34q-49 -19 -78 -19q-26 0 -40 16.5t-17 58.5h-1q-1 -3 -4.5 -8t-15 -18t-26.5 -23t-40.5 -18 t-55.5 -8q-66 0 -106 32.5t-40 90.5zM107 122q0 -43 25 -65.5t68 -22.5q23 0 43.5 7.5t33 18t21.5 21.5t13 19l4 7v146q-208 -23 -208 -131zM200 576l77 145l63 -15l-102 -135z" />
<glyph unicode="&#xe2;" horiz-adv-x="477" d="M32 113q0 147 283 177v53q0 71 -23 97t-81 26q-26 0 -56.5 -11t-48.5 -21l-17 -11l-8 41q68 46 141 46q86 0 126 -36t40 -127v-245q0 -68 26 -68q7 0 16.5 2t15.5 4l7 3l3 -34q-49 -19 -78 -19q-26 0 -40 16.5t-17 58.5h-1q-1 -3 -4.5 -8t-15 -18t-26.5 -23t-40.5 -18 t-55.5 -8q-66 0 -106 32.5t-40 90.5zM104 629l110 114h39l108 -114l-18 -32l-110 97l-110 -97zM107 122q0 -43 25 -65.5t68 -22.5q23 0 43.5 7.5t33 18t21.5 21.5t13 19l4 7v146q-208 -23 -208 -131z" />
<glyph unicode="&#xe3;" horiz-adv-x="477" d="M32 113q0 147 283 177v53q0 71 -23 97t-81 26q-26 0 -56.5 -11t-48.5 -21l-17 -11l-8 41q68 46 141 46q86 0 126 -36t40 -127v-245q0 -68 26 -68q7 0 16.5 2t15.5 4l7 3l3 -34q-49 -19 -78 -19q-26 0 -40 16.5t-17 58.5h-1q-1 -3 -4.5 -8t-15 -18t-26.5 -23t-40.5 -18 t-55.5 -8q-66 0 -106 32.5t-40 90.5zM76 627q1 3 3.5 7t11.5 15t19 19t27 15t35 7q33 0 80.5 -23t71.5 -23q16 0 29 7t17 13l5 7l23 -25q-3 -6 -8.5 -14.5t-27 -22.5t-49.5 -14q-30 0 -79 23t-75 23q-17 0 -32 -9.5t-21 -19.5l-7 -10zM107 122q0 -43 25 -65.5t68 -22.5 q23 0 43.5 7.5t33 18t21.5 21.5t13 19l4 7v146q-208 -23 -208 -131z" />
<glyph unicode="&#xe4;" horiz-adv-x="477" d="M32 113q0 147 283 177v53q0 71 -23 97t-81 26q-26 0 -56.5 -11t-48.5 -21l-17 -11l-8 41q68 46 141 46q86 0 126 -36t40 -127v-245q0 -68 26 -68q7 0 16.5 2t15.5 4l7 3l3 -34q-49 -19 -78 -19q-26 0 -40 16.5t-17 58.5h-1q-1 -3 -4.5 -8t-15 -18t-26.5 -23t-40.5 -18 t-55.5 -8q-66 0 -106 32.5t-40 90.5zM107 122q0 -43 25 -65.5t68 -22.5q23 0 43.5 7.5t33 18t21.5 21.5t13 19l4 7v146q-208 -23 -208 -131zM117 644q0 17 10.5 28.5t26.5 11.5q14 0 27 -10q11 -13 11 -30q0 -16 -11 -29q-13 -10 -27 -10q-16 0 -26.5 11.5t-10.5 27.5z M271 644q0 19 11 30q13 10 26 10q16 0 27 -12t11 -28t-11 -27.5t-27 -11.5t-26.5 11.5t-10.5 27.5z" />
<glyph unicode="&#xe5;" horiz-adv-x="477" d="M32 113q0 147 283 177v53q0 71 -23 97t-81 26q-26 0 -56.5 -11t-48.5 -21l-17 -11l-8 41q68 46 141 46q86 0 126 -36t40 -127v-245q0 -68 26 -68q7 0 16.5 2t15.5 4l7 3l3 -34q-49 -19 -78 -19q-26 0 -40 16.5t-17 58.5h-1q-1 -3 -4.5 -8t-15 -18t-26.5 -23t-40.5 -18 t-55.5 -8q-66 0 -106 32.5t-40 90.5zM107 122q0 -43 25 -65.5t68 -22.5q23 0 43.5 7.5t33 18t21.5 21.5t13 19l4 7v146q-208 -23 -208 -131zM144 644q0 44 25 69t64 25q38 0 63.5 -25t25.5 -69q0 -45 -24.5 -69t-64.5 -24t-64.5 24t-24.5 69zM172 644q0 -34 17 -50.5 t44 -16.5t43.5 16.5t16.5 50.5t-16.5 50.5t-43.5 16.5t-44 -17t-17 -50z" />
<glyph unicode="&#xe6;" horiz-adv-x="727" d="M32 114q0 150 279 177v40q0 76 -19.5 105.5t-73.5 29.5q-26 0 -56 -11t-48 -21l-17 -11l-9 41q68 46 142 46q55 0 85.5 -19.5t42.5 -62.5q54 82 158 82q86 0 132.5 -59.5t46.5 -168.5l-5 -46h-303q0 -202 146 -202q25 0 47.5 6.5t36.5 16t25 19.5t16 16l4 7l29 -24 q-2 -3 -5.5 -9t-18 -20.5t-32 -26t-47 -20.5t-63.5 -9q-147 0 -194 125q-37 -125 -153 -125q-65 0 -105.5 33t-40.5 91zM107 123q0 -43 25.5 -66t67.5 -23q26 0 46 12t31.5 29.5t19.5 42t11.5 43t4.5 38.5q-2 26 -2 41v15q-204 -23 -204 -132zM388 278h239q1 10 1 19 q0 170 -112 170q-118 0 -128 -189z" />
<glyph unicode="&#xe7;" horiz-adv-x="423" d="M37 245q0 128 55.5 196.5t162.5 68.5q35 0 70 -11t53 -21l17 -11l-9 -41q-57 40 -123 40q-77 0 -113 -51t-36 -169q0 -212 145 -212q24 0 46 6.5t35.5 15.5t23.5 18t14 16l5 6l32 -21q-2 -3 -5 -8.5t-16 -20t-29 -25.5t-44.5 -20.5t-60.5 -10.5l-6 -59l24 -6 q24 -6 48 -26t24 -54q0 -45 -26.5 -70.5t-77.5 -25.5q-30 0 -53 10.5t-31 20.5l-8 11l18 20q22 -32 67 -32q66 0 66 68q0 26 -21 40t-42 17t-21 4l11 83q-94 6 -144.5 69.5t-50.5 184.5z" />
<glyph unicode="&#xe8;" horiz-adv-x="453" d="M37 240q0 126 55 198t150 72q86 0 132.5 -59.5t46.5 -168.5l-5 -46h-303q0 -202 146 -202q25 0 47.5 6.5t36.5 16t25 19.5t16 16l4 7l29 -24q-2 -3 -5.5 -9t-18 -20.5t-32 -26t-47 -20.5t-63.5 -9q-100 0 -157 62.5t-57 187.5zM114 278h239q1 10 1 19q0 170 -112 170 q-118 0 -128 -189zM130 708l62 16l83 -143l-40 -8z" />
<glyph unicode="&#xe9;" horiz-adv-x="453" d="M37 240q0 126 55 198t150 72q86 0 132.5 -59.5t46.5 -168.5l-5 -46h-303q0 -202 146 -202q25 0 47.5 6.5t36.5 16t25 19.5t16 16l4 7l29 -24q-2 -3 -5.5 -9t-18 -20.5t-32 -26t-47 -20.5t-63.5 -9q-100 0 -157 62.5t-57 187.5zM114 278h239q1 10 1 19q0 170 -112 170 q-118 0 -128 -189zM210 576l77 145l63 -15l-102 -135z" />
<glyph unicode="&#xea;" horiz-adv-x="453" d="M37 240q0 126 55 198t150 72q86 0 132.5 -59.5t46.5 -168.5l-5 -46h-303q0 -202 146 -202q25 0 47.5 6.5t36.5 16t25 19.5t16 16l4 7l29 -24q-2 -3 -5.5 -9t-18 -20.5t-32 -26t-47 -20.5t-63.5 -9q-100 0 -157 62.5t-57 187.5zM113 629l110 114h39l108 -114l-18 -32 l-110 97l-110 -97zM114 278h239q1 10 1 19q0 170 -112 170q-118 0 -128 -189z" />
<glyph unicode="&#xeb;" horiz-adv-x="453" d="M37 240q0 126 55 198t150 72q86 0 132.5 -59.5t46.5 -168.5l-5 -46h-303q0 -202 146 -202q25 0 47.5 6.5t36.5 16t25 19.5t16 16l4 7l29 -24q-2 -3 -5.5 -9t-18 -20.5t-32 -26t-47 -20.5t-63.5 -9q-100 0 -157 62.5t-57 187.5zM114 278h239q1 10 1 19q0 170 -112 170 q-118 0 -128 -189zM127 644q0 17 10.5 28.5t26.5 11.5q14 0 27 -10q11 -13 11 -30q0 -16 -11 -29q-13 -10 -27 -10q-16 0 -26.5 11.5t-10.5 27.5zM281 644q0 19 11 30q13 10 26 10q16 0 27 -12t11 -28t-11 -27.5t-27 -11.5t-26.5 11.5t-10.5 27.5z" />
<glyph unicode="&#xec;" horiz-adv-x="222" d="M-3 708l62 16l83 -143l-40 -8zM74 0v500h73v-500h-73z" />
<glyph unicode="&#xed;" horiz-adv-x="222" d="M74 0v500h73v-500h-73zM77 576l77 145l63 -15l-102 -135z" />
<glyph unicode="&#xee;" horiz-adv-x="222" d="M-18 629l110 114h39l108 -114l-18 -32l-110 97l-110 -97zM74 0v500h73v-500h-73z" />
<glyph unicode="&#xef;" horiz-adv-x="222" d="M-4 644q0 19 11 30q13 10 27 10q13 0 26 -10q11 -13 11 -30q0 -16 -10.5 -27.5t-26.5 -11.5q-17 0 -27.5 11t-10.5 28zM74 0v500h73v-500h-73zM150 644q0 19 11 30q13 10 26 10q16 0 27 -12t11 -28t-11 -27.5t-27 -11.5t-26.5 11.5t-10.5 27.5z" />
<glyph unicode="&#xf0;" horiz-adv-x="508" d="M38 250q0 123 53 191.5t152 68.5q84 0 142 -66q-23 127 -91 206l-108 -62l-12 26l100 57q-25 25 -58 47l38 22q33 -18 63 -45l83 48l12 -26l-74 -42q126 -134 126 -413q0 -132 -54.5 -202t-159.5 -70q-101 0 -156.5 68.5t-55.5 191.5zM114 250q0 -109 33 -163t103 -54 t103 54t33 163q0 217 -136 217t-136 -217z" />
<glyph unicode="&#xf1;" horiz-adv-x="512" d="M75 0v500h60l9 -48q50 58 148 58q72 0 112 -40.5t40 -120.5v-349h-73v334q0 123 -103 123q-36 0 -66.5 -12.5t-42.5 -24.5l-12 -13v-407h-72zM85 627q1 3 3.5 7t11.5 15t19 19t27 15t35 7q33 0 80.5 -23t71.5 -23q16 0 28.5 7t17.5 13l5 7l23 -25q-3 -6 -8.5 -14.5 t-27 -22.5t-49.5 -14q-30 0 -79 23t-75 23q-17 0 -32 -9.5t-22 -19.5l-6 -10z" />
<glyph unicode="&#xf2;" horiz-adv-x="501" d="M37 250q0 124 54.5 192t158.5 68t158.5 -68t54.5 -192q0 -123 -55.5 -191.5t-157.5 -68.5q-104 0 -158.5 68t-54.5 192zM114 250q0 -109 33 -162.5t103 -53.5q136 0 136 216t-136 216q-70 0 -103 -53.5t-33 -162.5zM132 708l62 16l83 -143l-40 -8z" />
<glyph unicode="&#xf3;" horiz-adv-x="501" d="M37 250q0 124 54.5 192t158.5 68t158.5 -68t54.5 -192q0 -123 -55.5 -191.5t-157.5 -68.5q-104 0 -158.5 68t-54.5 192zM114 250q0 -109 33 -162.5t103 -53.5q136 0 136 216t-136 216q-70 0 -103 -53.5t-33 -162.5zM212 576l77 145l63 -15l-102 -135z" />
<glyph unicode="&#xf4;" horiz-adv-x="501" d="M37 250q0 124 54.5 192t158.5 68t158.5 -68t54.5 -192q0 -123 -55.5 -191.5t-157.5 -68.5q-104 0 -158.5 68t-54.5 192zM114 250q0 -109 33 -162.5t103 -53.5q136 0 136 216t-136 216q-70 0 -103 -53.5t-33 -162.5zM115 629l110 114h39l108 -114l-18 -32l-110 97 l-110 -97z" />
<glyph unicode="&#xf5;" horiz-adv-x="501" d="M37 250q0 124 54.5 192t158.5 68t158.5 -68t54.5 -192q0 -123 -55.5 -191.5t-157.5 -68.5q-104 0 -158.5 68t-54.5 192zM87 627q1 3 3.5 7t11.5 15t19 19t27 15t35 7q33 0 80.5 -23t71.5 -23q16 0 28.5 7t17.5 13l5 7l23 -25q-3 -6 -8.5 -14.5t-27 -22.5t-49.5 -14 q-30 0 -79 23t-75 23q-17 0 -32 -9.5t-22 -19.5l-6 -10zM114 250q0 -109 33 -162.5t103 -53.5q136 0 136 216t-136 216q-70 0 -103 -53.5t-33 -162.5z" />
<glyph unicode="&#xf6;" horiz-adv-x="501" d="M37 250q0 124 54.5 192t158.5 68t158.5 -68t54.5 -192q0 -123 -55.5 -191.5t-157.5 -68.5q-104 0 -158.5 68t-54.5 192zM114 250q0 -109 33 -162.5t103 -53.5q136 0 136 216t-136 216q-70 0 -103 -53.5t-33 -162.5zM129 644q0 17 10.5 28.5t26.5 11.5q14 0 27 -10 q11 -13 11 -30q0 -16 -11 -29q-13 -10 -27 -10q-16 0 -26.5 11.5t-10.5 27.5zM283 644q0 19 11 30q13 10 26 10q16 0 27 -12t11 -28t-11 -27.5t-27 -11.5t-26.5 11.5t-10.5 27.5z" />
<glyph unicode="&#xf7;" horiz-adv-x="469" d="M34 230v47h402v-47h-402zM188 66q0 19 13 32.5t32 13.5t32 -12q13 -13 13 -34q0 -20 -13 -33t-32 -13t-32 13.5t-13 32.5zM190 441q0 19 13 32.5t32 13.5t32 -12q13 -13 13 -34q0 -20 -13 -33t-32 -13t-32 13.5t-13 32.5z" />
<glyph unicode="&#xf8;" horiz-adv-x="510" d="M37 250q0 124 54.5 192t158.5 68q46 0 83 -14l60 154l37 -6l-64 -165q97 -61 97 -229q0 -123 -55.5 -191.5t-157.5 -68.5q-38 0 -69 9l-69 -178l-36 6l71 186q-110 57 -110 237zM114 250q0 -139 52 -187l149 386q-28 17 -65 17q-70 0 -103 -53.5t-33 -162.5zM198 43 q22 -9 52 -9q136 0 136 216q0 122 -41 173z" />
<glyph unicode="&#xf9;" horiz-adv-x="512" d="M68 151v349h73v-334q0 -123 104 -123q36 0 65.5 12.5t41.5 25.5l12 13v406h73v-500h-61l-10 48q-7 -9 -18.5 -19.5t-47 -24.5t-79.5 -14q-73 0 -113 40.5t-40 120.5zM140 708l62 16l83 -143l-40 -8z" />
<glyph unicode="&#xfa;" horiz-adv-x="512" d="M68 151v349h73v-334q0 -123 104 -123q36 0 65.5 12.5t41.5 25.5l12 13v406h73v-500h-61l-10 48q-7 -9 -18.5 -19.5t-47 -24.5t-79.5 -14q-73 0 -113 40.5t-40 120.5zM220 576l77 145l63 -15l-102 -135z" />
<glyph unicode="&#xfb;" horiz-adv-x="512" d="M68 151v349h73v-334q0 -123 104 -123q36 0 65.5 12.5t41.5 25.5l12 13v406h73v-500h-61l-10 48q-7 -9 -18.5 -19.5t-47 -24.5t-79.5 -14q-73 0 -113 40.5t-40 120.5zM124 629l110 114h39l108 -114l-18 -32l-110 97l-110 -97z" />
<glyph unicode="&#xfc;" horiz-adv-x="512" d="M68 151v349h73v-334q0 -123 104 -123q36 0 65.5 12.5t41.5 25.5l12 13v406h73v-500h-61l-10 48q-7 -9 -18.5 -19.5t-47 -24.5t-79.5 -14q-73 0 -113 40.5t-40 120.5zM138 644q0 19 11 30q13 10 27 10q13 0 26 -10q11 -13 11 -30q0 -16 -10.5 -27.5t-26.5 -11.5 q-17 0 -27.5 11t-10.5 28zM292 644q0 19 11 30q13 10 26 10q16 0 27 -12t11 -28t-11 -27.5t-27 -11.5t-26.5 11.5t-10.5 27.5z" />
<glyph unicode="&#xfd;" horiz-adv-x="449" d="M15 500h86l148 -418l134 418h53l-173 -508q-21 -59 -37.5 -98t-39.5 -77.5t-50.5 -57.5t-59.5 -19q-18 0 -33 3t-21 7l-6 3l8 46q19 -9 41 -9q46 0 77 49.5t69 154.5zM204 576l77 145l63 -15l-102 -135z" />
<glyph unicode="&#xfe;" horiz-adv-x="514" d="M73 -252v752h1v248l73 4v-309h1q1 3 4 7.5t13.5 16t24.5 20.5t38 16.5t53 7.5q89 0 143 -65.5t54 -181.5q0 -126 -53 -200.5t-153 -74.5q-80 0 -126 43v-282zM147 82q4 -6 13 -15t35 -19.5t58 -10.5q77 0 112.5 56.5t35.5 168.5q0 201 -141 201q-27 0 -50 -9.5t-36 -24.5 t-18.5 -23.5t-8.5 -14.5v-309z" />
<glyph unicode="&#xff;" horiz-adv-x="449" d="M15 500h86l148 -418l134 418h53l-173 -508q-21 -59 -37.5 -98t-39.5 -77.5t-50.5 -57.5t-59.5 -19q-18 0 -33 3t-21 7l-6 3l8 46q19 -9 41 -9q46 0 77 49.5t69 154.5zM121 644q0 17 10.5 28.5t26.5 11.5q14 0 27 -10q11 -13 11 -30q0 -16 -11 -29q-13 -10 -27 -10 q-16 0 -26.5 11.5t-10.5 27.5zM275 644q0 19 11 30q13 10 26 10q16 0 27 -12t11 -28t-11 -27.5t-27 -11.5t-26.5 11.5t-10.5 27.5z" />
<glyph unicode="&#x152;" horiz-adv-x="940" d="M48 324q0 155 73.5 245t204.5 90q127 0 201 -85v76h351v-48h-275v-219q2 -20 2 -31h249v-46h-248l-3 -42v-216h297v-48h-373v74q-75 -84 -201 -84q-131 0 -204.5 89t-73.5 245zM129 324q0 -140 50.5 -213t146.5 -73t147.5 73t51.5 213q0 139 -51.5 213t-147.5 74 q-95 0 -146 -74t-51 -213z" />
<glyph unicode="&#x153;" horiz-adv-x="803" d="M37 250q0 124 54.5 192t158.5 68q123 0 176 -95q55 95 166 95q86 0 132.5 -59.5t46.5 -168.5l-5 -46h-303q0 -202 146 -202q25 0 47.5 6.5t36.5 16t25 19.5t16 16l4 7l29 -24q-2 -3 -5.5 -9t-18 -20.5t-32 -26t-47 -20.5t-63.5 -9q-125 0 -178 91q-56 -91 -173 -91 q-104 0 -158.5 68t-54.5 192zM114 250q0 -109 33 -162.5t103 -53.5q136 0 136 216t-136 216q-70 0 -103 -53.5t-33 -162.5zM464 278h239q1 10 1 19q0 170 -112 170q-118 0 -128 -189z" />
<glyph unicode="&#x178;" horiz-adv-x="507" d="M2 650h85l179 -320l178 320h61l-212 -376v-274h-76v269zM150 779q0 19 11 30q13 10 27 10q13 0 26 -10q11 -13 11 -30q0 -16 -10.5 -27.5t-26.5 -11.5q-17 0 -27.5 11t-10.5 28zM304 779q0 19 11 30q13 10 26 10q16 0 27 -12t11 -28t-11 -27.5t-27 -11.5t-26.5 11.5 t-10.5 27.5z" />
<glyph unicode="&#x2c6;" horiz-adv-x="336" d="M38 629l110 114h39l108 -114l-18 -32l-110 97l-110 -97z" />
<glyph unicode="&#x2dc;" horiz-adv-x="396" d="M38 627q1 3 3.5 7t11.5 15t19 19t27 15t35 7q33 0 80.5 -23t71.5 -23q16 0 29 7t17 13l5 7l23 -25q-3 -6 -8.5 -14.5t-27 -22.5t-49.5 -14q-30 0 -79 23t-75 23q-17 0 -32 -9.5t-21 -19.5l-7 -10z" />
<glyph unicode="&#x2000;" horiz-adv-x="439" />
<glyph unicode="&#x2001;" horiz-adv-x="878" />
<glyph unicode="&#x2002;" horiz-adv-x="439" />
<glyph unicode="&#x2003;" horiz-adv-x="878" />
<glyph unicode="&#x2004;" horiz-adv-x="292" />
<glyph unicode="&#x2005;" horiz-adv-x="219" />
<glyph unicode="&#x2006;" horiz-adv-x="146" />
<glyph unicode="&#x2007;" horiz-adv-x="146" />
<glyph unicode="&#x2008;" horiz-adv-x="109" />
<glyph unicode="&#x2009;" horiz-adv-x="175" />
<glyph unicode="&#x200a;" horiz-adv-x="48" />
<glyph unicode="&#x2010;" horiz-adv-x="297" d="M34 254v47h229v-47h-229z" />
<glyph unicode="&#x2011;" horiz-adv-x="297" d="M34 254v47h229v-47h-229z" />
<glyph unicode="&#x2012;" horiz-adv-x="297" d="M34 254v47h229v-47h-229z" />
<glyph unicode="&#x2013;" horiz-adv-x="470" d="M34 254v47h402v-47h-402z" />
<glyph unicode="&#x2014;" horiz-adv-x="623" d="M34 254v47h556v-47h-556z" />
<glyph unicode="&#x2018;" horiz-adv-x="141" d="M22 561q0 48 25.5 106.5t63.5 89.5l21 -22q-31 -28 -50 -72t-19 -82v-5h4q15 0 27 -9q11 -13 11 -30t-11 -29t-28 -12q-44 0 -44 65z" />
<glyph unicode="&#x2019;" horiz-adv-x="141" d="M1 515q31 28 50 72t19 81v5h-4q-17 0 -27.5 11.5t-10.5 28.5t11 28.5t28 11.5q44 0 44 -65q0 -48 -25 -106t-63 -90z" />
<glyph unicode="&#x201a;" horiz-adv-x="141" d="M1 -140q31 29 50 72.5t19 80.5v5h-4q-17 0 -27.5 11.5t-10.5 28.5t11 28.5t28 11.5q44 0 44 -65q0 -48 -25 -106t-63 -90z" />
<glyph unicode="&#x201c;" horiz-adv-x="290" d="M22 561q0 48 25.5 106.5t63.5 89.5l21 -22q-31 -28 -50 -72t-19 -82v-5h4q15 0 27 -9q11 -13 11 -30t-11 -29t-28 -12q-44 0 -44 65zM170 561q0 48 25.5 106.5t63.5 89.5l21 -22q-31 -28 -50 -72t-19 -82v-5h4q15 0 27 -9q11 -13 11 -30t-11 -29t-28 -12q-44 0 -44 65z " />
<glyph unicode="&#x201d;" horiz-adv-x="290" d="M1 515q31 28 50 72t19 81v5h-4q-17 0 -27.5 11.5t-10.5 28.5t11 28.5t28 11.5q44 0 44 -65q0 -48 -25 -106t-63 -90zM149 515q31 28 50 72t19 81v5h-4q-17 0 -27.5 11.5t-10.5 28.5t11 28.5t28 11.5q44 0 44 -65q0 -48 -25 -106t-63 -90z" />
<glyph unicode="&#x201e;" horiz-adv-x="290" d="M1 -140q31 29 50 72.5t19 80.5v5h-4q-17 0 -27.5 11.5t-10.5 28.5t11 28.5t28 11.5q44 0 44 -65q0 -48 -25 -106t-63 -90zM149 -140q31 29 50 72.5t19 80.5v5h-4q-17 0 -27.5 11.5t-10.5 28.5t11 28.5t28 11.5q44 0 44 -65q0 -48 -25 -106t-63 -90z" />
<glyph unicode="&#x2022;" horiz-adv-x="300" d="M68 321q0 37 23 59q23 20 54 20t54 -20q23 -23 23 -59q0 -35 -23 -58q-21 -20 -54 -20t-54 20q-23 22 -23 58z" />
<glyph unicode="&#x2026;" horiz-adv-x="663" d="M75 37q0 19 13 32.5t32 13.5q18 0 32 -12q13 -13 13 -34q0 -20 -13 -33t-32 -13t-32 13.5t-13 32.5zM285 37q0 19 13 32.5t32 13.5q18 0 32 -12q13 -13 13 -34q0 -20 -13 -33t-32 -13t-32 13.5t-13 32.5zM495 37q0 19 13 32.5t32 13.5q18 0 32 -12q13 -13 13 -34 q0 -20 -13 -33t-32 -13t-32 13.5t-13 32.5z" />
<glyph unicode="&#x202f;" horiz-adv-x="175" />
<glyph unicode="&#x2039;" horiz-adv-x="323" d="M83 250l155 171l22 -26l-108 -146l108 -148l-23 -27z" />
<glyph unicode="&#x203a;" horiz-adv-x="323" d="M61 100l108 145l-107 149l23 27l153 -177l-154 -170z" />
<glyph unicode="&#x205f;" horiz-adv-x="219" />
<glyph unicode="&#x20ac;" horiz-adv-x="570" d="M46 229v40h57q-2 32 -2 51q0 29 1 43l-56 3v39h59q31 253 249 253q45 0 87.5 -13t62.5 -25l21 -13l-9 -45q-8 5 -21.5 13.5t-54 22t-78.5 13.5q-85 0 -127 -49t-52 -157h246v-44h-248q-1 -13 -1 -41q0 -35 1 -51h248v-44h-244q12 -101 56 -145.5t127 -44.5 q48 0 88.5 20.5t57.5 40.5l17 20l16 -33q-2 -4 -7 -10t-22 -22t-37.5 -28.5t-54.5 -22.5t-72 -10q-214 0 -247 236z" />
<glyph unicode="&#x2122;" horiz-adv-x="751" d="M58 714v36h109v-1h45v1h127v-36h-127v-314h-45v314h-109zM361 400l18 350h47l101 -307l113 307h44l10 -350h-43l-9 271l-100 -271h-40l-99 281l-8 -281h-34z" />
<glyph unicode="&#xe000;" horiz-adv-x="500" d="M0 0v500h500v-500h-500z" />
</font>
</defs>
</svg>
