<?xml version="1.0" standalone="no"?>
<!DOCTYPE svg PUBLIC "-//W3C//DTD SVG 1.1//EN" "http://www.w3.org/Graphics/SVG/1.1/DTD/svg11.dtd" >
<svg xmlns="http://www.w3.org/2000/svg">
<metadata></metadata>
<defs>
<font id="arsenalitalic" horiz-adv-x="515" >
<font-face units-per-em="1000" ascent="750" descent="-250" />
<missing-glyph horiz-adv-x="233" />
<glyph unicode="&#xfb01;" horiz-adv-x="524" d="M-82 -238l21 41q16 -16 47 -16q39 0 64 40t38 132l69 492h-51l6 42l52 6l10 72q14 97 57 142.5t131 45.5q82 0 130 -76q8 4 19 4q18 0 28 -10q8 -9 8 -26q0 -22 -17 -39q-16 -11 -32 -11t-26 10.5t-10 26.5q0 11 5 23q-37 52 -96 52t-86 -32t-39 -118l-9 -63h145l-7 -49 h-145l-69 -492q-31 -219 -172 -219q-24 0 -41.5 5.5t-23.5 10.5zM377 0l70 500h72l-70 -500h-72z" />
<glyph unicode="&#xfb02;" horiz-adv-x="521" d="M-82 -238l21 41q16 -16 47 -16q39 0 64 40t38 132l69 492h-52l6 42l53 6l10 72q27 188 157 188q66 0 144 -40l4 29l73 4l-105 -752h-73l94 675q-70 39 -124 39q-42 0 -64 -33t-34 -118l-9 -63h144l-7 -49h-144l-69 -492q-31 -219 -172 -219q-24 0 -41.5 5.5t-23.5 10.5z " />
<glyph horiz-adv-x="1000" />
<glyph horiz-adv-x="1000" />
<glyph unicode="&#xd;" horiz-adv-x="1000" />
<glyph unicode=" "  horiz-adv-x="233" />
<glyph unicode="&#x09;" horiz-adv-x="233" />
<glyph unicode="&#xa0;" horiz-adv-x="233" />
<glyph unicode="!" horiz-adv-x="276" d="M98 30q0 21 15.5 37t36.5 16q17 0 28.5 -10.5t11.5 -28.5q0 -24 -18 -41q-16 -12 -34 -12q-17 0 -28.5 11t-11.5 28zM147 212l46 455l11 83h81l-11 -83l-83 -455h-44z" />
<glyph unicode="&#x22;" horiz-adv-x="299" d="M111 518l28 232l67 -2l-54 -230h-41zM252 518l28 232l67 -2l-54 -230h-41z" />
<glyph unicode="#" horiz-adv-x="480" d="M80 218l6 41h88l45 130h-115l6 42h124l48 137l32 -10l-45 -127h105l44 126l33 -10l-41 -116h82l-7 -42h-89l-46 -130h117l-6 -41h-125l-48 -138l-33 10l44 128h-104l-44 -127l-32 10l41 117h-80zM209 259h105l45 130h-104z" />
<glyph unicode="$" horiz-adv-x="408" d="M56 128l30 35q1 -3 3.5 -7t12.5 -15t22 -19t32.5 -15t44.5 -7q62 0 94.5 32t32.5 76q0 31 -22 51t-53 32t-62 25t-53 39.5t-22 66.5q0 60 40.5 100t105.5 51l22 127h42l-11 -125q30 -2 58 -12.5t41 -20.5l14 -9l-13 -43q-50 44 -111 44q-52 0 -84 -26.5t-32 -66.5 q0 -31 22.5 -52t54.5 -33t64 -25.5t54.5 -40.5t22.5 -67q0 -64 -42 -110t-122 -55l-19 -108h-42l8 106q-29 2 -53.5 10t-38.5 18.5t-24 20.5t-13 17z" />
<glyph unicode="%" horiz-adv-x="802" d="M111 439q0 99 51.5 161.5t135.5 62.5q62 0 98 -42.5t36 -113.5q0 -97 -51.5 -159t-135.5 -62q-65 0 -99.5 41t-34.5 112zM170 434q0 -50 20.5 -78t59.5 -28q54 0 88.5 48.5t34.5 138.5q0 50 -21 78t-60 28q-55 0 -88.5 -47.5t-33.5 -139.5zM237 12l371 629l41 -10 l-370 -629zM462 139q0 99 51.5 161.5t135.5 62.5q62 0 98 -42.5t36 -113.5q0 -97 -51.5 -159t-135.5 -62q-65 0 -99.5 41t-34.5 112zM521 134q0 -50 20.5 -78t59.5 -28q54 0 88.5 48.5t34.5 138.5q0 50 -21 78t-60 28q-55 0 -88.5 -47.5t-33.5 -139.5z" />
<glyph unicode="&#x26;" horiz-adv-x="603" d="M69 146q0 76 45 124t109 67q-75 38 -75 129q0 86 55.5 139.5t146.5 53.5q31 0 61.5 -7.5t45.5 -15.5l15 -8l-14 -43q-41 29 -98 29q-66 0 -103.5 -42.5t-37.5 -113.5q0 -48 25.5 -75t57.5 -27h123l53 144h34l-21 -144h129l-6 -43h-129l-24 -175q-4 -34 -4 -43 q0 -34 13 -46.5t41 -12.5q18 0 35.5 3t25.5 7l9 3l-4 -40q-30 -19 -95 -19q-75 0 -90 57q-51 -57 -142 -57t-136 43t-45 113zM146 150q0 -51 30.5 -82.5t90.5 -31.5q83 0 121 65q2 22 4 33l24 179h-128q-54 -1 -98 -45t-44 -118z" />
<glyph unicode="'" horiz-adv-x="158" d="M111 518l28 232l67 -2l-54 -230h-41z" />
<glyph unicode="(" horiz-adv-x="307" d="M114 144q0 69 9 128q12 87 38 165.5t54 129t54.5 89t43.5 55.5l17 17l35 -21q-5 -6 -14 -17.5t-34 -52t-46 -86.5t-44 -122t-34 -157q-11 -83 -11 -145q0 -86 15.5 -157.5t30.5 -99.5l16 -28l-40 -21q-4 4 -10 12.5t-21.5 38t-27.5 63.5t-21.5 90.5t-9.5 118.5z" />
<glyph unicode=")" horiz-adv-x="307" d="M18 -158q5 6 14 17.5t34 52.5t46 87t44 121.5t34 156.5q10 74 10 142q0 54 -6.5 103.5t-15 81.5t-17.5 56.5t-15 35.5l-7 11l40 21q4 -4 10 -12.5t21.5 -38t27.5 -63.5t21.5 -90.5t9.5 -118.5q0 -69 -9 -128q-12 -87 -38 -165.5t-54 -129t-54.5 -89t-43.5 -55.5l-18 -17z " />
<glyph unicode="*" horiz-adv-x="393" d="M93 527l31 70l131 -79l7 186h67l-48 -186l156 79l10 -70l-161 -35l91 -138l-61 -44l-53 161l-99 -161l-48 44l129 136z" />
<glyph unicode="+" horiz-adv-x="408" d="M70 254l7 47h147l25 174h45l-25 -174h147l-7 -47h-146l-24 -174h-45l24 174h-148z" />
<glyph unicode="," horiz-adv-x="226" d="M25 -140q36 29 61.5 75t28.5 83q-37 0 -37 34q0 18 13.5 32t32.5 14q36 0 36 -46q0 -47 -35 -113t-82 -102z" />
<glyph unicode="-" horiz-adv-x="297" d="M70 254l7 47h228l-6 -47h-229z" />
<glyph unicode="." horiz-adv-x="243" d="M79 30q0 21 15.5 37t36.5 16q17 0 28.5 -10.5t11.5 -28.5q0 -24 -18 -41q-17 -12 -34 -12t-28.5 11t-11.5 28z" />
<glyph unicode="/" horiz-adv-x="417" d="M-34 -250l516 1000h55l-515 -1000h-56z" />
<glyph unicode="0" horiz-adv-x="562" d="M94 241q0 121 28 213t91.5 148.5t155.5 56.5q54 0 93 -21t59 -57t29 -75.5t9 -84.5q0 -195 -79 -313t-196 -118q-94 0 -142 65.5t-48 185.5zM170 222q0 -91 31 -138.5t89 -47.5q78 0 135.5 104.5t57.5 288.5t-120 184q-89 0 -141 -98t-52 -293z" />
<glyph unicode="1" horiz-adv-x="369" d="M130 564l161 86h59l-91 -650h-72l82 592l-128 -67z" />
<glyph unicode="2" horiz-adv-x="475" d="M43 0l8 60q12 4 49 31.5t88 74.5t98.5 100.5t80.5 118.5t33 121q0 104 -113 104q-33 0 -69.5 -14t-56.5 -28l-20 -13l-1 47q8 6 23 15.5t58 25.5t83 16q88 0 132.5 -40t44.5 -108q0 -51 -26 -107.5t-63 -102.5t-88 -94t-91 -79t-82 -60h307l-9 -68h-386z" />
<glyph unicode="3" horiz-adv-x="475" d="M50 65l30 39q2 -3 5.5 -7.5t16.5 -15.5t28 -20t39 -16t50 -7q80 0 120.5 49.5t40.5 134.5q0 49 -26.5 77.5t-76.5 28.5q-16 0 -31.5 -5.5t-23.5 -10.5l-7 -6l-22 30l219 245h-262l14 69h328l-7 -47l-213 -235q12 3 28 3q71 0 113 -42.5t42 -113.5q0 -102 -66 -163.5 t-168 -61.5q-35 0 -65.5 7.5t-49 19t-32 22.5t-18.5 19z" />
<glyph unicode="4" horiz-adv-x="492" d="M57 164l1 38q122 189 227 457l68 -9q-84 -208 -238 -441h229l65 346h57l-48 -346h71l-6 -40l-71 -5l-23 -164h-74l23 164h-281z" />
<glyph unicode="5" horiz-adv-x="465" d="M34 64l31 37q1 -1 2.5 -3.5t7.5 -9t13 -12.5t18.5 -13t24.5 -12.5t31 -9t37 -3.5q80 0 128 54t48 139q0 57 -32 91t-88 34q-23 0 -43 -5.5t-32 -12t-16 -13.5l-29 4l75 321h272l-14 -70h-229l-46 -195q37 13 74 13q85 0 135 -44t50 -121q0 -110 -73.5 -176.5 t-179.5 -66.5q-53 0 -94 18.5t-56 37.5z" />
<glyph unicode="6" horiz-adv-x="517" d="M86 197q0 61 14 126q34 169 103.5 252.5t163.5 83.5q31 0 62 -8.5t47 -16.5l15 -9l-17 -44q-49 32 -107 32q-148 0 -195 -267q74 64 158 64q81 0 126 -44.5t45 -121.5q0 -24 -2 -36q-14 -94 -75 -156t-158 -62q-88 0 -134 53.5t-46 153.5zM161 177q0 -143 112 -143 q65 0 101 47.5t48 124.5q3 21 3 39q0 57 -27 90.5t-82 33.5q-82 0 -142 -74q-3 -10 -8 -50.5t-5 -67.5z" />
<glyph unicode="7" horiz-adv-x="421" d="M109 0q77 218 312 578h-299l10 72h361l-8 -60q-83 -125 -167 -289t-130 -301h-79z" />
<glyph unicode="8" horiz-adv-x="502" d="M69 139q0 144 159 194q-100 33 -100 135q0 88 59 139.5t156 51.5q78 0 124 -37.5t46 -105.5q0 -138 -148 -184q115 -33 115 -140q0 -101 -61.5 -151.5t-168.5 -50.5q-181 0 -181 149zM149 139q0 -108 107 -108q66 0 105 43t39 122q0 96 -98 118q-16 -2 -35 -8.5 t-49 -23.5t-49.5 -54t-19.5 -89zM204 462q0 -92 86 -113q12 1 26 4.5t37 15t40 28.5t30 49t13 73q0 99 -99 99q-63 0 -98 -42t-35 -114z" />
<glyph unicode="9" horiz-adv-x="517" d="M106 398q0 104 65 182.5t173 78.5q86 0 132 -53t46 -151q0 -85 -10 -125q-32 -169 -98.5 -254.5t-162.5 -85.5q-43 0 -77 13t-46 26l-13 13l22 40q4 -5 12.5 -12.5t37.5 -20.5t62 -13q68 0 116.5 66t70.5 194q-62 -69 -156 -69q-81 0 -127.5 46.5t-46.5 124.5zM181 396 q0 -55 27.5 -91.5t81.5 -36.5t93.5 28.5t53.5 58.5q8 46 10 105v16q0 139 -107 139q-73 0 -116 -65.5t-43 -153.5z" />
<glyph unicode=":" horiz-adv-x="245" d="M79 30q0 21 15.5 37t36.5 16q17 0 28.5 -10.5t11.5 -28.5q0 -24 -18 -41q-17 -12 -34 -12t-28.5 11t-11.5 28zM132 409q0 21 15.5 37t36.5 16q17 0 28.5 -10.5t11.5 -28.5q0 -25 -18 -41q-16 -12 -34 -12q-17 0 -28.5 11t-11.5 28z" />
<glyph unicode=";" horiz-adv-x="243" d="M35 -140q36 29 61.5 75t28.5 83q-37 0 -37 34q0 18 13.5 32t32.5 14q36 0 36 -46q0 -47 -35 -113t-82 -102zM132 409q0 21 15.5 37t36.5 16q17 0 28.5 -10.5t11.5 -28.5q0 -25 -18 -41q-16 -12 -34 -12q-17 0 -28.5 11t-11.5 28z" />
<glyph unicode="&#x3c;" horiz-adv-x="368" d="M105 318l269 199l20 -29l-219 -171l173 -170l-30 -29z" />
<glyph unicode="=" horiz-adv-x="470" d="M57 159l7 47h401l-7 -47h-401zM84 349l7 47h401l-7 -47h-401z" />
<glyph unicode="&#x3e;" horiz-adv-x="368" d="M63 147l218 171l-170 170l29 29l212 -199l-268 -200z" />
<glyph unicode="?" horiz-adv-x="411" d="M105 30q0 21 15.5 37t36.5 16q17 0 28.5 -10.5t11.5 -28.5q0 -24 -18 -41q-17 -12 -34 -12t-28.5 11t-11.5 28zM136 707q6 6 18.5 14.5t52.5 23t83 14.5q77 0 116 -43.5t39 -106.5q0 -54 -17.5 -92t-43.5 -57.5t-58 -41.5t-60 -43t-50 -63.5t-28 -101.5l-36 -3 q5 56 20 97t34.5 65t42 42.5t44 34.5t39 35t28.5 50.5t11 74.5q0 48 -26 77.5t-77 29.5q-35 0 -67 -12.5t-46 -24.5l-14 -12z" />
<glyph unicode="@" horiz-adv-x="831" d="M75 107q0 239 121 383t339 144q142 0 217 -75t75 -212q0 -175 -65 -267.5t-156 -92.5q-76 0 -81 53q-43 -54 -117 -54q-65 0 -102.5 40.5t-37.5 120.5q0 112 59.5 186.5t150.5 74.5q61 0 95 -40l17 26h32l-42 -304q-2 -18 -2 -23q0 -44 39 -44q24 0 48.5 16t48.5 50.5 t39 101t15 155.5q0 121 -60 184t-179 63q-180 0 -284.5 -126.5t-104.5 -353.5q0 -147 70.5 -222.5t197.5 -75.5q45 0 86 10t67.5 24t47 28t29.5 24l10 10l14 -36q-3 -4 -9.5 -11t-30.5 -25.5t-51.5 -32t-73.5 -25t-96 -11.5q-159 0 -242.5 87.5t-83.5 249.5zM329 144 q0 -121 98 -121q65 0 102 68l32 230q-16 51 -81 51q-69 0 -110 -62t-41 -166z" />
<glyph unicode="A" horiz-adv-x="568" d="M23 0l310 650h89l124 -650h-79l-40 200h-255l-96 -200h-53zM191 241h228l-63 351z" />
<glyph unicode="B" horiz-adv-x="542" d="M94 0l91 650h164q90 0 137 -38t47 -102q0 -114 -116 -169q49 -14 77 -48t28 -85q0 -96 -66 -152t-197 -56h-165zM175 44h88q91 0 137.5 43.5t46.5 123.5q0 51 -30 77.5t-81 26.5h-123zM219 356h119q40 0 81 37.5t41 110.5q0 51 -32 76.5t-87 25.5h-87z" />
<glyph unicode="C" horiz-adv-x="570" d="M87 258q0 177 93.5 289t239.5 112q46 0 91.5 -14.5t68.5 -28.5l22 -14l-14 -47q-9 6 -24.5 15t-59.5 24t-83 15q-110 0 -182 -92.5t-72 -260.5q0 -104 51.5 -160t138.5 -56q34 0 65 10t52 24t37 28.5t23 24.5l8 10l23 -32q-3 -5 -8.5 -12.5t-26 -27.5t-44 -35t-63 -27.5 t-82.5 -12.5q-118 0 -186 71.5t-68 196.5z" />
<glyph unicode="D" horiz-adv-x="634" d="M94 0l91 650h198q122 0 188 -68t66 -197q0 -182 -91 -283.5t-254 -101.5h-198zM176 48h124q119 0 188 86.5t69 258.5q0 103 -46 156t-134 53h-123z" />
<glyph unicode="E" horiz-adv-x="507" d="M94 0l91 650h350l-6 -48h-275l-35 -250h252l-7 -46h-251l-36 -258h296l-7 -48h-372z" />
<glyph unicode="F" horiz-adv-x="464" d="M94 0l91 650h357l-6 -48h-281l-37 -259h242l-7 -46h-241l-42 -297h-76z" />
<glyph unicode="G" horiz-adv-x="620" d="M87 255q0 185 92 294.5t252 109.5q46 0 92 -14.5t69 -28.5l23 -14l-16 -47q-9 6 -24.5 15t-59.5 24t-83 15q-127 0 -196 -91.5t-69 -262.5q0 -105 43 -160t121 -55q41 0 74 13t52 33.5t28 35t14 26.5l21 147h-133l7 43h196l-47 -338h-37l-9 71q-69 -81 -184 -81 q-109 0 -167.5 69.5t-58.5 195.5z" />
<glyph unicode="H" horiz-adv-x="638" d="M94 0l91 650h76l-41 -292h297l41 292h76l-91 -650h-76l43 312h-297l-43 -312h-76z" />
<glyph unicode="I" horiz-adv-x="265" d="M94 0l91 650h76l-91 -650h-76z" />
<glyph unicode="J" horiz-adv-x="362" d="M15 33l16 38q2 -4 7.5 -9.5t26 -14.5t45.5 -9q94 0 117 153l64 459h76l-65 -459q-16 -112 -62 -156.5t-114 -44.5q-37 0 -65 10.5t-37 21.5z" />
<glyph unicode="K" horiz-adv-x="580" d="M94 0l91 650h76l-50 -354l89 70l259 284h61l-268 -290l208 -360h-95l-177 302l-85 -62l-33 -240h-76z" />
<glyph unicode="L" horiz-adv-x="471" d="M94 0l91 650h76l-85 -602h290l-7 -48h-365z" />
<glyph unicode="M" horiz-adv-x="835" d="M94 0l94 650h94l151 -557h1l307 557h88l-88 -650h-74l75 557l-304 -557h-61l-148 557l-80 -557h-55z" />
<glyph unicode="N" horiz-adv-x="651" d="M94 0l91 650h79l257 -536v24l72 512h55l-91 -650h-66l-268 554h-1l1 -31l-74 -523h-55z" />
<glyph unicode="O" horiz-adv-x="654" d="M88 260q0 179 88 289t238 110q122 0 182.5 -74t60.5 -190q0 -184 -95 -294.5t-232 -110.5q-114 0 -178 72t-64 198zM167 249q0 -99 44 -155t123 -56q103 0 173 94t70 271q0 92 -41.5 150t-125.5 58q-111 0 -177 -94.5t-66 -267.5z" />
<glyph unicode="P" horiz-adv-x="496" d="M94 0l91 650h156q89 0 137.5 -42.5t48.5 -126.5q0 -67 -22 -118t-58 -79.5t-77 -42t-86 -13.5h-82l-32 -228h-76zM208 270h71q73 0 120.5 50.5t47.5 161.5q0 124 -120 124h-73z" />
<glyph unicode="Q" horiz-adv-x="654" d="M88 260q0 179 88 289t238 110q122 0 182.5 -74t60.5 -190q0 -168 -79.5 -275t-200.5 -126q58 -110 133 -110q18 0 36 7l-1 -40q-26 -10 -55 -10q-60 0 -111 41.5t-77 108.5q-102 9 -158 79.5t-56 189.5zM167 249q0 -99 44 -155t123 -56q103 0 173 94t70 271 q0 92 -41.5 150t-125.5 58q-111 0 -177 -94.5t-66 -267.5z" />
<glyph unicode="R" horiz-adv-x="539" d="M94 0l91 650h157q89 0 138 -42.5t49 -122.5q0 -91 -42.5 -149t-108.5 -81l127 -255h-87l-116 241h-98l-34 -241h-76zM210 286h81q157 0 157 200q0 120 -121 120h-72z" />
<glyph unicode="S" horiz-adv-x="490" d="M57 81l30 39q1 -3 4.5 -8.5t15.5 -19.5t27.5 -24.5t43.5 -19.5t61 -9q72 0 112.5 39t40.5 97q0 39 -26 67t-63 46.5t-74 38.5t-63 54.5t-26 83.5q0 90 60 142t157 52q44 0 80 -14t51 -28l14 -14l-15 -44q-5 6 -15.5 15t-44.5 24t-72 15q-63 0 -100.5 -33t-37.5 -91 q0 -39 26 -67t63.5 -47t75 -39.5t63.5 -56t26 -84.5q0 -91 -64.5 -148t-164.5 -57q-41 0 -75 9.5t-53.5 22.5t-33 26.5t-18.5 23.5z" />
<glyph unicode="T" horiz-adv-x="461" d="M92 602l7 48h447l-7 -48h-186l-85 -602h-76l85 602h-185z" />
<glyph unicode="U" horiz-adv-x="620" d="M112 169q0 21 3 43l62 438h75l-59 -421q-3 -24 -3 -45q0 -70 34 -106.5t100 -36.5q79 0 127 49.5t60 138.5l59 421h55l-62 -438q-14 -102 -78 -162t-177 -60q-97 0 -146.5 47.5t-49.5 131.5z" />
<glyph unicode="V" horiz-adv-x="548" d="M106 650h79l106 -594l275 594h56l-307 -650h-88z" />
<glyph unicode="W" horiz-adv-x="848" d="M106 650h80l69 -563l238 563h67l83 -560l223 560h56l-266 -650h-70l-84 556l-238 -556h-70z" />
<glyph unicode="X" horiz-adv-x="541" d="M18 0l253 322l-154 328h92l122 -272h1l206 272h63l-243 -315l165 -335h-93l-131 279h-1l-213 -279h-67z" />
<glyph unicode="Y" horiz-adv-x="507" d="M93 650h85l134 -320l223 320h61l-266 -377l-37 -273h-76l37 269z" />
<glyph unicode="Z" horiz-adv-x="527" d="M40 0l6 40l430 562h-342l6 48h436l-6 -41l-431 -561h353l-7 -48h-445z" />
<glyph unicode="[" horiz-adv-x="334" d="M77 -76l109 777h236l-6 -44h-172l-97 -688h172l-6 -45h-236z" />
<glyph unicode="\" horiz-adv-x="417" d="M91 750h55l234 -1000h-55z" />
<glyph unicode="]" horiz-adv-x="334" d="M0 -76l7 45h170l97 688h-171l6 44h236l-109 -777h-236z" />
<glyph unicode="^" horiz-adv-x="336" d="M107 520l156 167l112 -167l-28 -26l-92 129l-128 -129z" />
<glyph unicode="_" horiz-adv-x="624" d="M14 -146l7 47h555l-7 -47h-555z" />
<glyph unicode="`" horiz-adv-x="207" d="M90 708l64 16l63 -143l-42 -8z" />
<glyph unicode="a" d="M66 191q0 137 67.5 228t185.5 91q24 0 45 -5t33 -11.5t21.5 -15.5t12.5 -13.5l5 -7.5l17 43h58l-70 -500h-58l-4 58q-6 -9 -14.5 -17.5t-25.5 -21.5t-44 -21t-59 -8q-78 0 -124 53t-46 148zM142 186q0 -73 31 -110t87 -37q77 0 122 67l44 303q-1 2 -3.5 6.5t-10.5 13 t-18 15.5t-28 12.5t-38 5.5q-91 0 -138.5 -74.5t-47.5 -201.5z" />
<glyph unicode="b" d="M74 0l105 748l73 4l-44 -311h2l5 7.5t15.5 16.5t27.5 21t40 16.5t54 7.5q77 0 122.5 -53t45.5 -147q0 -138 -66.5 -229t-183.5 -91q-84 0 -124 49l-19 -39h-53zM158 82q29 -44 100 -44q91 0 138.5 74t47.5 206q0 70 -31 106.5t-88 36.5q-37 0 -67.5 -17.5t-43.5 -35.5 l-12 -18l-1 2z" />
<glyph unicode="c" horiz-adv-x="423" d="M67 194q0 146 66 231t192 85q36 0 70 -12t50 -24l16 -11l-13 -41q-51 44 -117 44q-187 0 -187 -281q0 -77 35.5 -114t94.5 -37q39 0 69.5 14.5t42.5 29.5l11 14l29 -21q-2 -3 -5.5 -8.5t-17.5 -19.5t-31 -24.5t-46.5 -19.5t-63.5 -9q-91 0 -143 52.5t-52 151.5z" />
<glyph unicode="d" d="M66 193q0 137 66 227t180 90q41 0 71 -12t39 -24l10 -12h1l40 286l74 4l-106 -752h-62v58q-49 -68 -142 -68q-79 0 -125 54t-46 149zM141 185q0 -146 118 -146q34 0 64.5 17t41.5 29t18 23l43 309q-34 45 -99 45q-94 0 -140 -74.5t-46 -202.5z" />
<glyph unicode="e" horiz-adv-x="453" d="M66 192q0 143 69 230.5t181 87.5q70 0 110.5 -38t40.5 -94q0 -34 -12.5 -60t-36.5 -42t-50 -26.5t-60.5 -15.5t-61 -6.5t-59.5 -1.5h-45q-1 -14 -1 -43q0 -75 36.5 -112t97.5 -37q25 0 47.5 6t37 14.5t25.5 17.5t16 15l5 6l26 -24q-2 -3 -6 -8.5t-19 -19t-33 -24t-48 -19 t-64 -8.5q-88 0 -142 52t-54 150zM146 264h43q32 0 57.5 2t56.5 9t51 19t34 34.5t14 53.5q0 37 -25 61t-70 24q-64 0 -106 -53.5t-55 -149.5z" />
<glyph unicode="f" horiz-adv-x="312" d="M-82 -238l21 41q16 -16 47 -16q39 0 64 40t38 132l69 492h-52l6 42l53 6l10 72q14 97 50.5 142.5t107.5 45.5q24 0 46.5 -7.5t33.5 -14.5l11 -7l-16 -39q-30 23 -69 23t-59.5 -32t-32.5 -119l-9 -63h144l-7 -49h-144l-69 -492q-31 -219 -172 -219q-24 0 -41.5 5.5 t-23.5 10.5z" />
<glyph unicode="g" horiz-adv-x="451" d="M8 -114q0 60 30.5 97t75.5 53q-15 19 -15 50q0 57 56 93q-64 38 -64 125q0 106 59.5 156t150.5 50q37 0 66 -10h1l130 -1l-4 -39l-67 -2q28 -36 28 -93q0 -100 -55 -155t-148 -55q-32 0 -61 8q-40 -21 -40 -54q0 -45 83 -45q202 0 202 -136q0 -87 -60 -137.5t-171 -50.5 q-95 0 -146 37.5t-51 108.5zM63 -109q0 -106 148 -106q77 0 118 32t41 92q0 92 -147 92q-44 0 -73 10q-87 -30 -87 -120zM161 300q0 -51 24.5 -78t69.5 -27q62 0 96 44t34 130q0 98 -92 98q-132 0 -132 -167z" />
<glyph unicode="h" horiz-adv-x="510" d="M74 0l104 748l74 4l-42 -296h2q5 6 16 15t49.5 24t82.5 15q64 0 99 -31t35 -93q0 -18 -3 -37l-48 -349h-73l47 340q2 11 2 32q0 85 -88 85q-78 0 -128 -50l-57 -407h-72z" />
<glyph unicode="i" horiz-adv-x="221" d="M74 0l70 500h72l-70 -500h-72zM158 638q0 20 14.5 34.5t34.5 14.5q18 0 28 -10q8 -9 8 -26q0 -22 -17 -39q-16 -11 -32 -11t-26 10.5t-10 26.5z" />
<glyph unicode="j" horiz-adv-x="238" d="M-84 -238l21 41q16 -16 47 -16q40 0 64.5 40t37.5 132l76 541h73l-76 -541q-31 -219 -172 -219q-24 0 -41.5 5.5t-23.5 10.5zM176 638q0 20 14.5 34.5t34.5 14.5q18 0 28 -10q8 -9 8 -26q0 -22 -17 -39q-16 -11 -32 -11t-26 10.5t-10 26.5z" />
<glyph unicode="k" horiz-adv-x="455" d="M74 0l104 748l74 4l-68 -482l68 43l175 187h55l-194 -205l145 -295h-84l-123 252l-49 -28l-31 -224h-72z" />
<glyph unicode="l" horiz-adv-x="221" d="M74 0l105 748l73 4l-105 -752h-73z" />
<glyph unicode="m" horiz-adv-x="724" d="M74 0l70 500h60l2 -52q62 62 148 62q82 0 98 -62q62 62 153 62q54 0 79.5 -23t25.5 -77q0 -19 -3 -43l-51 -367h-73l51 359q3 20 3 34q0 37 -16 51t-49 14q-29 0 -57 -13.5t-40 -24.5t-19 -19q-9 -79 -29.5 -222t-25.5 -179h-72l50 359q3 19 3 35q0 36 -15.5 50t-47.5 14 q-30 0 -58.5 -13t-39.5 -23t-18 -18l-56 -404h-73z" />
<glyph unicode="n" horiz-adv-x="511" d="M74 0l70 500h60l4 -46q56 56 153 56q64 0 98.5 -31t34.5 -93q0 -18 -3 -37l-48 -349h-73q50 354 50 370q0 87 -91 87q-75 0 -125 -50l-57 -407h-73z" />
<glyph unicode="o" horiz-adv-x="501" d="M67 196q0 143 66.5 228.5t188.5 85.5q87 0 134 -54t47 -152q0 -142 -68 -228t-187 -86q-87 0 -134 54t-47 152zM142 182q0 -70 28.5 -109t86.5 -39q83 0 127 73.5t44 209.5q0 71 -28.5 110t-85.5 39q-84 0 -128 -74t-44 -210z" />
<glyph unicode="p" d="M39 -252l105 752h60l1 -61q5 7 13.5 15.5t26.5 23t47 23.5t62 9q77 0 121.5 -52.5t44.5 -146.5q0 -138 -66 -229.5t-180 -91.5q-41 0 -71.5 12t-40.5 24l-10 12h-1l-40 -288zM158 82q5 -7 12.5 -15t32 -18.5t54.5 -10.5q91 0 138.5 72.5t47.5 203.5q0 147 -119 147 q-75 0 -122 -67z" />
<glyph unicode="q" d="M66 191q0 137 68 228t183 91q82 0 120 -47l22 37h52l-105 -750l-73 -2l44 312h-2l-5 -7.5t-15 -16.5t-27 -21.5t-40 -17t-53 -7.5q-78 0 -123.5 53.5t-45.5 147.5zM142 187q0 -148 120 -148q37 0 67 17t42 34l12 17l44 310q-30 45 -97 45q-92 0 -140 -72t-48 -203z" />
<glyph unicode="r" horiz-adv-x="328" d="M74 0l70 500h53l-3 -103q1 5 4 12.5t13 27t22.5 34.5t32.5 27t43 12q13 0 33 -4t33 -8l13 -4l-13 -55q-47 15 -79 15q-28 0 -52.5 -22.5t-34 -41t-12.5 -29.5v-1l-51 -360h-72z" />
<glyph unicode="s" horiz-adv-x="408" d="M47 62l30 35q1 -3 3.5 -7t12.5 -15t22 -19t32.5 -15t44.5 -7q62 0 94.5 32t32.5 76q0 31 -22 51t-53 32t-62 25t-53 39.5t-22 66.5q0 71 53.5 112.5t134.5 41.5q32 0 63 -11t46 -21l15 -11l-13 -43q-50 44 -111 44q-52 0 -84 -26.5t-32 -66.5q0 -31 22.5 -52t54.5 -33 t64 -25.5t54.5 -40.5t22.5 -67q0 -71 -51 -119t-148 -48q-33 0 -61 7.5t-44 18t-27 21t-15 17.5z" />
<glyph unicode="t" horiz-adv-x="326" d="M103 451l7 42l52 6l50 159h45l-22 -158h128l-7 -49h-128l-42 -299q-4 -28 -4 -54q0 -33 10.5 -46.5t33.5 -13.5q18 0 34.5 3t24.5 5l8 3l-1 -40q-30 -19 -95 -19q-46 0 -68 22.5t-22 73.5q0 24 4 48l44 317h-52z" />
<glyph unicode="u" horiz-adv-x="510" d="M86 116q0 17 3 35l49 349h72l-46 -334q-3 -18 -3 -33q0 -90 89 -90q36 0 67.5 12.5t44.5 25.5l14 13l58 406h73l-71 -500h-60l-3 48q-58 -58 -153 -58q-64 0 -99 32t-35 94z" />
<glyph unicode="v" horiz-adv-x="437" d="M84 500h86l71 -421l197 421h56l-243 -500h-66z" />
<glyph unicode="w" horiz-adv-x="661" d="M85 500h81l37 -408h1l176 408h57l67 -408l155 408h56l-204 -500h-64l-60 405l-175 -405h-65z" />
<glyph unicode="x" horiz-adv-x="443" d="M12 0l201 249l-123 251h86l95 -209l157 209h59l-188 -239l131 -261h-85l-104 216l-169 -216h-60z" />
<glyph unicode="y" horiz-adv-x="452" d="M-17 -247l14 46q17 -9 39 -9q24 0 46 14t44.5 45.5t40 61.5t43.5 82l-124 507h86l89 -417l194 417h52l-244 -507q-58 -121 -110 -187t-112 -66q-18 0 -32.5 3t-20.5 7z" />
<glyph unicode="z" horiz-adv-x="415" d="M35 0l6 40l314 415h-234l3 45h321l-5 -40l-313 -415h252l-4 -45h-340z" />
<glyph unicode="{" horiz-adv-x="375" d="M135 268l6 38l2 10q35 0 71 33.5t36 92.5q0 18 -2 61t-2 62q0 90 40.5 136.5t158.5 46.5l-6 -43q-77 0 -104 -36.5t-27 -106.5q0 -20 2 -64t2 -62q0 -53 -26.5 -89.5t-69.5 -54.5q65 -28 65 -92q0 -36 -29.5 -117t-29.5 -122q0 -82 101 -82l-6 -43q-86 0 -122 29t-36 85 q0 49 29 129t29 109q0 34 -27 57t-55 23z" />
<glyph unicode="|" horiz-adv-x="292" d="M86 -250l141 1000h50l-141 -1000h-50z" />
<glyph unicode="}" horiz-adv-x="375" d="M37 -164l6 43q77 0 103.5 36.5t26.5 106.5q0 20 -2 64t-2 62q0 53 26 90t70 54q-65 28 -65 92q0 36 29.5 117t29.5 122q0 82 -100 82l6 43q86 0 122.5 -29t36.5 -85q0 -49 -29.5 -129t-29.5 -109q0 -34 26.5 -57t54.5 -23l-2 -10h1l-5 -38q-36 0 -72.5 -33t-36.5 -91 q0 -19 2.5 -63t2.5 -64q0 -89 -41 -135t-158 -46z" />
<glyph unicode="~" horiz-adv-x="573" d="M77 323q2 4 5.5 11.5t16.5 25.5t29.5 32t44.5 25.5t60 11.5q43 0 78 -16.5t55.5 -35.5t50.5 -35.5t63 -16.5q29 0 50.5 12.5t29.5 24.5l7 12l26 -19q-2 -4 -5 -11t-15 -24.5t-27 -30.5t-40.5 -24t-54.5 -11q-33 0 -60.5 10.5t-47 26t-38.5 31t-44.5 26t-55.5 10.5 q-32 0 -57.5 -14t-35.5 -28l-9 -14z" />
<glyph unicode="&#xa1;" horiz-adv-x="276" d="M61 -250q16 108 52.5 305t42.5 233h44l-46 -455l-12 -83h-81zM155 455q0 21 15.5 37t36.5 16q17 0 28.5 -10.5t11.5 -28.5q0 -25 -18 -41q-16 -12 -34 -12q-17 0 -28.5 11t-11.5 28z" />
<glyph unicode="&#xa2;" horiz-adv-x="423" d="M76 261q0 136 57 219.5t167 94.5l22 125h42l-10 -124q31 -3 60 -14.5t42 -21.5l14 -10l-13 -41q-51 44 -117 44q-187 0 -187 -281q0 -77 35.5 -114t94.5 -37q39 0 69.5 14.5t41.5 28.5l12 15l29 -21q-2 -3 -5.5 -8.5t-16.5 -19t-29 -24t-43.5 -19.5t-59.5 -10l-19 -107 h-42l9 110q-72 12 -112.5 63t-40.5 138z" />
<glyph unicode="&#xa3;" horiz-adv-x="508" d="M46 0l10 67h37q46 29 64 82t22 133l-93 3l6 43h89q2 89 9 150q10 87 62 134t139 47q27 0 57.5 -9.5t47.5 -18.5l17 -9l-18 -43q-51 32 -95 32q-56 0 -87.5 -31t-41.5 -101q-1 -4 -19 -151h224l-7 -47h-224q-24 -155 -81 -214h332l-10 -67h-440z" />
<glyph unicode="&#xa4;" horiz-adv-x="540" d="M64 90l116 107q-20 37 -20 88q0 88 50 148l-84 106l33 37l76 -119q46 38 104 38q55 0 91 -39l112 119l22 -37l-117 -106q23 -39 23 -89q0 -89 -52 -149l84 -105l-32 -37l-76 118q-46 -37 -103 -37q-58 0 -93 40l-111 -120zM203 289q0 -52 25.5 -82t68.5 -30q55 0 92.5 45 t37.5 117q0 52 -25.5 82t-69.5 30q-56 0 -92.5 -44.5t-36.5 -117.5z" />
<glyph unicode="&#xa5;" horiz-adv-x="563" d="M211 650h85l134 -320l223 320h61l-233 -330h121l-6 -40h-143l-5 -7l-12 -88h147l-6 -40h-147l-19 -145h-76l20 145h-137l6 40h136l12 84l-5 11h-130l6 40h107z" />
<glyph unicode="&#xa6;" horiz-adv-x="292" d="M86 -250l56 400h50l-56 -400h-50zM170 350l57 400h50l-57 -400h-50z" />
<glyph unicode="&#xa7;" horiz-adv-x="486" d="M77 -23l23 37q2 -5 11.5 -17t38.5 -27t65 -15q71 0 99 30t28 73q0 31 -24 52t-58.5 34t-69 28t-58.5 44t-24 72q0 100 84 141q-20 26 -20 64q0 69 51 117.5t144 48.5q33 0 65 -11.5t48 -23.5l15 -12l-14 -40q-51 43 -111 43q-65 0 -95.5 -33.5t-30.5 -74.5q0 -32 25 -54 t60 -35t70.5 -27.5t60.5 -43t25 -70.5q0 -99 -90 -144q19 -25 19 -61q0 -69 -48.5 -115t-147.5 -46q-30 0 -55.5 7t-40.5 16.5t-26 19t-15 16.5zM162 311q0 -42 34.5 -66.5t92 -45.5t82.5 -41q61 28 61 98q0 30 -24 52.5t-55 33.5t-72.5 28t-64.5 35q-54 -26 -54 -94z" />
<glyph unicode="&#xa8;" horiz-adv-x="375" d="M128 638q0 18 12.5 32t31.5 14q14 0 23 -9.5t9 -23.5q0 -17 -12.5 -31.5t-30.5 -14.5q-14 0 -23.5 9t-9.5 24zM282 638q0 17 12.5 31.5t30.5 14.5q14 0 23.5 -9t9.5 -24q0 -18 -13 -32t-31 -14q-14 0 -23 9.5t-9 23.5z" />
<glyph unicode="&#xa9;" horiz-adv-x="729" d="M113 272q0 179 93.5 285t249.5 106q118 0 183.5 -74.5t65.5 -201.5q0 -41 -5 -74q-22 -155 -111.5 -241t-227.5 -86q-118 0 -183 78t-65 208zM153 276q0 -117 56.5 -185.5t156.5 -68.5q118 0 196.5 75t98.5 215q5 40 5 69q0 114 -57 180t-158 66q-135 0 -216.5 -94.5 t-81.5 -256.5zM261 297q0 93 52 146.5t134 53.5q26 0 48 -9t31 -18l9 -9l-13 -31q-28 33 -74 33q-61 0 -97.5 -43t-36.5 -123q0 -53 30.5 -87.5t73.5 -34.5q17 0 32 5t24.5 12.5t16 15t9.5 12.5l2 5l15 -20q-1 -3 -3 -7t-11 -15.5t-20.5 -20t-33 -15.5t-47.5 -7 q-58 0 -99.5 44t-41.5 113z" />
<glyph unicode="&#xaa;" horiz-adv-x="389" d="M90 395q0 128 243 145l3 17q2 18 2 26q0 33 -17 48t-54 15q-28 0 -54 -10t-38 -20l-12 -11l-13 24q4 6 13.5 14.5t44 22.5t76.5 14q119 0 119 -99q0 -9 -2 -29l-33 -232h-51l-6 52q-6 -12 -16.5 -24t-38 -25t-62.5 -13q-104 0 -104 85zM154 404q0 -57 71 -57 q31 0 53.5 15.5t29.5 30.5l7 15l14 103q-36 -3 -63 -9t-54.5 -17.5t-42.5 -31.5t-15 -49z" />
<glyph unicode="&#xab;" horiz-adv-x="484" d="M118 250l179 171l19 -26l-129 -146l87 -148l-26 -27zM280 250l179 171l19 -26l-129 -146l87 -148l-26 -27z" />
<glyph unicode="&#xac;" horiz-adv-x="447" d="M95 295l6 46h339l-30 -213h-43l23 167h-295z" />
<glyph unicode="&#xad;" horiz-adv-x="310" d="M76 254l7 47h228l-6 -47h-229z" />
<glyph unicode="&#xae;" horiz-adv-x="617" d="M111 408q0 158 84 253.5t220 95.5q103 0 161 -68t58 -181q0 -27 -5 -65q-20 -138 -99 -215.5t-201 -77.5q-104 0 -161 71t-57 187zM150 410q0 -101 48.5 -162.5t135.5 -61.5q116 0 188 85.5t72 232.5q0 101 -48 160t-136 59q-120 0 -190 -86t-70 -227zM268 294l44 317h83 q102 0 102 -75q0 -87 -83 -109l47 -133h-44l-44 128h-48l-18 -128h-39zM328 447h44q35 0 58 20.5t23 67.5q0 49 -61 49h-45z" />
<glyph unicode="&#xaf;" horiz-adv-x="395" d="M194 636l5 36h185l-5 -36h-185z" />
<glyph unicode="&#xb0;" horiz-adv-x="409" d="M125 538q0 99 51.5 161.5t135.5 62.5q62 0 98 -42.5t36 -113.5q0 -97 -51.5 -159t-135.5 -62q-65 0 -99.5 41t-34.5 112zM184 533q0 -50 20.5 -78t59.5 -28q54 0 88.5 48.5t34.5 138.5q0 50 -21 78t-60 28q-55 0 -88.5 -47.5t-33.5 -139.5z" />
<glyph unicode="&#xb1;" horiz-adv-x="470" d="M56 151l7 47h401l-7 -47h-401zM137 502l7 47h147l25 174h45l-25 -174h147l-7 -47h-146l-24 -174h-45l24 174h-148z" />
<glyph unicode="&#xb2;" horiz-adv-x="377" d="M65 230l8 55q14 5 53.5 37.5t86 80.5t82 111.5t35.5 118.5q0 82 -80 82q-19 0 -43.5 -10.5t-38.5 -20.5l-15 -11l-5 38q62 47 123 47q66 0 98.5 -34t32.5 -90q0 -48 -26 -100t-69 -98t-81.5 -79.5t-79.5 -63.5h220l-9 -63h-292z" />
<glyph unicode="&#xb3;" horiz-adv-x="376" d="M79 258l21 36q25 -30 91 -30q58 0 94 39t36 107q0 36 -17.5 57.5t-50.5 21.5q-12 0 -23 -4t-16 -8l-5 -4l-20 27l161 187h-190l11 63h249l-6 -43l-159 -182q12 2 19 2q50 0 81 -34t31 -90q0 -82 -55.5 -132t-132.5 -50q-42 0 -71.5 9.5t-38.5 18.5z" />
<glyph unicode="&#xb4;" horiz-adv-x="207" d="M138 576l96 145l61 -15l-120 -135z" />
<glyph unicode="&#xb5;" horiz-adv-x="517" d="M39 -250l53 378q0 11 3 23l49 349h72l-46 -334q-3 -18 -3 -33q0 -90 89 -90q36 0 67.5 12.5t44.5 25.5l14 13l58 406h73l-71 -500h-60l-3 48q-58 -58 -153 -58q-51 0 -82 19q-26 -221 -31 -259h-74z" />
<glyph unicode="&#xb6;" horiz-adv-x="597" d="M107 412q0 118 66 178t209 60h259l-8 -55h-58l-83 -595h-61l83 595h-95l-83 -595h-60l34 244q-100 0 -151.5 40t-51.5 128z" />
<glyph unicode="&#xb7;" horiz-adv-x="243" d="M121 330q0 21 15.5 37t36.5 16q17 0 28.5 -10.5t11.5 -28.5q0 -24 -18 -41q-17 -12 -34 -12t-28.5 11t-11.5 28z" />
<glyph unicode="&#xb8;" horiz-adv-x="234" d="M-4 -209l20 20q18 -32 62 -32q77 0 77 75q0 23 -19 35t-38 15t-19 4l24 89h29l-17 -66l21 -5q21 -6 42.5 -23.5t21.5 -47.5q0 -47 -30.5 -76.5t-87.5 -29.5q-30 0 -51.5 10.5t-28.5 20.5z" />
<glyph unicode="&#xb9;" horiz-adv-x="376" d="M165 674l128 76h54l-73 -520h-66l64 460l-96 -58z" />
<glyph unicode="&#xba;" horiz-adv-x="419" d="M103 460q0 101 52 160.5t150 59.5q74 0 111.5 -39.5t37.5 -111.5q0 -100 -52.5 -159.5t-148.5 -59.5q-74 0 -112 39.5t-38 110.5zM170 451q0 -108 87 -108q63 0 96.5 49.5t33.5 146.5q0 106 -88 106q-62 0 -95.5 -49t-33.5 -145z" />
<glyph unicode="&#xbb;" horiz-adv-x="484" d="M75 100l129 144l-87 150l26 27l130 -177l-178 -170zM237 100l129 144l-87 150l26 27l130 -177l-178 -170z" />
<glyph unicode="&#xbc;" horiz-adv-x="727" d="M165 674l128 76h54l-73 -520h-66l64 460l-96 -58zM222 20l382 562l32 -21l-381 -561zM345 -84q73 123 157 362l62 -8q-67 -183 -168 -347h149l24 163l31 108h52l-39 -271h50l-5 -36l-51 -6l-18 -131h-68l18 131h-194v35z" />
<glyph unicode="&#xbd;" horiz-adv-x="786" d="M165 674l128 76h54l-73 -520h-66l64 460l-96 -58zM222 20l382 562l32 -21l-381 -561zM388 -250l8 55q14 5 53.5 37.5t86 80.5t82 111.5t35.5 118.5q0 82 -80 82q-19 0 -43.5 -10.5t-39.5 -20.5l-14 -11l-5 38q63 47 124 47q66 0 98 -34t32 -90q0 -48 -26 -100t-69.5 -98 t-81 -79t-79.5 -64h220l-9 -63h-292z" />
<glyph unicode="&#xbe;" horiz-adv-x="775" d="M80 258l21 36q25 -30 91 -30q58 0 94 39t36 107q0 36 -17.5 57.5t-50.5 21.5q-12 0 -23 -4t-16 -8l-5 -4l-20 27l161 187h-190l11 63h249l-6 -43l-159 -182q12 2 19 2q50 0 81 -34t31 -90q0 -82 -55.5 -132t-132.5 -50q-42 0 -71.5 9.5t-38.5 18.5zM269 20l382 562 l32 -21l-381 -561zM393 -84q73 123 157 362l62 -8q-67 -183 -168 -347h149l24 163l31 108h52l-39 -271h50l-5 -36l-51 -6l-18 -131h-68l18 131h-194v35z" />
<glyph unicode="&#xbf;" horiz-adv-x="411" d="M27 -107q0 47 13 82t34.5 55.5t48 37.5t53.5 34t50.5 38.5t41 58.5t22.5 86l35 3q-5 -57 -20.5 -98t-35 -63.5t-42.5 -39.5t-44.5 -31.5t-39 -33t-28.5 -51.5t-11 -80t29.5 -76t88.5 -29q25 0 45.5 9t28.5 19l8 9l20 -30q-1 -2 -3.5 -5.5t-12.5 -13t-22 -16.5 t-32.5 -12.5t-44.5 -5.5q-87 0 -134.5 41t-47.5 112zM283 455q0 21 15.5 37t36.5 16q17 0 28.5 -10.5t11.5 -28.5q0 -25 -18 -41q-17 -12 -34 -12t-28.5 11t-11.5 28z" />
<glyph unicode="&#xc0;" horiz-adv-x="568" d="M23 0l310 650h89l124 -650h-79l-40 200h-255l-96 -200h-53zM191 241h228l-63 351zM285 843l64 16l63 -143l-42 -8z" />
<glyph unicode="&#xc1;" horiz-adv-x="568" d="M23 0l310 650h89l124 -650h-79l-40 200h-255l-96 -200h-53zM191 241h228l-63 351zM346 711l96 145l61 -15l-120 -135z" />
<glyph unicode="&#xc2;" horiz-adv-x="568" d="M23 0l310 650h89l124 -650h-79l-40 200h-255l-96 -200h-53zM191 241h228l-63 351zM252 764l125 114h40l92 -114l-23 -32l-96 97l-123 -97z" />
<glyph unicode="&#xc3;" horiz-adv-x="568" d="M23 0l310 650h89l124 -650h-79l-40 200h-255l-96 -200h-53zM191 241h228l-63 351zM226 762q2 3 5 7t13.5 15t21.5 19t29 15t36 7q33 0 77.5 -23t68.5 -23q16 0 29.5 6.5t19.5 13.5l6 7l19 -25q-1 -2 -3.5 -5.5t-11 -12.5t-18.5 -15.5t-26 -12t-33 -5.5q-30 0 -76 23 t-72 23q-17 0 -33.5 -10t-23.5 -20l-8 -9z" />
<glyph unicode="&#xc4;" horiz-adv-x="568" d="M23 0l310 650h89l124 -650h-79l-40 200h-255l-96 -200h-53zM191 241h228l-63 351zM271 773q0 18 12.5 32t30.5 14q15 0 24 -9t9 -24q0 -17 -12.5 -31.5t-30.5 -14.5q-14 0 -23.5 9t-9.5 24zM425 773q0 17 12.5 31.5t30.5 14.5q14 0 23.5 -9t9.5 -24q0 -18 -13 -32 t-31 -14q-14 0 -23 9.5t-9 23.5z" />
<glyph unicode="&#xc5;" horiz-adv-x="568" d="M23 0l310 650h89l124 -650h-79l-40 200h-255l-96 -200h-53zM191 241h228l-63 351zM293 764q0 51 29.5 80t73.5 29q34 0 55.5 -21t21.5 -59q0 -50 -29 -78.5t-73 -28.5q-36 0 -57 20t-21 58zM322 767q0 -27 14.5 -41t38.5 -14q31 0 50.5 20t19.5 59q0 27 -14.5 41 t-37.5 14q-31 0 -51 -20t-20 -59z" />
<glyph unicode="&#xc6;" horiz-adv-x="789" d="M-12 0l462 650h373l-6 -48h-276l-35 -250h252l-7 -46h-251l-36 -258h296l-7 -48h-372l28 205h-220l-144 -205h-57zM218 246h197l50 356h-4z" />
<glyph unicode="&#xc7;" horiz-adv-x="570" d="M87 258q0 177 93.5 289t239.5 112q46 0 91.5 -14.5t68.5 -28.5l22 -14l-14 -47q-9 6 -24.5 15t-59.5 24t-83 15q-110 0 -182 -92.5t-72 -260.5q0 -104 51.5 -160t138.5 -56q34 0 65 10t52 24t37 28.5t23 24.5l8 10l23 -32q-3 -5 -8.5 -12.5t-26 -27.5t-44 -35t-63 -27.5 t-82.5 -12.5h-5l-15 -59l21 -5q21 -6 42.5 -23.5t21.5 -47.5q0 -47 -30.5 -76.5t-87.5 -29.5q-30 0 -51.5 10.5t-28.5 20.5l-6 11l20 20q18 -32 62 -32q77 0 77 75q0 23 -19 35t-38 15t-19 4l22 84q-103 10 -161.5 80t-58.5 186z" />
<glyph unicode="&#xc8;" horiz-adv-x="507" d="M94 0l91 650h350l-6 -48h-275l-35 -250h252l-7 -46h-251l-36 -258h296l-7 -48h-372zM278 843l64 16l63 -143l-42 -8z" />
<glyph unicode="&#xc9;" horiz-adv-x="507" d="M94 0l91 650h350l-6 -48h-275l-35 -250h252l-7 -46h-251l-36 -258h296l-7 -48h-372zM339 711l96 145l61 -15l-120 -135z" />
<glyph unicode="&#xca;" horiz-adv-x="507" d="M94 0l91 650h350l-6 -48h-275l-35 -250h252l-7 -46h-251l-36 -258h296l-7 -48h-372zM248 764l125 114h40l92 -114l-23 -32l-96 97l-123 -97z" />
<glyph unicode="&#xcb;" horiz-adv-x="507" d="M94 0l91 650h350l-6 -48h-275l-35 -250h252l-7 -46h-251l-36 -258h296l-7 -48h-372zM253 773q0 18 12.5 32t30.5 14q15 0 24 -9t9 -24q0 -17 -12.5 -31.5t-30.5 -14.5q-14 0 -23.5 9t-9.5 24zM407 773q0 17 12.5 31.5t30.5 14.5q14 0 23.5 -9t9.5 -24q0 -18 -13 -32 t-31 -14q-14 0 -23 9.5t-9 23.5z" />
<glyph unicode="&#xcc;" horiz-adv-x="265" d="M94 0l91 650h76l-91 -650h-76zM128 843l64 16l63 -143l-42 -8z" />
<glyph unicode="&#xcd;" horiz-adv-x="265" d="M94 0l91 650h76l-91 -650h-76zM190 711l96 145l61 -15l-120 -135z" />
<glyph unicode="&#xce;" horiz-adv-x="265" d="M94 0l91 650h76l-91 -650h-76zM99 764l125 114h40l92 -114l-23 -32l-96 97l-123 -97z" />
<glyph unicode="&#xcf;" horiz-adv-x="265" d="M94 0l91 650h76l-91 -650h-76zM115 773q0 18 12.5 32t30.5 14q15 0 24 -9t9 -24q0 -17 -12.5 -31.5t-30.5 -14.5q-14 0 -23.5 9t-9.5 24zM269 773q0 17 12.5 31.5t30.5 14.5q14 0 23.5 -9t9.5 -24q0 -18 -13 -32t-31 -14q-14 0 -23 9.5t-9 23.5z" />
<glyph unicode="&#xd0;" horiz-adv-x="638" d="M67 302l7 42h68l43 306h198q122 0 188 -68t66 -197q0 -182 -91 -283.5t-254 -101.5h-198l42 302h-69zM176 48h124q119 0 188 86.5t69 258.5q0 103 -46 156t-134 53h-123l-36 -258h189l-6 -42h-189z" />
<glyph unicode="&#xd1;" horiz-adv-x="651" d="M94 0l91 650h79l257 -536v24l72 512h55l-91 -650h-66l-268 554h-1l1 -31l-74 -523h-55zM270 762q2 3 5 7t13.5 15t21.5 19t29 15t36 7q33 0 77.5 -23t68.5 -23q16 0 29.5 6.5t19.5 13.5l6 7l19 -25q-1 -2 -3.5 -5.5t-11 -12.5t-18.5 -15.5t-26 -12t-33 -5.5q-30 0 -76 23 t-72 23q-17 0 -33.5 -10t-23.5 -20l-8 -9z" />
<glyph unicode="&#xd2;" horiz-adv-x="654" d="M88 260q0 179 88 289t238 110q122 0 182.5 -74t60.5 -190q0 -184 -95 -294.5t-232 -110.5q-114 0 -178 72t-64 198zM167 249q0 -99 44 -155t123 -56q103 0 173 94t70 271q0 92 -41.5 150t-125.5 58q-111 0 -177 -94.5t-66 -267.5zM323 843l64 16l63 -143l-42 -8z" />
<glyph unicode="&#xd3;" horiz-adv-x="654" d="M88 260q0 179 88 289t238 110q122 0 182.5 -74t60.5 -190q0 -184 -95 -294.5t-232 -110.5q-114 0 -178 72t-64 198zM167 249q0 -99 44 -155t123 -56q103 0 173 94t70 271q0 92 -41.5 150t-125.5 58q-111 0 -177 -94.5t-66 -267.5zM384 711l96 145l61 -15l-120 -135z" />
<glyph unicode="&#xd4;" horiz-adv-x="654" d="M88 260q0 179 88 289t238 110q122 0 182.5 -74t60.5 -190q0 -184 -95 -294.5t-232 -110.5q-114 0 -178 72t-64 198zM167 249q0 -99 44 -155t123 -56q103 0 173 94t70 271q0 92 -41.5 150t-125.5 58q-111 0 -177 -94.5t-66 -267.5zM294 764l125 114h40l92 -114l-23 -32 l-96 97l-123 -97z" />
<glyph unicode="&#xd5;" horiz-adv-x="654" d="M88 260q0 179 88 289t238 110q122 0 182.5 -74t60.5 -190q0 -184 -95 -294.5t-232 -110.5q-114 0 -178 72t-64 198zM167 249q0 -99 44 -155t123 -56q103 0 173 94t70 271q0 92 -41.5 150t-125.5 58q-111 0 -177 -94.5t-66 -267.5zM265 762q2 3 5 7t13.5 15t21.5 19t29 15 t36 7q33 0 77.5 -23t68.5 -23q16 0 30 6.5t20 13.5l5 7l19 -25q-1 -2 -3.5 -5.5t-11 -12.5t-18.5 -15.5t-26 -12t-33 -5.5q-30 0 -76 23t-72 23q-17 0 -33.5 -10t-24.5 -20l-7 -9z" />
<glyph unicode="&#xd6;" horiz-adv-x="654" d="M88 260q0 179 88 289t238 110q122 0 182.5 -74t60.5 -190q0 -184 -95 -294.5t-232 -110.5q-114 0 -178 72t-64 198zM167 249q0 -99 44 -155t123 -56q103 0 173 94t70 271q0 92 -41.5 150t-125.5 58q-111 0 -177 -94.5t-66 -267.5zM310 773q0 18 12.5 32t31.5 14 q14 0 23 -9.5t9 -23.5q0 -17 -12.5 -31.5t-30.5 -14.5q-14 0 -23.5 9t-9.5 24zM464 773q0 17 12.5 31.5t30.5 14.5q14 0 23.5 -9t9.5 -24q0 -18 -13 -32t-31 -14q-14 0 -23 9.5t-9 23.5z" />
<glyph unicode="&#xd7;" horiz-adv-x="353" d="M68 198l122 122l-87 122l36 38l88 -123l123 123l25 -38l-122 -122l87 -122l-35 -37l-88 122l-122 -122z" />
<glyph unicode="&#xd8;" horiz-adv-x="654" d="M88 260q0 179 88 289t238 110q69 0 123 -27l52 96l26 -6l-56 -103q98 -68 98 -224q0 -184 -95 -294.5t-232 -110.5q-58 0 -101 18l-59 -109l-26 6l61 114q-117 64 -117 241zM167 249q0 -124 66 -178l276 509q-41 31 -99 31q-111 0 -177 -94.5t-66 -267.5zM255 56 q33 -18 79 -18q103 0 173 94t70 271q0 103 -49 159z" />
<glyph unicode="&#xd9;" horiz-adv-x="620" d="M112 169q0 21 3 43l62 438h75l-59 -421q-3 -24 -3 -45q0 -70 34 -106.5t100 -36.5q79 0 127 49.5t60 138.5l59 421h55l-62 -438q-14 -102 -78 -162t-177 -60q-97 0 -146.5 47.5t-49.5 131.5zM323 843l64 16l63 -143l-42 -8z" />
<glyph unicode="&#xda;" horiz-adv-x="620" d="M112 169q0 21 3 43l62 438h75l-59 -421q-3 -24 -3 -45q0 -70 34 -106.5t100 -36.5q79 0 127 49.5t60 138.5l59 421h55l-62 -438q-14 -102 -78 -162t-177 -60q-97 0 -146.5 47.5t-49.5 131.5zM365 711l96 145l61 -15l-120 -135z" />
<glyph unicode="&#xdb;" horiz-adv-x="620" d="M112 169q0 21 3 43l62 438h75l-59 -421q-3 -24 -3 -45q0 -70 34 -106.5t100 -36.5q79 0 127 49.5t60 138.5l59 421h55l-62 -438q-14 -102 -78 -162t-177 -60q-97 0 -146.5 47.5t-49.5 131.5zM287 764l125 114h40l92 -114l-23 -32l-96 97l-123 -97z" />
<glyph unicode="&#xdc;" horiz-adv-x="620" d="M112 169q0 21 3 43l62 438h75l-59 -421q-3 -24 -3 -45q0 -70 34 -106.5t100 -36.5q79 0 127 49.5t60 138.5l59 421h55l-62 -438q-14 -102 -78 -162t-177 -60q-97 0 -146.5 47.5t-49.5 131.5zM305 773q0 18 12.5 32t30.5 14q15 0 24 -9t9 -24q0 -17 -12.5 -31.5 t-30.5 -14.5q-14 0 -23.5 9t-9.5 24zM459 773q0 17 12.5 31.5t30.5 14.5q14 0 23.5 -9t9.5 -24q0 -18 -13 -32t-31 -14q-14 0 -23 9.5t-9 23.5z" />
<glyph unicode="&#xdd;" horiz-adv-x="507" d="M93 650h85l134 -320l223 320h61l-266 -377l-37 -273h-76l37 269zM328 711l96 145l61 -15l-120 -135z" />
<glyph unicode="&#xde;" horiz-adv-x="514" d="M106 0l91 650h75l-15 -109h84q88 0 136 -43t48 -128q0 -69 -22 -121.5t-58.5 -82t-77.5 -43.5t-86 -14h-85l-15 -109h-75zM203 154h78q73 0 120.5 50.5t47.5 164.5q0 126 -119 126h-80z" />
<glyph unicode="&#xdf;" horiz-adv-x="547" d="M-84 -238l21 41q16 -16 47 -16q39 0 64 40t38 132l82 588q15 106 70 159t142 53q70 0 109 -32t39 -88q0 -111 -119 -154q140 -33 140 -195q0 -147 -61.5 -223.5t-171.5 -76.5q-37 0 -63.5 6.5t-34.5 13.5l-8 6l17 42q18 -22 77 -22q78 0 123.5 66t45.5 194 q0 82 -38.5 119t-122.5 37l2 8l4 40q6 0 15 2t32.5 10.5t41.5 21.5t33 39.5t15 60.5q0 38 -22 59t-63 21q-106 0 -129 -167l-82 -588q-31 -219 -172 -219q-24 0 -41.5 5.5t-23.5 10.5z" />
<glyph unicode="&#xe0;" d="M66 191q0 137 67.5 228t185.5 91q24 0 45 -5t33 -11.5t21.5 -15.5t12.5 -13.5l5 -7.5l17 43h58l-70 -500h-58l-4 58q-6 -9 -14.5 -17.5t-25.5 -21.5t-44 -21t-59 -8q-78 0 -124 53t-46 148zM142 186q0 -73 31 -110t87 -37q77 0 122 67l44 303q-1 2 -3.5 6.5t-10.5 13 t-18 15.5t-28 12.5t-38 5.5q-91 0 -138.5 -74.5t-47.5 -201.5zM260 708l64 16l63 -143l-42 -8z" />
<glyph unicode="&#xe1;" d="M66 191q0 137 67.5 228t185.5 91q24 0 45 -5t33 -11.5t21.5 -15.5t12.5 -13.5l5 -7.5l17 43h58l-70 -500h-58l-4 58q-6 -9 -14.5 -17.5t-25.5 -21.5t-44 -21t-59 -8q-78 0 -124 53t-46 148zM142 186q0 -73 31 -110t87 -37q77 0 122 67l44 303q-1 2 -3.5 6.5t-10.5 13 t-18 15.5t-28 12.5t-38 5.5q-91 0 -138.5 -74.5t-47.5 -201.5zM322 576l96 145l61 -15l-120 -135z" />
<glyph unicode="&#xe2;" d="M66 191q0 137 67.5 228t185.5 91q24 0 45 -5t33 -11.5t21.5 -15.5t12.5 -13.5l5 -7.5l17 43h58l-70 -500h-58l-4 58q-6 -9 -14.5 -17.5t-25.5 -21.5t-44 -21t-59 -8q-78 0 -124 53t-46 148zM142 186q0 -73 31 -110t87 -37q77 0 122 67l44 303q-1 2 -3.5 6.5t-10.5 13 t-18 15.5t-28 12.5t-38 5.5q-91 0 -138.5 -74.5t-47.5 -201.5zM232 629l125 114h40l92 -114l-23 -32l-96 97l-123 -97z" />
<glyph unicode="&#xe3;" d="M66 191q0 137 67.5 228t185.5 91q24 0 45 -5t33 -11.5t21.5 -15.5t12.5 -13.5l5 -7.5l17 43h58l-70 -500h-58l-4 58q-6 -9 -14.5 -17.5t-25.5 -21.5t-44 -21t-59 -8q-78 0 -124 53t-46 148zM142 186q0 -73 31 -110t87 -37q77 0 122 67l44 303q-1 2 -3.5 6.5t-10.5 13 t-18 15.5t-28 12.5t-38 5.5q-91 0 -138.5 -74.5t-47.5 -201.5zM203 627q2 3 5 7t13.5 15t21.5 19t29 15t36 7q33 0 77.5 -23t68.5 -23q16 0 30 7t20 13l5 7l19 -25q-1 -2 -3.5 -5.5t-11 -12.5t-18.5 -15.5t-26 -12t-33 -5.5q-30 0 -76 23t-72 23q-17 0 -33.5 -9.5 t-24.5 -19.5l-7 -10z" />
<glyph unicode="&#xe4;" d="M66 191q0 137 67.5 228t185.5 91q24 0 45 -5t33 -11.5t21.5 -15.5t12.5 -13.5l5 -7.5l17 43h58l-70 -500h-58l-4 58q-6 -9 -14.5 -17.5t-25.5 -21.5t-44 -21t-59 -8q-78 0 -124 53t-46 148zM142 186q0 -73 31 -110t87 -37q77 0 122 67l44 303q-1 2 -3.5 6.5t-10.5 13 t-18 15.5t-28 12.5t-38 5.5q-91 0 -138.5 -74.5t-47.5 -201.5zM248 638q0 18 12.5 32t31.5 14q14 0 23 -9.5t9 -23.5q0 -17 -12.5 -31.5t-30.5 -14.5q-14 0 -23.5 9t-9.5 24zM402 638q0 17 12.5 31.5t30.5 14.5q14 0 23.5 -9t9.5 -24q0 -18 -13 -32t-31 -14q-14 0 -23 9.5 t-9 23.5z" />
<glyph unicode="&#xe5;" d="M66 191q0 137 67.5 228t185.5 91q24 0 45 -5t33 -11.5t21.5 -15.5t12.5 -13.5l5 -7.5l17 43h58l-70 -500h-58l-4 58q-6 -9 -14.5 -17.5t-25.5 -21.5t-44 -21t-59 -8q-78 0 -124 53t-46 148zM142 186q0 -73 31 -110t87 -37q77 0 122 67l44 303q-1 2 -3.5 6.5t-10.5 13 t-18 15.5t-28 12.5t-38 5.5q-91 0 -138.5 -74.5t-47.5 -201.5zM273 629q0 51 29.5 80t73.5 29q34 0 55.5 -21t21.5 -59q0 -50 -29 -78.5t-73 -28.5q-36 0 -57 20t-21 58zM302 632q0 -27 14.5 -41t38.5 -14q31 0 50.5 20t19.5 59q0 27 -14.5 41t-37.5 14q-31 0 -51 -20 t-20 -59z" />
<glyph unicode="&#xe6;" horiz-adv-x="742" d="M66 191q0 138 69.5 228.5t194.5 90.5q89 0 123 -57q63 57 152 57q70 0 110.5 -38t40.5 -94q0 -34 -12.5 -60t-36.5 -42t-50 -26.5t-60.5 -15.5t-61 -6.5t-59.5 -1.5h-45q-1 -14 -1 -43q0 -75 36.5 -112t97.5 -37q25 0 47.5 6t37 14.5t25.5 17.5t16 15l5 6l26 -24 q-2 -3 -6 -8.5t-19 -19t-33 -24t-48 -19t-64 -8.5q-109 0 -162 75q-3 -5 -7 -10.5t-16.5 -18.5t-27.5 -22t-40 -16.5t-54 -7.5q-84 0 -131 52.5t-47 148.5zM142 186q0 -73 31.5 -110t88.5 -37q69 0 112 54q-19 39 -19 99q0 140 66 226q-30 44 -93 44q-91 0 -138.5 -74.5 t-47.5 -201.5zM435 264h43q32 0 57.5 2t56.5 9t51 19t34 34.5t14 53.5q0 37 -25 61t-70 24q-64 0 -106 -53.5t-55 -149.5z" />
<glyph unicode="&#xe7;" horiz-adv-x="423" d="M67 194q0 146 66 231t192 85q36 0 70 -12t50 -24l16 -11l-13 -41q-51 44 -117 44q-187 0 -187 -281q0 -77 35.5 -114t94.5 -37q39 0 69.5 14.5t42.5 29.5l11 14l29 -21q-2 -3 -5.5 -8.5t-17.5 -19.5t-31 -24.5t-46.5 -19.5t-63.5 -9h-3l-15 -59l21 -5q21 -6 42.5 -23.5 t21.5 -47.5q0 -47 -30.5 -76.5t-87.5 -29.5q-30 0 -51.5 10.5t-27.5 20.5l-7 11l20 20q18 -32 62 -32q77 0 77 75q0 23 -19 35t-38 15t-19 4l22 84q-77 8 -120 60t-43 142z" />
<glyph unicode="&#xe8;" horiz-adv-x="453" d="M66 192q0 143 69 230.5t181 87.5q70 0 110.5 -38t40.5 -94q0 -34 -12.5 -60t-36.5 -42t-50 -26.5t-60.5 -15.5t-61 -6.5t-59.5 -1.5h-45q-1 -14 -1 -43q0 -75 36.5 -112t97.5 -37q25 0 47.5 6t37 14.5t25.5 17.5t16 15l5 6l26 -24q-2 -3 -6 -8.5t-19 -19t-33 -24t-48 -19 t-64 -8.5q-88 0 -142 52t-54 150zM146 264h43q32 0 57.5 2t56.5 9t51 19t34 34.5t14 53.5q0 37 -25 61t-70 24q-64 0 -106 -53.5t-55 -149.5zM230 708l64 16l63 -143l-42 -8z" />
<glyph unicode="&#xe9;" horiz-adv-x="453" d="M66 192q0 143 69 230.5t181 87.5q70 0 110.5 -38t40.5 -94q0 -34 -12.5 -60t-36.5 -42t-50 -26.5t-60.5 -15.5t-61 -6.5t-59.5 -1.5h-45q-1 -14 -1 -43q0 -75 36.5 -112t97.5 -37q25 0 47.5 6t37 14.5t25.5 17.5t16 15l5 6l26 -24q-2 -3 -6 -8.5t-19 -19t-33 -24t-48 -19 t-64 -8.5q-88 0 -142 52t-54 150zM146 264h43q32 0 57.5 2t56.5 9t51 19t34 34.5t14 53.5q0 37 -25 61t-70 24q-64 0 -106 -53.5t-55 -149.5zM292 576l96 145l61 -15l-120 -135z" />
<glyph unicode="&#xea;" horiz-adv-x="453" d="M66 192q0 143 69 230.5t181 87.5q70 0 110.5 -38t40.5 -94q0 -34 -12.5 -60t-36.5 -42t-50 -26.5t-60.5 -15.5t-61 -6.5t-59.5 -1.5h-45q-1 -14 -1 -43q0 -75 36.5 -112t97.5 -37q25 0 47.5 6t37 14.5t25.5 17.5t16 15l5 6l26 -24q-2 -3 -6 -8.5t-19 -19t-33 -24t-48 -19 t-64 -8.5q-88 0 -142 52t-54 150zM146 264h43q32 0 57.5 2t56.5 9t51 19t34 34.5t14 53.5q0 37 -25 61t-70 24q-64 0 -106 -53.5t-55 -149.5zM202 629l125 114h40l92 -114l-23 -32l-96 97l-123 -97z" />
<glyph unicode="&#xeb;" horiz-adv-x="453" d="M66 192q0 143 69 230.5t181 87.5q70 0 110.5 -38t40.5 -94q0 -34 -12.5 -60t-36.5 -42t-50 -26.5t-60.5 -15.5t-61 -6.5t-59.5 -1.5h-45q-1 -14 -1 -43q0 -75 36.5 -112t97.5 -37q25 0 47.5 6t37 14.5t25.5 17.5t16 15l5 6l26 -24q-2 -3 -6 -8.5t-19 -19t-33 -24t-48 -19 t-64 -8.5q-88 0 -142 52t-54 150zM146 264h43q32 0 57.5 2t56.5 9t51 19t34 34.5t14 53.5q0 37 -25 61t-70 24q-64 0 -106 -53.5t-55 -149.5zM217 638q0 18 12.5 32t30.5 14q15 0 24 -9t9 -24q0 -17 -12.5 -31.5t-30.5 -14.5q-14 0 -23.5 9t-9.5 24zM371 638q0 17 12.5 31.5 t30.5 14.5q14 0 23.5 -9t9.5 -24q0 -18 -13 -32t-31 -14q-14 0 -23 9.5t-9 23.5z" />
<glyph unicode="&#xec;" horiz-adv-x="221" d="M74 0l70 500h72l-70 -500h-72zM96 708l64 16l63 -143l-42 -8z" />
<glyph unicode="&#xed;" horiz-adv-x="221" d="M74 0l70 500h72l-70 -500h-72zM158 576l96 145l61 -15l-120 -135z" />
<glyph unicode="&#xee;" horiz-adv-x="221" d="M70 629l125 114h40l92 -114l-23 -32l-96 97l-123 -97zM74 0l70 500h72l-70 -500h-72z" />
<glyph unicode="&#xef;" horiz-adv-x="221" d="M74 0l70 500h72l-70 -500h-72zM85 638q0 18 12.5 32t30.5 14q15 0 24 -9t9 -24q0 -17 -12.5 -31.5t-30.5 -14.5q-14 0 -23.5 9t-9.5 24zM239 638q0 17 12.5 31.5t30.5 14.5q14 0 23.5 -9t9.5 -24q0 -18 -13 -32t-31 -14q-14 0 -23 9.5t-9 23.5z" />
<glyph unicode="&#xf0;" horiz-adv-x="508" d="M68 194q0 150 66.5 233t180.5 83q69 0 115 -46q-16 113 -83 188l-122 -64l-9 26l111 59q-25 24 -54 45l41 22q34 -21 60 -43l86 46l9 -26l-74 -39q109 -112 109 -337q0 -32 -1 -49q-8 -141 -74 -221.5t-180 -80.5q-90 0 -135.5 55.5t-45.5 148.5zM143 183 q0 -150 113 -150q83 0 127.5 72t44.5 207q0 71 -29 113t-85 42q-83 0 -127 -73.5t-44 -210.5z" />
<glyph unicode="&#xf1;" horiz-adv-x="511" d="M74 0l70 500h60l4 -46q56 56 153 56q64 0 98.5 -31t34.5 -93q0 -18 -3 -37l-48 -349h-73q50 354 50 370q0 87 -91 87q-75 0 -125 -50l-57 -407h-73zM173 627q2 3 5 7t13.5 15t21.5 19t29 15t36 7q33 0 77.5 -23t68.5 -23q16 0 30 7t20 13l5 7l19 -25q-1 -2 -3.5 -5.5 t-11 -12.5t-18.5 -15.5t-26 -12t-33 -5.5q-30 0 -76 23t-72 23q-17 0 -33.5 -9.5t-24.5 -19.5l-7 -10z" />
<glyph unicode="&#xf2;" horiz-adv-x="501" d="M67 196q0 143 66.5 228.5t188.5 85.5q87 0 134 -54t47 -152q0 -142 -68 -228t-187 -86q-87 0 -134 54t-47 152zM142 182q0 -70 28.5 -109t86.5 -39q83 0 127 73.5t44 209.5q0 71 -28.5 110t-85.5 39q-84 0 -128 -74t-44 -210zM232 708l64 16l63 -143l-42 -8z" />
<glyph unicode="&#xf3;" horiz-adv-x="501" d="M67 196q0 143 66.5 228.5t188.5 85.5q87 0 134 -54t47 -152q0 -142 -68 -228t-187 -86q-87 0 -134 54t-47 152zM142 182q0 -70 28.5 -109t86.5 -39q83 0 127 73.5t44 209.5q0 71 -28.5 110t-85.5 39q-84 0 -128 -74t-44 -210zM294 576l96 145l61 -15l-120 -135z" />
<glyph unicode="&#xf4;" horiz-adv-x="501" d="M67 196q0 143 66.5 228.5t188.5 85.5q87 0 134 -54t47 -152q0 -142 -68 -228t-187 -86q-87 0 -134 54t-47 152zM142 182q0 -70 28.5 -109t86.5 -39q83 0 127 73.5t44 209.5q0 71 -28.5 110t-85.5 39q-84 0 -128 -74t-44 -210zM204 629l125 114h40l92 -114l-23 -32l-96 97 l-123 -97z" />
<glyph unicode="&#xf5;" horiz-adv-x="501" d="M67 196q0 143 66.5 228.5t188.5 85.5q87 0 134 -54t47 -152q0 -142 -68 -228t-187 -86q-87 0 -134 54t-47 152zM142 182q0 -70 28.5 -109t86.5 -39q83 0 127 73.5t44 209.5q0 71 -28.5 110t-85.5 39q-84 0 -128 -74t-44 -210zM175 627q2 3 5 7t13.5 15t21.5 19t29 15 t36 7q33 0 77.5 -23t68.5 -23q16 0 30 7t20 13l5 7l19 -25q-1 -2 -3.5 -5.5t-11 -12.5t-18.5 -15.5t-26 -12t-33 -5.5q-30 0 -76 23t-72 23q-17 0 -33.5 -9.5t-24.5 -19.5l-7 -10z" />
<glyph unicode="&#xf6;" horiz-adv-x="501" d="M67 196q0 143 66.5 228.5t188.5 85.5q87 0 134 -54t47 -152q0 -142 -68 -228t-187 -86q-87 0 -134 54t-47 152zM142 182q0 -70 28.5 -109t86.5 -39q83 0 127 73.5t44 209.5q0 71 -28.5 110t-85.5 39q-84 0 -128 -74t-44 -210zM219 638q0 18 12.5 32t30.5 14q15 0 24 -9 t9 -24q0 -17 -12.5 -31.5t-30.5 -14.5q-14 0 -23.5 9t-9.5 24zM373 638q0 17 12.5 31.5t30.5 14.5q14 0 23.5 -9t9.5 -24q0 -18 -13 -32t-31 -14q-14 0 -23 9.5t-9 23.5z" />
<glyph unicode="&#xf7;" horiz-adv-x="469" d="M67 230l7 47h401l-7 -47h-401zM196 59q0 21 15.5 37t36.5 16q17 0 28.5 -10.5t11.5 -28.5q0 -25 -18 -41q-16 -12 -34 -12q-17 0 -28.5 11t-11.5 28zM251 434q0 21 15.5 37t36.5 16q17 0 28.5 -10.5t11.5 -28.5q0 -24 -18 -41q-17 -12 -34 -12t-28.5 11t-11.5 28z" />
<glyph unicode="&#xf8;" horiz-adv-x="510" d="M51 -173l98 187q-82 49 -82 182q0 143 66.5 228.5t188.5 85.5q46 0 80 -15l82 155l37 -6l-88 -167q70 -52 70 -173q0 -142 -68 -228t-187 -86q-35 0 -68 10l-94 -179zM142 182q0 -79 34 -116l201 382q-28 18 -63 18q-84 0 -128 -74t-44 -210zM204 45q24 -11 53 -11 q83 0 127 73.5t44 209.5q0 67 -25 104z" />
<glyph unicode="&#xf9;" horiz-adv-x="510" d="M86 116q0 17 3 35l49 349h72l-46 -334q-3 -18 -3 -33q0 -90 89 -90q36 0 67.5 12.5t44.5 25.5l14 13l58 406h73l-71 -500h-60l-3 48q-58 -58 -153 -58q-64 0 -99 32t-35 94zM240 708l64 16l63 -143l-42 -8z" />
<glyph unicode="&#xfa;" horiz-adv-x="510" d="M86 116q0 17 3 35l49 349h72l-46 -334q-3 -18 -3 -33q0 -90 89 -90q36 0 67.5 12.5t44.5 25.5l14 13l58 406h73l-71 -500h-60l-3 48q-58 -58 -153 -58q-64 0 -99 32t-35 94zM302 576l96 145l61 -15l-120 -135z" />
<glyph unicode="&#xfb;" horiz-adv-x="510" d="M86 116q0 17 3 35l49 349h72l-46 -334q-3 -18 -3 -33q0 -90 89 -90q36 0 67.5 12.5t44.5 25.5l14 13l58 406h73l-71 -500h-60l-3 48q-58 -58 -153 -58q-64 0 -99 32t-35 94zM212 629l125 114h40l92 -114l-23 -32l-96 97l-123 -97z" />
<glyph unicode="&#xfc;" horiz-adv-x="510" d="M86 116q0 17 3 35l49 349h72l-46 -334q-3 -18 -3 -33q0 -90 89 -90q36 0 67.5 12.5t44.5 25.5l14 13l58 406h73l-71 -500h-60l-3 48q-58 -58 -153 -58q-64 0 -99 32t-35 94zM227 638q0 18 12.5 32t30.5 14q15 0 24 -9t9 -24q0 -17 -12.5 -31.5t-30.5 -14.5q-14 0 -23.5 9 t-9.5 24zM381 638q0 17 12.5 31.5t30.5 14.5q14 0 23.5 -9t9.5 -24q0 -18 -13 -32t-31 -14q-14 0 -23 9.5t-9 23.5z" />
<glyph unicode="&#xfd;" horiz-adv-x="452" d="M-17 -247l14 46q17 -9 39 -9q24 0 46 14t44.5 45.5t40 61.5t43.5 82l-124 507h86l89 -417l194 417h52l-244 -507q-58 -121 -110 -187t-112 -66q-18 0 -32.5 3t-20.5 7zM287 576l96 145l61 -15l-120 -135z" />
<glyph unicode="&#xfe;" horiz-adv-x="514" d="M37 -252l141 1000l73 4l-44 -311h2l5 7.5t15.5 16.5t27.5 21t40 16.5t54 7.5q77 0 122.5 -53t45.5 -147q0 -138 -66.5 -229t-183.5 -91q-79 0 -119 43l-40 -283zM157 82q29 -44 100 -44q91 0 138.5 74t47.5 206q0 70 -31 106.5t-88 36.5q-37 0 -67.5 -17.5t-42.5 -35.5 l-13 -18h-1z" />
<glyph unicode="&#xff;" horiz-adv-x="452" d="M-17 -247l14 46q17 -9 39 -9q24 0 46 14t44.5 45.5t40 61.5t43.5 82l-124 507h86l89 -417l194 417h52l-244 -507q-58 -121 -110 -187t-112 -66q-18 0 -32.5 3t-20.5 7zM212 638q0 18 12.5 32t31.5 14q14 0 23 -9.5t9 -23.5q0 -17 -12.5 -31.5t-30.5 -14.5q-14 0 -23.5 9 t-9.5 24zM366 638q0 17 12.5 31.5t30.5 14.5q14 0 23.5 -9t9.5 -24q0 -18 -13 -32t-31 -14q-14 0 -23 9.5t-9 23.5z" />
<glyph unicode="&#x152;" horiz-adv-x="940" d="M88 260q0 179 88 289t238 110q129 0 193 -88l11 79h351l-6 -48h-276l-30 -216q0 -12 -2 -34h249l-7 -46h-247q-5 -32 -12 -58l-28 -200h297l-7 -48h-373l10 74q-87 -84 -207 -84q-114 0 -178 72t-64 198zM167 249q0 -99 44 -155t123 -56q83 0 147 63.5t86 183.5l6 44v5 q4 44 4 69q0 92 -41.5 150t-125.5 58q-111 0 -177 -94.5t-66 -267.5z" />
<glyph unicode="&#x153;" horiz-adv-x="809" d="M67 196q0 143 66.5 228.5t188.5 85.5q118 0 161 -98q70 98 189 98q70 0 110.5 -38t40.5 -94q0 -34 -12.5 -60t-36.5 -42t-50 -26.5t-60.5 -15.5t-61 -6.5t-59.5 -1.5h-45q-1 -14 -1 -43q0 -75 36.5 -112t97.5 -37q25 0 47.5 6t37 14.5t25.5 17.5t16 15l5 6l26 -24 q-2 -3 -6 -8.5t-19 -19t-33 -24t-48 -19t-64 -8.5q-126 0 -174 97q-70 -97 -196 -97q-87 0 -134 54t-47 152zM142 182q0 -70 28.5 -109t86.5 -39q83 0 127 73.5t44 209.5q0 71 -28.5 110t-85.5 39q-84 0 -128 -74t-44 -210zM502 264h43q32 0 57.5 2t56.5 9t51 19t34 34.5 t14 53.5q0 37 -25 61t-70 24q-64 0 -106 -53.5t-55 -149.5z" />
<glyph unicode="&#x178;" horiz-adv-x="507" d="M93 650h85l134 -320l223 320h61l-266 -377l-37 -273h-76l37 269zM249 773q0 18 12.5 32t30.5 14q15 0 24 -9t9 -24q0 -17 -12.5 -31.5t-30.5 -14.5q-14 0 -23.5 9t-9.5 24zM403 773q0 17 12.5 31.5t30.5 14.5q14 0 23.5 -9t9.5 -24q0 -18 -13 -32t-31 -14q-14 0 -23 9.5 t-9 23.5z" />
<glyph unicode="&#x2c6;" horiz-adv-x="336" d="M127 629l125 114h40l92 -114l-23 -32l-96 97l-123 -97z" />
<glyph unicode="&#x2dc;" horiz-adv-x="396" d="M126 627q2 3 5 7t13.5 15t21.5 19t29 15t36 7q33 0 77.5 -23t68.5 -23q16 0 29.5 7t19.5 13l6 7l19 -25q-1 -2 -3.5 -5.5t-11 -12.5t-18.5 -15.5t-26 -12t-33 -5.5q-30 0 -76 23t-72 23q-17 0 -33.5 -9.5t-23.5 -19.5l-8 -10z" />
<glyph unicode="&#x2000;" horiz-adv-x="439" />
<glyph unicode="&#x2001;" horiz-adv-x="878" />
<glyph unicode="&#x2002;" horiz-adv-x="439" />
<glyph unicode="&#x2003;" horiz-adv-x="878" />
<glyph unicode="&#x2004;" horiz-adv-x="292" />
<glyph unicode="&#x2005;" horiz-adv-x="219" />
<glyph unicode="&#x2006;" horiz-adv-x="146" />
<glyph unicode="&#x2007;" horiz-adv-x="146" />
<glyph unicode="&#x2008;" horiz-adv-x="109" />
<glyph unicode="&#x2009;" horiz-adv-x="175" />
<glyph unicode="&#x200a;" horiz-adv-x="48" />
<glyph unicode="&#x2010;" horiz-adv-x="297" d="M70 254l7 47h228l-6 -47h-229z" />
<glyph unicode="&#x2011;" horiz-adv-x="297" d="M70 254l7 47h228l-6 -47h-229z" />
<glyph unicode="&#x2012;" horiz-adv-x="297" d="M70 254l7 47h228l-6 -47h-229z" />
<glyph unicode="&#x2013;" horiz-adv-x="470" d="M70 254l7 47h401l-7 -47h-401z" />
<glyph unicode="&#x2014;" horiz-adv-x="623" d="M70 254l7 47h555l-7 -47h-555z" />
<glyph unicode="&#x2018;" horiz-adv-x="141" d="M99 543q0 48 35.5 114t82.5 100l18 -22q-36 -29 -61.5 -75t-29.5 -84h4q34 0 34 -32q0 -18 -13.5 -33t-32.5 -15q-15 0 -26 11q-1 0 -1 1q-10 11 -10 35z" />
<glyph unicode="&#x2019;" horiz-adv-x="141" d="M73 515q37 29 62.5 75t29.5 83h-3q-15 0 -24.5 9.5t-9.5 24.5q0 19 13 33t32 14q15 0 26 -11l3 -6l3 -5l1 -1v-1q4 -14 4 -24q0 -47 -35.5 -113t-82.5 -101z" />
<glyph unicode="&#x201a;" horiz-adv-x="141" d="M-18 -140q36 29 61.5 74.5t29.5 83.5h-4q-15 0 -24 9.5t-9 24.5q0 19 13 32.5t32 13.5q24 0 30 -17q2 -2 2 -4q0 -1 0.5 -1t0.5 -1q4 -14 4 -24q0 -47 -35.5 -113t-82.5 -101z" />
<glyph unicode="&#x201c;" horiz-adv-x="290" d="M99 543q0 48 35.5 114t82.5 100l18 -22q-36 -29 -61.5 -75t-29.5 -84h4q34 0 34 -32q0 -18 -13.5 -33t-32.5 -15q-18 0 -27.5 13t-9.5 34zM247 543q0 48 35.5 114t82.5 100l18 -22q-36 -29 -61.5 -75t-29.5 -84h4q34 0 34 -32q0 -18 -13.5 -33t-32.5 -15q-15 0 -26 11 q-1 0 -1 1q-10 11 -10 35z" />
<glyph unicode="&#x201d;" horiz-adv-x="290" d="M73 515q37 29 62.5 75t29.5 83h-3q-15 0 -24.5 9.5t-9.5 24.5q0 19 13 33t32 14q15 0 26 -11l3 -6l3 -5l1 -1v-1q4 -14 4 -24q0 -47 -35.5 -113t-82.5 -101zM221 515q37 29 62.5 75t29.5 83h-3q-15 0 -24.5 9.5t-9.5 24.5q0 19 13 33t32 14q15 0 26 -11l3 -6l3 -5l1 -1 v-1q4 -14 4 -24q0 -47 -35.5 -113t-82.5 -101z" />
<glyph unicode="&#x201e;" horiz-adv-x="290" d="M-18 -140q36 29 61.5 74.5t29.5 83.5h-4q-15 0 -24 9.5t-9 24.5q0 19 13 32.5t32 13.5q24 0 30 -17q2 -2 2 -4q0 -1 0.5 -1t0.5 -1q4 -14 4 -24q0 -47 -35.5 -113t-82.5 -101zM130 -140q36 29 61.5 74.5t29.5 83.5h-4q-15 0 -24 9.5t-9 24.5q0 19 13 32.5t32 13.5 q24 0 30 -17q2 -2 2 -4q0 -1 0.5 -1t0.5 -1q4 -14 4 -24q0 -47 -35.5 -113t-82.5 -101z" />
<glyph unicode="&#x2022;" horiz-adv-x="300" d="M113 308q0 45 32 72q26 20 56 20q31 0 51 -20q16 -17 16 -46q0 -44 -32 -71q-24 -20 -57 -20q-32 0 -51 20q-15 18 -15 45z" />
<glyph unicode="&#x2026;" horiz-adv-x="663" d="M79 30q0 21 15.5 37t36.5 16q17 0 28.5 -10.5t11.5 -28.5q0 -24 -18 -41q-17 -12 -34 -12t-28.5 11t-11.5 28zM289 30q0 21 15.5 37t36.5 16q17 0 28.5 -10.5t11.5 -28.5q0 -24 -18 -41q-17 -12 -34 -12t-28.5 11t-11.5 28zM499 30q0 21 15.5 37t36.5 16q17 0 28.5 -10.5 t11.5 -28.5q0 -24 -18 -41q-17 -12 -34 -12t-28.5 11t-11.5 28z" />
<glyph unicode="&#x202f;" horiz-adv-x="175" />
<glyph unicode="&#x2039;" horiz-adv-x="323" d="M118 250l179 171l19 -26l-129 -146l87 -148l-26 -27z" />
<glyph unicode="&#x203a;" horiz-adv-x="323" d="M75 100l129 144l-87 150l26 27l130 -177l-178 -170z" />
<glyph unicode="&#x205f;" horiz-adv-x="219" />
<glyph unicode="&#x20ac;" horiz-adv-x="570" d="M78 229l6 40h55q2 57 8 94l-50 3l6 39h51q57 253 293 253q45 0 86 -13t59 -25l19 -13l-16 -45q-7 5 -19.5 13.5t-51 22t-76.5 13.5q-175 0 -217 -206h256l-7 -44h-257q-6 -55 -7 -92h251l-6 -44h-245q4 -190 167 -190q48 0 89 20.5t58 40.5l17 20l11 -33q-2 -4 -7 -10 t-22.5 -22t-38.5 -28.5t-55 -22.5t-72 -10q-106 0 -162.5 62t-61.5 174z" />
<glyph unicode="&#x2122;" horiz-adv-x="751" d="M158 714l6 36h109v-1h45v1h127l-6 -36h-126l-44 -314h-45l44 314h-110zM418 400l67 350h47l58 -308l156 308h44l-39 -350h-44l30 274l-139 -274h-39l-59 282l-48 -282h-34z" />
<glyph unicode="&#xe000;" horiz-adv-x="500" d="M0 0v500h500v-500h-500z" />
</font>
</defs>
</svg>
