<?xml version="1.0" standalone="no"?>
<!DOCTYPE svg PUBLIC "-//W3C//DTD SVG 1.1//EN" "http://www.w3.org/Graphics/SVG/1.1/DTD/svg11.dtd" >
<svg xmlns="http://www.w3.org/2000/svg">
<metadata></metadata>
<defs>
<font id="arsenalbold_italic" horiz-adv-x="524" >
<font-face units-per-em="1000" ascent="750" descent="-250" />
<missing-glyph horiz-adv-x="255" />
<glyph unicode="&#xfb01;" horiz-adv-x="571" d="M-87 -231l30 60q23 -19 51 -19q32 0 51.5 35.5t31.5 125.5l64 452h-47l9 60l48 14l11 74q14 91 61.5 140t144.5 49q62 0 126 -51q23 19 54 19t49 -19q15 -19 15 -45q0 -41 -31 -70q-25 -19 -55 -19q-28 0 -46.5 18t-18.5 47q0 7 2 19q-41 32 -78 32q-43 0 -61.5 -27 t-30.5 -108l-8 -56h127l-11 -77h-127l-64 -452q-33 -232 -209 -232q-28 0 -50 7.5t-30 15.5zM379 0l70 500h133l-70 -500h-133z" />
<glyph unicode="&#xfb02;" horiz-adv-x="580" d="M-87 -231l30 60q23 -19 51 -19q32 0 51.5 35.5t31.5 125.5l64 452h-49l9 60l50 14l11 74q13 87 59.5 138t118.5 51q67 0 150 -34l3 20l134 8l-106 -754h-133l92 658q-75 35 -112 35q-31 0 -47 -28t-28 -109l-8 -56h125l-11 -77h-125l-64 -452q-33 -232 -209 -232 q-28 0 -50 7.5t-30 15.5z" />
<glyph horiz-adv-x="1000" />
<glyph horiz-adv-x="1000" />
<glyph unicode="&#xd;" horiz-adv-x="1000" />
<glyph unicode=" "  horiz-adv-x="255" />
<glyph unicode="&#x09;" horiz-adv-x="255" />
<glyph unicode="&#xa0;" horiz-adv-x="255" />
<glyph unicode="!" horiz-adv-x="333" d="M99 52q0 41 34 72q25 21 58 21q32 0 53 -21q16 -19 16 -47q0 -43 -33 -72q-27 -21 -59 -21q-30 0 -49.5 19t-19.5 49zM169 230l22 459l7 61h152l-7 -61l-108 -459h-66z" />
<glyph unicode="&#x22;" horiz-adv-x="398" d="M111 484l26 266l122 -4l-85 -262h-63zM302 484l26 266l122 -4l-85 -262h-63z" />
<glyph unicode="#" horiz-adv-x="518" d="M72 186l9 64h80l52 149h-111l9 64h125l47 135l51 -16l-42 -119h118l41 116l52 -16l-35 -100h70l-10 -64h-83l-52 -149h115l-10 -64h-128l-47 -136l-51 17l41 119h-117l-41 -117l-51 17l35 100h-67zM218 250h118l52 149h-118z" />
<glyph unicode="$" horiz-adv-x="417" d="M46 128l45 52q4 -6 11.5 -15.5t34 -25.5t56.5 -16q41 0 62.5 22t21.5 55q0 24 -18 42t-43 31t-50.5 29t-43.5 43.5t-18 65.5q0 66 39 106.5t102 54.5l29 128h65l-4 -124q26 -4 52 -14t39 -18l13 -7l-21 -67q-62 44 -111 44q-34 0 -53.5 -17.5t-19.5 -45.5 q0 -24 19.5 -43.5t47 -34t54.5 -31.5t46.5 -45t19.5 -66q0 -67 -40.5 -112.5t-118.5 -57.5l-25 -111h-65l2 109q-44 5 -76 22t-42 32z" />
<glyph unicode="%" horiz-adv-x="867" d="M98 428q0 106 56.5 172.5t149.5 66.5q70 0 109.5 -46t39.5 -122q0 -103 -55.5 -170t-150.5 -67q-73 0 -111 45t-38 121zM205 407q0 -82 50 -82q40 0 66.5 46.5t26.5 151.5q0 82 -53 82q-90 0 -90 -198zM260 8l358 627l63 -20l-358 -627zM504 147q0 106 56.5 172.5 t149.5 66.5q70 0 109.5 -46t39.5 -122q0 -103 -55.5 -170t-150.5 -67q-73 0 -111 45t-38 121zM611 126q0 -82 50 -82q40 0 66.5 46.5t26.5 151.5q0 82 -53 82q-90 0 -90 -198z" />
<glyph unicode="&#x26;" horiz-adv-x="641" d="M59 150q0 78 44.5 124.5t110.5 66.5q-69 41 -69 124q0 89 60.5 142t156.5 53q30 0 62.5 -8t49.5 -16l18 -7l-20 -65q-50 29 -91 29q-49 0 -76.5 -36.5t-27.5 -109.5q0 -36 14.5 -56t35.5 -20h107l83 129h52l-18 -129h111l-10 -66h-111l-19 -138q-5 -38 -5 -56 q0 -31 10.5 -42t35.5 -11q14 0 28.5 3t22.5 7l7 3l-4 -58q-29 -24 -105 -24q-80 0 -106 46q-55 -46 -143 -46q-101 0 -152.5 44t-51.5 117zM199 151q0 -44 25 -69t71 -25q60 0 97 41v10q0 13 4 51l19 146h-115q-42 -3 -71.5 -44.5t-29.5 -109.5z" />
<glyph unicode="'" horiz-adv-x="207" d="M111 484l26 266l122 -4l-85 -262h-63z" />
<glyph unicode="(" horiz-adv-x="359" d="M107 164q0 56 8 108q13 93 44 174.5t66 131.5t68 86.5t55 51.5l21 16l52 -35q-11 -11 -17.5 -18t-34.5 -46.5t-47.5 -82t-43 -118t-35.5 -160.5q-11 -77 -11 -148q0 -89 18 -157.5t36 -92.5l17 -23l-58 -34q-6 4 -15 12t-33 38t-42 66.5t-33 98.5t-15 132z" />
<glyph unicode=")" horiz-adv-x="359" d="M14 -149q5 5 14.5 15t35 47t47.5 81.5t45.5 120.5t35.5 162q10 74 10 141q0 90 -17.5 159.5t-34.5 94.5l-18 25l59 35q6 -4 15 -12t32.5 -38t41.5 -66.5t33 -98.5t15 -132q0 -56 -8 -108q-13 -93 -44.5 -174.5t-67 -131.5t-69 -86.5t-55.5 -52.5l-22 -15z" />
<glyph unicode="*" horiz-adv-x="410" d="M80 502l57 129l118 -97l-11 181h124l-67 -180l149 96l20 -129l-162 -15l106 -123l-110 -80l-35 171l-84 -171l-87 80l139 121z" />
<glyph unicode="+" horiz-adv-x="456" d="M64 238l10 74h163l26 184h71l-26 -184h161l-10 -74h-161l-26 -185h-71l26 185h-163z" />
<glyph unicode="," horiz-adv-x="265" d="M38 -133q37 30 64 71.5t35 79.5h-8q-27 0 -44 17q-14 19 -14 41q0 30 23 55t55 25q30 0 46.5 -21.5t16.5 -54.5q0 -59 -44 -133t-102 -117z" />
<glyph unicode="-" horiz-adv-x="333" d="M65 238l10 74h271l-10 -74h-271z" />
<glyph unicode="." horiz-adv-x="297" d="M76 52q0 41 34 72q26 21 58 21t53 -21q16 -19 16 -47q0 -43 -33 -72q-27 -21 -59 -21q-30 0 -49.5 19t-19.5 49z" />
<glyph unicode="/" horiz-adv-x="457" d="M-27 -250l508 1000h90l-508 -1000h-90z" />
<glyph unicode="0" horiz-adv-x="579" d="M82 237q0 90 14.5 162.5t47 133t91 94t140.5 33.5q213 0 213 -242q0 -199 -79.5 -314t-212.5 -115q-107 0 -160.5 64.5t-53.5 183.5zM222 191q0 -133 83 -133q61 0 102.5 96t41.5 287q0 72 -18.5 111t-64.5 39q-32 0 -57 -19t-45 -62.5t-31 -124t-11 -194.5z" />
<glyph unicode="1" horiz-adv-x="398" d="M121 565l162 85h107l-91 -650h-131l77 558l-106 -53z" />
<glyph unicode="2" horiz-adv-x="484" d="M34 0l15 103q34 13 84 49t102.5 87.5t89 121.5t36.5 138q0 48 -22.5 67.5t-65.5 19.5q-23 0 -55 -12t-52 -24l-21 -13l-3 74q80 49 165 49q97 0 149 -43.5t52 -115.5q0 -56 -28 -113.5t-76 -106t-95.5 -85.5t-101.5 -71h259l-17 -125h-415z" />
<glyph unicode="3" horiz-adv-x="492" d="M47 70l44 59q2 -3 5.5 -7.5t16.5 -16.5t27 -21t36.5 -16.5t46.5 -7.5q122 0 122 177q0 72 -61 72q-12 0 -26.5 -7.5t-23.5 -14.5l-8 -7l-34 46l187 198h-240l25 126h351l-12 -84l-187 -193h7q71 0 116 -42t45 -116q0 -105 -76 -165.5t-176 -60.5q-39 0 -73 8.5t-53.5 20 t-33.5 23.5t-20 21z" />
<glyph unicode="4" horiz-adv-x="533" d="M59 159l1 59q56 80 120.5 210t101.5 238l125 -16q-66 -176 -259 -422h190l82 324h100l-46 -324h64l-9 -57l-65 -11l-22 -160h-136l22 159h-269z" />
<glyph unicode="5" horiz-adv-x="489" d="M31 68l47 56q5 -7 14.5 -17.5t43.5 -28.5t72 -18q63 0 98.5 50t35.5 137q0 99 -87 99q-50 0 -79 -31l-6 -10l-46 7l85 338h298l-25 -130h-237l-29 -119q31 9 60 9q96 0 151 -42t55 -125t-41 -142.5t-100.5 -85.5t-127.5 -26q-37 0 -69.5 8t-52 19.5t-34 23.5t-20.5 20z " />
<glyph unicode="6" horiz-adv-x="530" d="M76 206q0 76 22 155q40 155 112.5 227t166.5 72q32 0 67 -10t54 -20l18 -9l-26 -67q-58 36 -109 36q-58 0 -95.5 -47t-58.5 -164q60 42 119 42q83 0 131.5 -43t48.5 -127q0 -21 -3 -43q-15 -103 -82 -161t-170 -58q-93 0 -144 53.5t-51 163.5zM213 155q0 -54 16 -77 t51 -23q43 0 66 34.5t34 112.5q5 40 5 64q0 92 -64 92q-46 0 -89 -47q-19 -81 -19 -156z" />
<glyph unicode="7" horiz-adv-x="451" d="M94 0q31 77 92.5 181t103 165t117.5 171h-299l19 133h400l-15 -105q-75 -106 -152 -261.5t-122 -283.5h-144z" />
<glyph unicode="8" horiz-adv-x="536" d="M58 141q0 133 159 188q-102 36 -102 132q0 94 68.5 146.5t177.5 52.5q86 0 141 -39t55 -111q0 -129 -148 -180q118 -31 118 -133q0 -208 -261 -208q-208 0 -208 152zM207 136q0 -85 70 -85q48 0 75 42t27 117q0 69 -57 90q-10 -2 -21.5 -6.5t-29.5 -16.5t-31 -28.5 t-23 -46t-10 -66.5zM256 445q0 -65 48 -89q15 4 30.5 12t36 25.5t33 50.5t12.5 77q0 77 -66 77q-45 0 -69.5 -42t-24.5 -111z" />
<glyph unicode="9" horiz-adv-x="530" d="M94 391q0 118 69.5 193.5t183.5 75.5q93 0 145.5 -53.5t52.5 -162.5q0 -74 -14 -130q-77 -325 -277 -325q-47 0 -84.5 13t-51.5 26l-14 13l35 61q5 -5 14 -12t37.5 -19t56.5 -12q108 0 145 204q-47 -40 -111 -40q-84 0 -135.5 41t-51.5 127zM233 378q0 -92 65 -92 q35 0 60 20t36 52q13 68 13 137q0 55 -16 77t-49 22q-50 0 -79.5 -57t-29.5 -159z" />
<glyph unicode=":" horiz-adv-x="298" d="M76 52q0 41 34 72q26 21 58 21t53 -21q16 -19 16 -47q0 -43 -33 -72q-27 -21 -59 -21q-30 0 -49.5 19t-19.5 49zM125 403q0 41 34 72q25 21 58 21q32 0 53 -21q16 -19 16 -47q0 -44 -33 -72q-27 -21 -59 -21q-30 0 -49.5 19t-19.5 49z" />
<glyph unicode=";" horiz-adv-x="297" d="M57 -133q37 30 64 71.5t35 79.5h-8q-27 0 -44 17q-14 19 -14 41q0 30 23 55t55 25q30 0 46.5 -21.5t16.5 -54.5q0 -59 -44 -133t-102 -117zM125 403q0 41 34 72q25 21 58 21q32 0 53 -21q16 -19 16 -47q0 -44 -33 -72q-27 -21 -59 -21q-30 0 -49.5 19t-19.5 49z" />
<glyph unicode="&#x3c;" horiz-adv-x="378" d="M92 315l270 226l33 -46l-186 -180l139 -179l-49 -46z" />
<glyph unicode="=" d="M50 141l10 74h464l-10 -74h-464zM78 335l10 74h464l-10 -74h-464z" />
<glyph unicode="&#x3e;" horiz-adv-x="378" d="M72 136l182 179l-132 180l46 46l207 -226l-271 -225z" />
<glyph unicode="?" horiz-adv-x="445" d="M105 52q0 41 34 72q25 21 58 21q32 0 53 -21q16 -19 16 -47q0 -43 -33 -72q-27 -21 -59 -21q-30 0 -49.5 19t-19.5 49zM151 721q64 39 152 39q86 0 131.5 -47t45.5 -116q0 -46 -13.5 -80t-35 -55.5t-48 -38.5t-53 -33.5t-49 -36t-38 -51t-17.5 -72.5l-53 -4 q2 47 12.5 82.5t26 56.5t33 37.5l35 33t32 36t23.5 52.5t9 77q0 91 -81 91q-24 0 -50 -8.5t-40 -17.5l-14 -9z" />
<glyph unicode="@" horiz-adv-x="862" d="M64 95q0 244 130 394.5t363 150.5q153 0 231.5 -73.5t78.5 -212.5q0 -177 -68.5 -274.5t-178.5 -97.5q-79 0 -96 44q-41 -45 -108 -45t-105.5 41t-38.5 124q0 113 64.5 188t153.5 75q54 0 87 -35l20 17h57l-39 -271q-3 -24 -3 -40q0 -43 29 -43q19 0 38 15t38.5 48.5 t32 100.5t12.5 158q0 114 -52.5 167.5t-161.5 53.5q-167 0 -266.5 -124t-99.5 -356q0 -142 63 -211.5t181 -69.5q65 0 123.5 22t84.5 44l26 22l21 -55q-4 -4 -10.5 -11t-31 -24.5t-53 -30.5t-74.5 -24t-96 -11q-179 0 -265.5 89t-86.5 255zM384 133q0 -96 66 -96q41 0 68 45 q7 46 19 131.5t15 107.5q-14 33 -56 33q-51 0 -81.5 -56t-30.5 -165z" />
<glyph unicode="A" horiz-adv-x="608" d="M19 0l307 650h153l111 -650h-146l-30 182h-226l-85 -182h-84zM216 245h188l-47 306h-1z" />
<glyph unicode="B" horiz-adv-x="569" d="M77 0l91 650h198q105 0 156.5 -41.5t51.5 -105.5q0 -108 -119 -164q106 -34 106 -129q0 -91 -73 -150.5t-208 -59.5h-203zM224 65h62q61 0 99 42.5t38 111.5q0 82 -76 82h-90zM266 361h82q31 0 61 37.5t30 98.5q0 45 -23 66.5t-62 21.5h-56z" />
<glyph unicode="C" horiz-adv-x="576" d="M76 256q0 178 95 291t253 113q46 0 93.5 -14t72.5 -28l24 -13l-21 -73q-88 53 -162 53q-93 0 -149.5 -82t-56.5 -261q0 -178 150 -178q30 0 58.5 9t48 22t34.5 26.5t22 22.5l7 9l36 -48q-3 -5 -8.5 -12.5t-26.5 -27.5t-46 -35.5t-66.5 -28t-88.5 -12.5q-129 0 -199 71 t-70 196z" />
<glyph unicode="D" horiz-adv-x="647" d="M77 0l91 650h221q133 0 203 -66.5t70 -196.5q0 -183 -93.5 -285t-269.5 -102h-222zM225 71h85q204 0 204 342q0 86 -33 126t-102 40h-83z" />
<glyph unicode="E" d="M77 0l91 650h390l-10 -72h-252l-30 -214h223l-11 -70h-221l-31 -222h265l-10 -72h-404z" />
<glyph unicode="F" horiz-adv-x="488" d="M77 0l91 650h395l-10 -72h-257l-33 -240h223l-10 -70h-223l-38 -268h-138z" />
<glyph unicode="G" horiz-adv-x="625" d="M76 254q0 185 95.5 295.5t257.5 110.5q46 0 94.5 -14t73.5 -28l25 -13l-24 -73q-88 53 -162 53q-211 0 -211 -343q0 -178 123 -178q28 0 51 9.5t37 25.5t21.5 28.5t11.5 24.5l17 123h-101l10 68h218l-48 -343h-60l-27 58q-63 -69 -165 -69q-115 0 -176 69t-61 196z" />
<glyph unicode="H" horiz-adv-x="655" d="M77 0l91 650h138l-40 -284h225l40 284h138l-91 -650h-138l41 296h-225l-41 -296h-138z" />
<glyph unicode="I" horiz-adv-x="293" d="M77 0l91 650h138l-91 -650h-138z" />
<glyph unicode="J" horiz-adv-x="384" d="M16 29l23 58q26 -27 69 -27q38 0 62 33t37 121l61 436h139l-62 -436q-17 -124 -67.5 -174.5t-140.5 -50.5q-39 0 -69 10t-41 20z" />
<glyph unicode="K" horiz-adv-x="619" d="M77 0l91 650h138l-43 -302l66 44l227 258h96l-233 -254l188 -396h-175l-133 292l-48 -30l-36 -262h-138z" />
<glyph unicode="L" horiz-adv-x="479" d="M77 0l91 650h138l-81 -578h252l-10 -72h-390z" />
<glyph unicode="M" horiz-adv-x="856" d="M77 0l99 650h167l115 -479h4l246 479h155l-84 -650h-135l61 492h-2l-250 -492h-103l-112 492h-3l-72 -492h-86z" />
<glyph unicode="N" horiz-adv-x="651" d="M77 0l91 650h143l211 -441h3l-1 45l55 396h86l-91 -650h-108l-241 488h-2v-58l-60 -430h-86z" />
<glyph unicode="O" horiz-adv-x="663" d="M76 259q0 179 90 290t250 111q132 0 196.5 -75t64.5 -193q0 -181 -97.5 -292t-244.5 -111q-123 0 -191 72t-68 198zM222 225q0 -77 31 -121t89 -44q85 0 136.5 86t51.5 275q0 76 -30 121.5t-91 45.5q-187 0 -187 -363z" />
<glyph unicode="P" horiz-adv-x="533" d="M77 0l91 650h199q99 0 153 -44.5t54 -134.5q0 -69 -25 -123t-65.5 -84t-85 -45.5t-90.5 -15.5h-64l-29 -203h-138zM253 267h48q56 0 91 51.5t35 166.5q0 100 -81 100h-48z" />
<glyph unicode="Q" horiz-adv-x="663" d="M76 259q0 179 90 290t250 111q132 0 196.5 -75t64.5 -193q0 -155 -73 -260t-190 -133q43 -131 115 -131q15 0 32 6l-2 -61q-33 -11 -61 -11q-73 0 -131.5 55t-81.5 136q-101 13 -155 83t-54 183zM222 225q0 -77 31 -121t89 -44q85 0 136.5 86t51.5 275q0 76 -30 121.5 t-91 45.5q-187 0 -187 -363z" />
<glyph unicode="R" horiz-adv-x="578" d="M77 0l91 650h200q99 0 154 -44t55 -126q0 -76 -39.5 -131t-102.5 -85l114 -264h-159l-89 236h-53l-33 -236h-138zM257 302h52q121 0 121 190q0 93 -85 93h-48z" />
<glyph unicode="S" horiz-adv-x="492" d="M44 80l46 58q2 -3 5.5 -8t16.5 -18t28.5 -23t40 -18t51.5 -8q54 0 81.5 28t27.5 71q0 29 -22.5 53.5t-54.5 44t-64.5 42t-55 60t-22.5 85.5q0 98 67.5 155.5t172.5 57.5q40 0 77.5 -11.5t54.5 -22.5l18 -12l-22 -68q-60 44 -129 44q-43 0 -69.5 -24t-26.5 -67 q0 -28 16.5 -51.5t40.5 -39t53 -35.5t53 -40.5t40.5 -53t16.5 -73.5q0 -101 -72 -159t-175 -58q-40 0 -74.5 9.5t-55.5 22.5t-36.5 26.5t-21.5 22.5z" />
<glyph unicode="T" horiz-adv-x="516" d="M95 578l11 72h488l-11 -72h-174l-81 -578h-139l81 578h-175z" />
<glyph unicode="U" horiz-adv-x="614" d="M97 183q0 28 4 53l58 414h139l-54 -383q-6 -42 -6 -75q0 -67 24.5 -97t75.5 -30q67 0 106 49t53 153l54 383h85l-58 -414q-35 -247 -273 -247q-104 0 -156 50.5t-52 143.5z" />
<glyph unicode="V" horiz-adv-x="576" d="M100 650h146l77 -549h3l244 549h87l-300 -650h-153z" />
<glyph unicode="W" horiz-adv-x="873" d="M100 650h147l51 -492h2l202 492h111l69 -489h2l182 489h88l-261 -650h-118l-69 480h-3l-201 -480h-120z" />
<glyph unicode="X" horiz-adv-x="581" d="M8 0l246 316l-146 334h173l87 -233h3l172 233h98l-231 -300l163 -350h-172l-105 248h-2l-182 -248h-104z" />
<glyph unicode="Y" horiz-adv-x="523" d="M84 650h155l102 -295h1l182 295h96l-250 -383l-36 -267h-139l35 251z" />
<glyph unicode="Z" horiz-adv-x="567" d="M42 0l9 58l386 520h-296l10 72h462l-9 -60l-385 -518h312l-10 -72h-479z" />
<glyph unicode="[" horiz-adv-x="386" d="M72 -89l113 800h293l-10 -69h-177l-93 -663h177l-10 -68h-293z" />
<glyph unicode="\" horiz-adv-x="457" d="M98 750h90l225 -1000h-89z" />
<glyph unicode="]" horiz-adv-x="386" d="M-5 -89l10 68h175l93 663h-175l9 68h294l-112 -799h-294z" />
<glyph unicode="^" horiz-adv-x="357" d="M105 531l171 167l126 -167l-46 -44l-95 106l-124 -106z" />
<glyph unicode="_" horiz-adv-x="679" d="M7 -162l10 74h618l-10 -74h-618z" />
<glyph unicode="`" horiz-adv-x="242" d="M63 703l111 35l64 -147l-64 -17z" />
<glyph unicode="a" horiz-adv-x="542" d="M59 195q0 136 72 226t186 90q41 0 68.5 -10.5t34.5 -20.5l8 -10h4l24 30h98l-70 -500h-102l-16 44h-1q-1 -2 -3.5 -6t-13 -13.5t-24 -16.5t-37.5 -13t-53 -6q-79 0 -127 55.5t-48 150.5zM199 175q0 -108 78 -108q24 0 45 10t29.5 18.5t13.5 16.5l41 283q-20 40 -71 40 q-64 0 -100 -65t-36 -195z" />
<glyph unicode="b" horiz-adv-x="543" d="M58 0l105 746l134 8l-41 -291h5q3 5 11 13t39.5 21t71.5 13q78 0 125 -55t47 -148q0 -136 -69 -227t-183 -91q-41 0 -72 11t-42 22l-11 12h-2l-27 -34h-91zM205 96q15 -31 73 -31q137 0 137 266q0 102 -79 102q-26 0 -49 -13t-33 -26l-9 -13z" />
<glyph unicode="c" horiz-adv-x="446" d="M60 202q0 140 74.5 224.5t202.5 84.5q33 0 69.5 -11.5t56.5 -23.5l20 -12l-19 -64q-66 44 -112 44q-150 0 -150 -272q0 -61 27.5 -88.5t69.5 -27.5q35 0 63.5 15.5t39.5 30.5l11 16l43 -30q-2 -4 -5.5 -10.5t-18.5 -24t-33.5 -30.5t-51.5 -23.5t-72 -10.5 q-101 0 -158 55.5t-57 157.5z" />
<glyph unicode="d" horiz-adv-x="543" d="M59 200q0 134 68.5 222t175.5 88q39 0 67 -9.5t36 -18.5l9 -10h3l38 274l135 8l-106 -754h-111l-9 45h-1q-4 -6 -12 -15.5t-40.5 -25t-75.5 -15.5q-82 0 -129.5 58t-47.5 153zM198 177q0 -59 19.5 -84.5t59.5 -25.5q24 0 46.5 11.5t31.5 20t12 13.5l41 289q-23 33 -74 33 q-136 0 -136 -257z" />
<glyph unicode="e" horiz-adv-x="474" d="M59 195q0 148 75 231.5t193 83.5q78 0 123 -40t45 -100q0 -36 -14 -64t-40.5 -44.5t-54 -27.5t-65.5 -15.5t-64.5 -6t-59.5 -1.5q-1 -14 -1 -44q0 -111 105 -111q34 0 64 14t43 28l12 13l40 -36q-2 -3 -6.5 -9t-20.5 -21t-35.5 -26t-52.5 -20.5t-70 -9.5 q-97 0 -156.5 51.5t-59.5 154.5zM201 268q30 0 51 1.5t46.5 8.5t41 18.5t26 33.5t10.5 53q0 63 -65 63q-42 0 -71 -45t-39 -133z" />
<glyph unicode="f" horiz-adv-x="344" d="M-87 -231l30 60q23 -19 51 -19q32 0 51.5 35.5t31.5 125.5l64 452h-49l9 60l50 14l11 74q28 189 185 189q25 0 51.5 -8.5t41.5 -17.5l14 -8l-25 -57q-39 24 -67 24q-27 0 -42 -26t-27 -111l-8 -56h125l-11 -77h-125l-64 -452q-33 -232 -209 -232q-28 0 -50 7.5t-30 15.5z " />
<glyph unicode="g" horiz-adv-x="461" d="M-1 -108q0 98 81 138q-7 21 -7 42q0 67 59 109q-59 41 -59 123q0 101 66 153.5t164 52.5q38 0 73 -11l137 -1l-5 -59l-51 -3q18 -34 18 -77q0 -100 -61.5 -156t-161.5 -56q-38 0 -68 9q-23 -17 -23 -39q0 -36 84 -36q111 0 159.5 -37t48.5 -106q0 -90 -62 -145t-183 -55 q-102 0 -155.5 41.5t-53.5 112.5zM90 -99q0 -46 33.5 -70.5t94.5 -24.5q63 0 91 22.5t28 67.5q0 36 -26 52t-88 16q-64 0 -100 20q-33 -29 -33 -83zM200 287q0 -79 58 -79q40 0 65.5 40t25.5 127q0 71 -58 71q-91 0 -91 -159z" />
<glyph unicode="h" horiz-adv-x="533" d="M58 0l105 746l134 8l-41 -288h4l3 2q3 3 8.5 7t13.5 8.5t19 9t24 8.5t30 6.5t35 2.5q137 0 137 -128q0 -20 -3 -43l-47 -339h-133l46 328q3 24 3 41q0 33 -13 45.5t-44 12.5q-25 0 -48.5 -9t-34.5 -18l-10 -9l-55 -391h-133z" />
<glyph unicode="i" horiz-adv-x="249" d="M58 0l70 500h133l-70 -500h-133zM140 640q0 41 32 68q23 20 55 20q31 0 49 -19q15 -19 15 -45q0 -41 -31 -70q-25 -19 -55 -19q-28 0 -46.5 18t-18.5 47z" />
<glyph unicode="j" horiz-adv-x="276" d="M-84 -231l30 60q22 -19 50 -19q33 0 52.5 35.5t31.5 125.5l74 529h133l-74 -529q-17 -121 -72.5 -176.5t-136.5 -55.5q-29 0 -51 7.5t-29 15.5zM167 640q0 41 32 68q23 20 55 20q31 0 49 -19q15 -19 15 -45q0 -41 -31 -70q-25 -19 -55 -19q-28 0 -46.5 18t-18.5 47z" />
<glyph unicode="k" horiz-adv-x="490" d="M58 0l105 746l134 8l-66 -466l76 47l129 165h82l-155 -185l117 -315h-152l-79 234l-28 -16l-30 -218h-133z" />
<glyph unicode="l" horiz-adv-x="250" d="M58 0l105 746l134 8l-106 -754h-133z" />
<glyph unicode="m" horiz-adv-x="756" d="M58 0l70 500h107l11 -45h3q6 6 17 15t46 24.5t72 15.5q86 0 107 -57q57 57 146 57q61 0 89.5 -27t28.5 -86q0 -14 -4 -48l-49 -349h-133l48 339q3 23 3 38q0 30 -11 40.5t-33 10.5q-43 0 -77 -43q-8 -76 -28 -213.5t-24 -171.5h-133l47 339q3 24 3 39q0 29 -10.5 39.5 t-31.5 10.5q-40 0 -76 -36l-55 -392h-133z" />
<glyph unicode="n" horiz-adv-x="534" d="M58 0l70 500h107l12 -40h3q5 6 14.5 14t47 22t82.5 14q137 0 137 -129q0 -19 -3 -42l-47 -339h-133q41 298 46 328q3 21 3 37q0 35 -14.5 48.5t-46.5 13.5q-54 0 -90 -36l-55 -391h-133z" />
<glyph unicode="o" horiz-adv-x="525" d="M60 195q0 144 72.5 230t201.5 86q94 0 147.5 -53.5t53.5 -152.5q0 -144 -75 -230t-200 -86q-93 0 -146.5 53.5t-53.5 152.5zM198 159q0 -104 76 -104q123 0 123 286q0 103 -76 103q-123 0 -123 -285z" />
<glyph unicode="p" horiz-adv-x="543" d="M23 -254l105 754h107l12 -45h2q5 6 14.5 15.5t44.5 25t77 15.5q77 0 123 -54.5t46 -146.5q0 -138 -67 -229.5t-174 -91.5q-39 0 -68 9.5t-38 19.5l-9 9h-3l-39 -277zM204 96q23 -31 70 -31q139 0 139 256q0 112 -82 112q-24 0 -45.5 -10.5t-30.5 -21.5l-9 -11l-1 1z" />
<glyph unicode="q" horiz-adv-x="543" d="M59 193q0 136 72 227t179 91q37 0 67 -10.5t41 -20.5l12 -11h1l34 31h90l-106 -750l-134 -4l41 290h-4q-1 -2 -3.5 -5t-13 -11t-23 -14.5t-34.5 -11.5t-47 -5q-79 0 -125.5 55.5t-46.5 148.5zM200 182q0 -64 20.5 -89.5t61.5 -25.5q50 0 84 41l41 294q-2 4 -7 10 t-22.5 14.5t-39.5 8.5q-138 0 -138 -253z" />
<glyph unicode="r" horiz-adv-x="353" d="M58 0l70 500h94l11 -84h3q1 4 3 10.5t10 22.5t18.5 28.5t28 23t38.5 10.5q15 0 36 -3.5t35 -7.5l14 -3l-22 -93q-52 14 -87 14q-42 0 -68 -58l-51 -360h-133z" />
<glyph unicode="s" horiz-adv-x="417" d="M36 60l45 52q4 -6 11.5 -15.5t34 -25.5t56.5 -16q41 0 62.5 22t21.5 55q0 24 -18 42t-43.5 31t-50.5 29t-43 43.5t-18 65.5q0 82 58.5 125t141.5 43q32 0 65.5 -10.5t51.5 -20.5l18 -11l-21 -67q-62 44 -111 44q-34 0 -53.5 -17.5t-19.5 -45.5q0 -24 19.5 -43.5t47 -34 t54.5 -31.5t46.5 -45t19.5 -66q0 -78 -54 -126t-158 -48q-36 0 -66 7.5t-47 17.5t-29 20.5t-17 17.5z" />
<glyph unicode="t" horiz-adv-x="353" d="M89 423l9 60l51 13l88 170h67l-23 -166h110l-11 -77h-110l-35 -247q-5 -32 -5 -63q0 -30 8.5 -41t28.5 -11q14 0 27.5 2.5t19.5 4.5l6 2l-1 -57q-28 -24 -104 -24q-61 0 -90.5 25.5t-29.5 83.5q0 20 3 44l39 281h-48z" />
<glyph unicode="u" horiz-adv-x="534" d="M73 118q0 20 3 42l48 340h133l-44 -312q-4 -25 -4 -49q0 -37 14 -52t43 -15q24 0 47 9.5t34 18.5l11 10l54 390h133l-70 -500h-107l-13 44h-2q-2 -2 -5 -6t-16 -13.5t-28 -16.5t-40 -13t-54 -6q-137 0 -137 129z" />
<glyph unicode="v" horiz-adv-x="478" d="M78 500h161l48 -356h4l162 356h87l-247 -500h-111z" />
<glyph unicode="w" horiz-adv-x="709" d="M80 500h151l27 -333h3l141 333h92l58 -333h3l127 333h86l-216 -500h-107l-44 326v1h-3l-138 -327h-107z" />
<glyph unicode="x" horiz-adv-x="473" d="M9 0l188 241l-110 259h159l58 -177l119 177h91l-171 -228l121 -272h-159l-68 187l-135 -187h-93z" />
<glyph unicode="y" horiz-adv-x="488" d="M-9 -246l21 78q23 -11 49 -11q46 0 79.5 36t79.5 123l-139 520h160l73 -354l153 354h82l-246 -511q-61 -126 -114.5 -188t-122.5 -62q-23 0 -42 4t-26 7z" />
<glyph unicode="z" horiz-adv-x="434" d="M26 0l8 60l282 372h-210l6 68h365l-9 -60l-278 -372h218l-8 -68h-374z" />
<glyph unicode="{" horiz-adv-x="406" d="M131 255l8 56l2 17q33 0 66 22.5t33 68.5q0 19 -2.5 66.5t-2.5 68.5q0 48 9 80.5t34.5 60t75.5 40.5t126 13l-10 -65q-67 0 -94 -30.5t-27 -96.5q0 -20 2 -68t2 -67q0 -92 -85 -128q59 -26 59 -78q0 -33 -31 -121t-31 -123q0 -70 95 -70l-9 -66q-109 0 -155 32t-46 95 q0 48 30 131.5t30 105.5q0 26 -26.5 41t-52.5 15z" />
<glyph unicode="|" horiz-adv-x="342" d="M98 -250l141 1000h77l-141 -1000h-77z" />
<glyph unicode="}" horiz-adv-x="406" d="M33 -165l10 66q67 0 93.5 30.5t26.5 96.5q0 20 -2 68t-2 67q0 92 86 128q-59 26 -59 78q0 33 31 121t31 123q0 70 -95 70l8 65q110 0 156 -31.5t46 -94.5q0 -48 -30.5 -131.5t-30.5 -106.5q0 -26 27 -41t53 -15l-3 -17h1l-8 -56q-33 0 -66.5 -22t-33.5 -67q0 -18 3 -67 t3 -71q0 -48 -9 -80t-34.5 -59.5t-75.5 -40.5t-126 -13z" />
<glyph unicode="~" horiz-adv-x="598" d="M70 317q2 6 5.5 15.5t18 34t33 43t51 34t71.5 15.5q46 0 86 -18.5t64 -40t55.5 -40t62.5 -18.5q24 0 42 12t23 24l6 11l38 -26q-2 -6 -5.5 -15.5t-17.5 -34.5t-31.5 -44t-48.5 -34.5t-67 -15.5q-42 0 -79.5 18.5t-60.5 40.5t-56 40.5t-67 18.5q-26 0 -47.5 -12.5 t-29.5 -24.5l-8 -13z" />
<glyph unicode="&#xa1;" horiz-adv-x="333" d="M52 -250l9 61l107 458h67l-22 -458l-8 -61h-153zM142 423q0 41 34 72q26 21 58 21t53 -21q16 -19 16 -47q0 -44 -33 -72q-27 -21 -59 -21q-30 0 -49.5 19t-19.5 49z" />
<glyph unicode="&#xa2;" horiz-adv-x="446" d="M70 272q0 123 58 204t161 100l28 124h65l-4 -122q28 -4 56.5 -15t43.5 -20l15 -9l-19 -64q-66 44 -112 44q-150 0 -150 -272q0 -61 27.5 -88.5t69.5 -27.5q35 0 63.5 15.5t39.5 30.5l11 16l43 -30l-5 -10t-16.5 -22t-30 -28.5t-46 -24t-63.5 -14.5l-24 -109h-66l3 116 q-71 17 -109.5 69.5t-38.5 136.5z" />
<glyph unicode="&#xa3;" horiz-adv-x="531" d="M40 0l18 122h40q62 39 67 157l-85 7l9 64h78q0 57 4 104q7 101 67 153.5t161 52.5q32 0 66.5 -10t52.5 -20l19 -11l-29 -65q-53 34 -90 34q-44 0 -65.5 -25.5t-32.5 -102.5q-10 -69 -20 -110h205l-10 -73h-213q-31 -100 -80 -155h324l-17 -122h-469z" />
<glyph unicode="&#xa4;" horiz-adv-x="546" d="M59 126l109 81q-17 36 -17 80q0 77 42 137l-81 80l59 67l65 -102q47 36 105 36q55 0 95 -38l99 103l40 -66l-108 -80q19 -38 19 -82q0 -78 -44 -138l80 -79l-58 -67l-66 101q-48 -35 -103 -35q-57 0 -96 39l-99 -104zM224 294q0 -44 21.5 -69.5t60.5 -25.5 q44 0 75.5 37.5t31.5 99.5q0 45 -22.5 70t-61.5 25q-45 0 -75 -37.5t-30 -99.5z" />
<glyph unicode="&#xa5;" horiz-adv-x="590" d="M208 650h155l102 -295h1l182 295h96l-205 -313h94l-9 -63h-126l-4 -7l-8 -59h129l-9 -64h-129l-19 -144h-139l20 144h-118l10 64h117l6 43l-9 23h-106l10 63h73z" />
<glyph unicode="&#xa6;" horiz-adv-x="342" d="M98 -250l56 400h77l-56 -400h-77zM182 350l57 400h77l-57 -400h-77z" />
<glyph unicode="&#xa7;" horiz-adv-x="505" d="M84 2l35 54q3 -6 10 -15.5t34 -25.5t59 -16q86 0 86 71q0 23 -21 40t-51.5 29.5t-61 28.5t-51.5 47.5t-21 75.5q0 100 81 156q-10 23 -10 49q0 74 54 119t143 45q34 0 69.5 -12t54.5 -24l18 -11l-23 -60q-63 40 -110 40q-40 0 -60 -20.5t-20 -48.5q0 -26 22 -44.5 t53.5 -31.5t63 -29t53.5 -46t22 -73q0 -94 -88 -156q10 -22 10 -47q0 -73 -54 -119t-151 -46q-31 0 -58 7t-42.5 17.5t-26.5 21t-15 17.5zM192 337q0 -35 33.5 -58t87.5 -45.5t80 -45.5q31 27 31 70q0 31 -34.5 53t-89.5 45.5t-82 46.5q-26 -24 -26 -66z" />
<glyph unicode="&#xa8;" horiz-adv-x="422" d="M92 641q0 37 28 63q22 17 49 17q26 0 43 -17q14 -19 14 -41q0 -37 -29 -63q-22 -18 -48 -18q-25 0 -41 16.5t-16 42.5zM278 641q0 37 28 63q22 17 48 17q25 0 44 -17q14 -19 14 -41q0 -37 -29 -63q-23 -18 -49 -18q-25 0 -40.5 17t-15.5 42z" />
<glyph unicode="&#xa9;" horiz-adv-x="729" d="M99 272q0 179 96 287t262 108q126 0 194.5 -76t68.5 -205q0 -42 -5 -73q-22 -157 -114.5 -244.5t-239.5 -87.5q-127 0 -194.5 79.5t-67.5 211.5zM162 278q0 -110 54 -175t151 -65q116 0 192 70.5t94 203.5q5 38 5 65q0 108 -56 171t-154 63q-131 0 -208.5 -89.5 t-77.5 -243.5zM259 297q0 92 55.5 145.5t135.5 53.5q26 0 49 -10t33 -20l9 -9l-21 -46q-31 32 -66 32q-43 0 -70.5 -37t-27.5 -117q0 -42 21.5 -67t52.5 -25q24 0 42.5 11.5t25.5 23.5l6 12l25 -29q-1 -3 -3 -8t-11 -17t-21.5 -21.5t-36.5 -17.5t-54 -8q-60 0 -102 42.5 t-42 111.5z" />
<glyph unicode="&#xaa;" horiz-adv-x="413" d="M85 397q0 33 16.5 60t41 43t58 27t61.5 16t58 7q3 15 3 30q0 53 -55 53q-24 0 -49 -10.5t-38 -20.5l-13 -11l-20 35q5 6 15 15.5t48.5 25.5t86.5 16q142 0 142 -108q0 -9 -2 -29l-32 -226h-91l-18 39q-4 -9 -11.5 -18.5t-33.5 -21.5t-62 -12q-51 0 -78 24t-27 66z M202 410q0 -43 43 -43q40 0 54 34l15 106q-56 -7 -84 -29t-28 -68z" />
<glyph unicode="&#xab;" horiz-adv-x="536" d="M114 250l204 186l29 -37l-110 -151l67 -150l-39 -39zM299 250l204 186l29 -37l-110 -151l67 -150l-39 -39z" />
<glyph unicode="&#xac;" horiz-adv-x="495" d="M89 279l11 73h393q-4 -31 -33 -237h-67l22 164h-326z" />
<glyph unicode="&#xad;" horiz-adv-x="358" d="M77 238l10 74h271l-10 -74h-271z" />
<glyph unicode="&#xae;" horiz-adv-x="669" d="M101 382q0 169 94 273t245 104q116 0 182.5 -74.5t66.5 -197.5q0 -29 -5 -67q-20 -149 -109 -234.5t-228 -85.5q-118 0 -182 78t-64 204zM163 387q0 -103 50.5 -166.5t141.5 -63.5q120 0 196 87.5t76 234.5q0 103 -51.5 164.5t-143.5 61.5q-123 0 -196 -88.5t-73 -229.5z M274 274l37 270l6 40h99q112 0 112 -82q0 -72 -69 -102l38 -127h-78l-32 114h-27l-16 -113h-70zM365 426h30q54 0 54 79q0 38 -38 38h-29z" />
<glyph unicode="&#xaf;" horiz-adv-x="428" d="M195 624l8 58h214l-7 -58h-215z" />
<glyph unicode="&#xb0;" horiz-adv-x="421" d="M112 526q0 106 56.5 172.5t149.5 66.5q70 0 109.5 -46t39.5 -122q0 -103 -55.5 -170t-150.5 -67q-73 0 -111 45t-38 121zM219 505q0 -82 50 -82q40 0 66.5 46.5t26.5 151.5q0 82 -53 82q-90 0 -90 -198z" />
<glyph unicode="&#xb1;" d="M49 129l10 74h464l-10 -74h-464zM135 488l10 74h163l26 184h71l-26 -184h161l-10 -74h-161l-26 -185h-71l26 185h-163z" />
<glyph unicode="&#xb2;" horiz-adv-x="414" d="M68 230l13 95q32 12 70 37.5t77 63t65 90.5t26 109q0 40 -14.5 55t-47.5 15q-16 0 -40.5 -10t-41.5 -20l-17 -10l-10 57q74 48 145 48q78 0 117.5 -39.5t39.5 -100.5q0 -140 -218 -276h183l-16 -114h-331z" />
<glyph unicode="&#xb3;" horiz-adv-x="413" d="M77 269l33 54q4 -4 12 -10.5t33.5 -17.5t52.5 -11q99 0 99 138q0 50 -36 50q-19 0 -41 -22l-31 42l139 143h-177l19 115h281l-11 -77l-142 -144q51 -1 85.5 -35.5t34.5 -93.5q0 -85 -63 -133t-144 -48q-48 0 -84 12.5t-48 24.5z" />
<glyph unicode="&#xb4;" horiz-adv-x="242" d="M142 578l91 152l104 -31l-139 -130z" />
<glyph unicode="&#xb5;" horiz-adv-x="539" d="M23 -250q95 676 106 750h133l-44 -312q-4 -25 -4 -49q0 -37 14 -52t43 -15q24 0 47 9.5t34 18.5l11 10l54 390h133l-70 -500h-107l-13 44h-2q-2 -2 -5 -6t-16 -13.5t-28 -16.5t-40 -13t-54 -6q-14 0 -34 2q-10 -160 -21 -241h-137z" />
<glyph unicode="&#xb6;" horiz-adv-x="640" d="M95 406q0 119 65 181.5t220 62.5h315l-12 -88h-63l-79 -562h-101l79 562h-80l-79 -562h-98l32 232q-199 0 -199 174z" />
<glyph unicode="&#xb7;" horiz-adv-x="297" d="M118 352q0 41 34 72q26 21 58 21t53 -21q16 -19 16 -47q0 -43 -33 -72q-27 -21 -59 -21q-30 0 -49.5 19t-19.5 49z" />
<glyph unicode="&#xb8;" horiz-adv-x="249" d="M-4 -205l30 29q15 -29 50 -29q60 0 60 63q0 18 -13.5 28t-27 12.5t-13.5 3.5l25 97h44l-12 -57q0 -1 7.5 -4t18.5 -8t22.5 -13t19.5 -22.5t8 -33.5q0 -49 -33.5 -80.5t-96.5 -31.5q-33 0 -55 11.5t-28 23.5z" />
<glyph unicode="&#xb9;" horiz-adv-x="413" d="M155 669l137 81h97l-73 -520h-120l60 423l-83 -52z" />
<glyph unicode="&#xba;" horiz-adv-x="439" d="M96 462q0 102 56 161.5t163 59.5q83 0 125 -41t42 -115q0 -101 -58.5 -160.5t-161.5 -59.5q-82 0 -124 40.5t-42 114.5zM218 436q0 -79 51 -79q90 0 90 196q0 78 -51 78q-90 0 -90 -195z" />
<glyph unicode="&#xbb;" horiz-adv-x="536" d="M72 95l111 151l-67 151l40 39l150 -191l-203 -186zM257 95l111 151l-67 151l40 39l150 -191l-203 -186z" />
<glyph unicode="&#xbc;" horiz-adv-x="805" d="M155 669l137 81h97l-73 -520h-120l60 423l-83 -52zM219 -9l423 605l49 -30l-422 -606zM396 -124l1 56q66 103 141 352l114 -14q-53 -164 -176 -329h113l6 39l64 211h90l-35 -250h42l-7 -52l-44 -12l-18 -127h-124l17 126h-184z" />
<glyph unicode="&#xbd;" horiz-adv-x="843" d="M155 669l137 81h97l-73 -520h-120l60 423l-83 -52zM219 -9l423 605l49 -30l-422 -606zM437 -250l14 95q31 12 69 37.5t77 63t65 90.5t26 109q0 40 -14.5 55t-46.5 15q-16 0 -41 -10t-42 -20l-17 -10l-9 57q74 48 145 48q77 0 116.5 -39.5t39.5 -100.5q0 -142 -218 -276 h184l-16 -114h-332z" />
<glyph unicode="&#xbe;" horiz-adv-x="847" d="M80 269l33 54q4 -4 12 -10.5t33.5 -17.5t52.5 -11q99 0 99 138q0 50 -36 50q-19 0 -41 -22l-31 42l139 143h-177l19 115h281l-11 -77l-142 -144q51 -1 85.5 -35.5t34.5 -93.5q0 -85 -63 -133t-144 -48q-48 0 -84 12.5t-48 24.5zM261 -9l423 605l49 -30l-422 -606z M438 -124l1 56q66 103 141 352l114 -14q-53 -164 -176 -329h113l6 39l64 211h90l-35 -250h42l-7 -52l-44 -12l-18 -127h-124l17 126h-184z" />
<glyph unicode="&#xbf;" horiz-adv-x="445" d="M19 -91q0 64 26 105.5t63 63t75 41t66 54.5t31 88l55 4q-2 -51 -13 -86t-26.5 -53.5t-34 -32t-36 -27t-32.5 -32t-24 -53.5t-9 -86q0 -88 85 -88q22 0 42 9.5t29 19.5l9 10l30 -47q-2 -2 -5 -6.5t-14.5 -14.5t-25.5 -18t-37.5 -14.5t-50.5 -6.5q-96 0 -149.5 43.5 t-53.5 126.5zM247 423q0 41 34 72q25 21 58 21q32 0 53 -21q16 -19 16 -47q0 -44 -33 -72q-27 -21 -59 -21q-30 0 -49.5 19t-19.5 49z" />
<glyph unicode="&#xc0;" horiz-adv-x="608" d="M19 0l307 650h153l111 -650h-146l-30 182h-226l-85 -182h-84zM216 245h188l-47 306h-1zM275 838l111 35l64 -147l-64 -17z" />
<glyph unicode="&#xc1;" horiz-adv-x="608" d="M19 0l307 650h153l111 -650h-146l-30 182h-226l-85 -182h-84zM216 245h188l-47 306h-1zM351 713l91 152l104 -31l-139 -130z" />
<glyph unicode="&#xc2;" horiz-adv-x="608" d="M19 0l307 650h153l111 -650h-146l-30 182h-226l-85 -182h-84zM216 245h188l-47 306h-1zM269 766l115 122h70l80 -122l-34 -45l-92 85l-117 -85z" />
<glyph unicode="&#xc3;" horiz-adv-x="608" d="M19 0l307 650h153l111 -650h-146l-30 182h-226l-85 -182h-84zM216 245h188l-47 306h-1zM229 765q2 4 6 10t17 21.5t27.5 27.5t37.5 21.5t47 9.5q39 0 81 -23.5t65 -23.5q16 0 29.5 8t18.5 16l6 8l31 -35q-1 -3 -4 -8.5t-14 -19t-24 -24t-35 -19t-46 -8.5q-33 0 -77 24 t-72 24q-16 0 -31.5 -11t-23.5 -23l-8 -11z" />
<glyph unicode="&#xc4;" horiz-adv-x="608" d="M19 0l307 650h153l111 -650h-146l-30 182h-226l-85 -182h-84zM216 245h188l-47 306h-1zM247 776q0 37 28 63q22 17 49 17q26 0 43 -17q14 -19 14 -41q0 -37 -29 -63q-22 -18 -48 -18q-25 0 -41 16.5t-16 42.5zM433 776q0 37 28 63q22 17 48 17q25 0 44 -17q14 -19 14 -41 q0 -37 -29 -63q-22 -18 -49 -18q-25 0 -40.5 17t-15.5 42z" />
<glyph unicode="&#xc5;" horiz-adv-x="608" d="M19 0l307 650h153l111 -650h-146l-30 182h-226l-85 -182h-84zM216 245h188l-47 306h-1zM302 774q0 57 33.5 90.5t85.5 33.5q41 0 67 -24.5t26 -66.5q0 -56 -33.5 -90t-85.5 -34q-43 0 -68 24t-25 67zM348 780q0 -26 15 -40t38 -14q31 0 49.5 20t18.5 57q0 26 -15 39.5 t-38 13.5q-30 0 -49 -19.5t-19 -56.5z" />
<glyph unicode="&#xc6;" horiz-adv-x="822" d="M-14 0l453 650h426l-9 -72h-252l-30 -214h222l-10 -70h-222l-31 -222h266l-11 -72h-403l26 188h-210l-128 -188h-87zM244 252h176l46 326h-7z" />
<glyph unicode="&#xc7;" horiz-adv-x="576" d="M76 256q0 178 95 291t253 113q46 0 93.5 -14t72.5 -28l24 -13l-21 -73q-88 53 -162 53q-93 0 -149.5 -82t-56.5 -261q0 -178 150 -178q30 0 58.5 9t48 22t34.5 26.5t22 22.5l7 9l36 -48q-3 -5 -8.5 -12.5t-26.5 -27.5t-45.5 -35t-66.5 -28t-88 -13l-10 -47q0 -1 7.5 -4 t18.5 -8t22.5 -13t19.5 -22.5t8 -33.5q0 -49 -33.5 -80.5t-96.5 -31.5q-33 0 -55 11.5t-28 23.5l-6 11l30 29q15 -29 50 -29q60 0 60 63q0 18 -13.5 28t-27 12.5t-13.5 3.5l23 89q-109 11 -167.5 81t-58.5 184z" />
<glyph unicode="&#xc8;" d="M77 0l91 650h390l-10 -72h-252l-30 -214h223l-11 -70h-221l-31 -222h265l-10 -72h-404zM258 838l111 35l64 -147l-64 -17z" />
<glyph unicode="&#xc9;" d="M77 0l91 650h390l-10 -72h-252l-30 -214h223l-11 -70h-221l-31 -222h265l-10 -72h-404zM334 713l91 152l104 -31l-139 -130z" />
<glyph unicode="&#xca;" d="M77 0l91 650h390l-10 -72h-252l-30 -214h223l-11 -70h-221l-31 -222h265l-10 -72h-404zM253 766l115 122h70l80 -122l-34 -45l-92 85l-117 -85z" />
<glyph unicode="&#xcb;" d="M77 0l91 650h390l-10 -72h-252l-30 -214h223l-11 -70h-221l-31 -222h265l-10 -72h-404zM215 776q0 37 28 63q22 17 49 17q26 0 43 -17q14 -19 14 -41q0 -37 -29 -63q-22 -18 -48 -18q-25 0 -41 16.5t-16 42.5zM401 776q0 37 28 63q22 17 48 17q25 0 44 -17q14 -19 14 -41 q0 -37 -29 -63q-22 -18 -49 -18q-25 0 -40.5 17t-15.5 42z" />
<glyph unicode="&#xcc;" horiz-adv-x="293" d="M77 0l91 650h138l-91 -650h-138zM113 838l111 35l64 -147l-64 -17z" />
<glyph unicode="&#xcd;" horiz-adv-x="293" d="M77 0l91 650h138l-91 -650h-138zM189 713l91 152l104 -31l-139 -130z" />
<glyph unicode="&#xce;" horiz-adv-x="293" d="M77 0l91 650h138l-91 -650h-138zM109 766l115 122h70l80 -122l-34 -45l-92 85l-117 -85z" />
<glyph unicode="&#xcf;" horiz-adv-x="293" d="M77 0l91 650h138l-91 -650h-138zM85 776q0 37 28 63q22 17 49 17q26 0 43 -17q14 -19 14 -41q0 -37 -29 -63q-22 -18 -48 -18q-25 0 -41 16.5t-16 42.5zM271 776q0 37 28 63q22 17 48 17q25 0 44 -17q14 -19 14 -41q0 -37 -29 -63q-22 -18 -49 -18q-25 0 -40.5 17 t-15.5 42z" />
<glyph unicode="&#xd0;" horiz-adv-x="658" d="M62 289l9 66h55l42 295h221q133 0 203 -66.5t70 -196.5q0 -183 -93.5 -285t-269.5 -102h-222l40 289h-55zM225 71h85q204 0 204 342q0 86 -33 126t-102 40h-83l-32 -224h143l-9 -66h-143z" />
<glyph unicode="&#xd1;" horiz-adv-x="651" d="M77 0l91 650h143l211 -441h3l-1 45l55 396h86l-91 -650h-108l-241 488h-2v-58l-60 -430h-86zM263 765q2 4 6 10t17 21.5t27.5 27.5t37.5 21.5t47 9.5q39 0 81 -23.5t65 -23.5q16 0 29.5 8t18.5 16l6 8l31 -35q-1 -3 -4 -8.5t-14 -19t-24 -24t-35 -19t-46 -8.5 q-33 0 -77 24t-72 24q-16 0 -31.5 -11t-23.5 -23l-8 -11z" />
<glyph unicode="&#xd2;" horiz-adv-x="663" d="M76 259q0 179 90 290t250 111q132 0 196.5 -75t64.5 -193q0 -181 -97.5 -292t-244.5 -111q-123 0 -191 72t-68 198zM222 225q0 -77 31 -121t89 -44q85 0 136.5 86t51.5 275q0 76 -30 121.5t-91 45.5q-187 0 -187 -363zM298 838l111 35l64 -147l-64 -17z" />
<glyph unicode="&#xd3;" horiz-adv-x="663" d="M76 259q0 179 90 290t250 111q132 0 196.5 -75t64.5 -193q0 -181 -97.5 -292t-244.5 -111q-123 0 -191 72t-68 198zM222 225q0 -77 31 -121t89 -44q85 0 136.5 86t51.5 275q0 76 -30 121.5t-91 45.5q-187 0 -187 -363zM374 713l91 152l104 -31l-139 -130z" />
<glyph unicode="&#xd4;" horiz-adv-x="663" d="M76 259q0 179 90 290t250 111q132 0 196.5 -75t64.5 -193q0 -181 -97.5 -292t-244.5 -111q-123 0 -191 72t-68 198zM222 225q0 -77 31 -121t89 -44q85 0 136.5 86t51.5 275q0 76 -30 121.5t-91 45.5q-187 0 -187 -363zM294 766l115 122h70l80 -122l-34 -45l-92 85 l-117 -85z" />
<glyph unicode="&#xd5;" horiz-adv-x="663" d="M76 259q0 179 90 290t250 111q132 0 196.5 -75t64.5 -193q0 -181 -97.5 -292t-244.5 -111q-123 0 -191 72t-68 198zM222 225q0 -77 31 -121t89 -44q85 0 136.5 86t51.5 275q0 76 -30 121.5t-91 45.5q-187 0 -187 -363zM252 765q2 4 6 10t17 21.5t27.5 27.5t37.5 21.5 t47 9.5q39 0 81 -23.5t65 -23.5q16 0 29.5 8t19.5 16l5 8l31 -35q-1 -3 -4 -8.5t-14 -19t-24 -24t-35 -19t-46 -8.5q-33 0 -77 24t-72 24q-16 0 -32 -11t-24 -23l-7 -11z" />
<glyph unicode="&#xd6;" horiz-adv-x="663" d="M76 259q0 179 90 290t250 111q132 0 196.5 -75t64.5 -193q0 -181 -97.5 -292t-244.5 -111q-123 0 -191 72t-68 198zM222 225q0 -77 31 -121t89 -44q85 0 136.5 86t51.5 275q0 76 -30 121.5t-91 45.5q-187 0 -187 -363zM270 776q0 37 28 63q22 17 49 17q26 0 43 -17 q14 -19 14 -41q0 -37 -29 -63q-23 -18 -48 -18t-41 16.5t-16 42.5zM456 776q0 37 28 63q22 17 48 17q25 0 44 -17q14 -19 14 -41q0 -37 -29 -63q-23 -18 -49 -18q-25 0 -40.5 17t-15.5 42z" />
<glyph unicode="&#xd7;" horiz-adv-x="423" d="M73 191l134 128l-98 129l56 58l100 -132l137 132l39 -58l-134 -129l98 -128l-57 -58l-99 130l-136 -130z" />
<glyph unicode="&#xd8;" horiz-adv-x="663" d="M76 259q0 179 90 290t250 111q69 0 125 -24l51 90l40 -11l-56 -99q101 -69 101 -224q0 -181 -97.5 -292t-244.5 -111q-54 0 -104 16l-63 -112l-40 11l66 118q-118 66 -118 237zM222 225q0 -69 24 -111l247 437q-31 37 -84 37q-187 0 -187 -363zM274 81q27 -21 68 -21 q85 0 136.5 86t51.5 275q0 49 -14 89z" />
<glyph unicode="&#xd9;" horiz-adv-x="614" d="M97 183q0 28 4 53l58 414h139l-54 -383q-6 -42 -6 -75q0 -67 24.5 -97t75.5 -30q67 0 106 49t53 153l54 383h85l-58 -414q-35 -247 -273 -247q-104 0 -156 50.5t-52 143.5zM316 838l111 35l64 -147l-64 -17z" />
<glyph unicode="&#xda;" horiz-adv-x="614" d="M97 183q0 28 4 53l58 414h139l-54 -383q-6 -42 -6 -75q0 -67 24.5 -97t75.5 -30q67 0 106 49t53 153l54 383h85l-58 -414q-35 -247 -273 -247q-104 0 -156 50.5t-52 143.5zM361 713l91 152l104 -31l-139 -130z" />
<glyph unicode="&#xdb;" horiz-adv-x="614" d="M97 183q0 28 4 53l58 414h139l-54 -383q-6 -42 -6 -75q0 -67 24.5 -97t75.5 -30q67 0 106 49t53 153l54 383h85l-58 -414q-35 -247 -273 -247q-104 0 -156 50.5t-52 143.5zM295 766l115 122h70l80 -122l-34 -45l-92 85l-117 -85z" />
<glyph unicode="&#xdc;" horiz-adv-x="614" d="M97 183q0 28 4 53l58 414h139l-54 -383q-6 -42 -6 -75q0 -67 24.5 -97t75.5 -30q67 0 106 49t53 153l54 383h85l-58 -414q-35 -247 -273 -247q-104 0 -156 50.5t-52 143.5zM270 776q0 37 28 63q22 17 49 17q26 0 43 -17q14 -19 14 -41q0 -37 -29 -63q-23 -18 -48 -18 t-41 16.5t-16 42.5zM456 776q0 37 28 63q22 17 48 17q25 0 44 -17q14 -19 14 -41q0 -37 -29 -63q-23 -18 -49 -18q-25 0 -40.5 17t-15.5 42z" />
<glyph unicode="&#xdd;" horiz-adv-x="523" d="M84 650h155l102 -295h1l182 295h96l-250 -383l-36 -267h-139l35 251zM328 713l91 152l104 -31l-139 -130z" />
<glyph unicode="&#xde;" horiz-adv-x="562" d="M98 0l91 650h138l-13 -90h66q206 0 206 -184q0 -72 -25.5 -129t-66 -89t-85.5 -48.5t-91 -16.5h-69l-13 -93h-138zM258 160h59q129 0 129 227q0 57 -20.5 80.5t-61.5 23.5h-59z" />
<glyph unicode="&#xdf;" horiz-adv-x="584" d="M-84 -231l30 60q23 -19 51 -19q32 0 51.5 35.5t32.5 125.5l77 553q34 236 248 236q82 0 128 -34t46 -95q0 -106 -114 -154q128 -39 128 -188q0 -152 -64.5 -226t-177.5 -74q-35 0 -60 5.5t-33 11.5l-8 5l24 63q18 -14 56 -14q51 0 87 62.5t36 187.5q0 66 -26.5 92 t-87.5 26l10 72q4 1 10.5 3t23 11t29.5 22t23.5 37.5t10.5 55.5q0 64 -58 64q-41 0 -63 -37.5t-35 -131.5l-77 -553q-17 -121 -72.5 -176.5t-137.5 -55.5q-28 0 -50 7.5t-30 15.5z" />
<glyph unicode="&#xe0;" horiz-adv-x="542" d="M59 195q0 136 72 226t186 90q41 0 68.5 -10.5t34.5 -20.5l8 -10h4l24 30h98l-70 -500h-102l-16 44h-1q-1 -2 -3.5 -6t-13 -13.5t-24 -16.5t-37.5 -13t-53 -6q-79 0 -127 55.5t-48 150.5zM199 175q0 -108 78 -108q24 0 45 10t29.5 18.5t13.5 16.5l41 283q-20 40 -71 40 q-64 0 -100 -65t-36 -195zM245 703l111 35l64 -147l-64 -17z" />
<glyph unicode="&#xe1;" horiz-adv-x="542" d="M59 195q0 136 72 226t186 90q41 0 68.5 -10.5t34.5 -20.5l8 -10h4l24 30h98l-70 -500h-102l-16 44h-1q-1 -2 -3.5 -6t-13 -13.5t-24 -16.5t-37.5 -13t-53 -6q-79 0 -127 55.5t-48 150.5zM199 175q0 -108 78 -108q24 0 45 10t29.5 18.5t13.5 16.5l41 283q-20 40 -71 40 q-64 0 -100 -65t-36 -195zM322 578l91 152l104 -31l-139 -130z" />
<glyph unicode="&#xe2;" horiz-adv-x="542" d="M59 195q0 136 72 226t186 90q41 0 68.5 -10.5t34.5 -20.5l8 -10h4l24 30h98l-70 -500h-102l-16 44h-1q-1 -2 -3.5 -6t-13 -13.5t-24 -16.5t-37.5 -13t-53 -6q-79 0 -127 55.5t-48 150.5zM199 175q0 -108 78 -108q24 0 45 10t29.5 18.5t13.5 16.5l41 283q-20 40 -71 40 q-64 0 -100 -65t-36 -195zM242 631l115 122h70l80 -122l-34 -45l-92 85l-117 -85z" />
<glyph unicode="&#xe3;" horiz-adv-x="542" d="M59 195q0 136 72 226t186 90q41 0 68.5 -10.5t34.5 -20.5l8 -10h4l24 30h98l-70 -500h-102l-16 44h-1q-1 -2 -3.5 -6t-13 -13.5t-24 -16.5t-37.5 -13t-53 -6q-79 0 -127 55.5t-48 150.5zM198 630q2 4 6 10t17 21.5t27.5 27.5t37.5 21.5t47 9.5q39 0 81 -23.5t65 -23.5 q16 0 29.5 8t19.5 16l5 8l31 -35q-1 -3 -4 -8.5t-14 -19t-24 -24t-35 -19t-46 -8.5q-33 0 -77 24t-72 24q-16 0 -31.5 -11.5t-23.5 -22.5l-8 -11zM199 175q0 -108 78 -108q24 0 45 10t29.5 18.5t13.5 16.5l41 283q-20 40 -71 40q-64 0 -100 -65t-36 -195z" />
<glyph unicode="&#xe4;" horiz-adv-x="542" d="M59 195q0 136 72 226t186 90q41 0 68.5 -10.5t34.5 -20.5l8 -10h4l24 30h98l-70 -500h-102l-16 44h-1q-1 -2 -3.5 -6t-13 -13.5t-24 -16.5t-37.5 -13t-53 -6q-79 0 -127 55.5t-48 150.5zM199 175q0 -108 78 -108q24 0 45 10t29.5 18.5t13.5 16.5l41 283q-20 40 -71 40 q-64 0 -100 -65t-36 -195zM216 641q0 37 28 63q22 17 49 17q26 0 43 -17q14 -19 14 -41q0 -37 -29 -63q-23 -18 -48 -18t-41 16.5t-16 42.5zM402 641q0 37 28 63q22 17 48 17q25 0 44 -17q14 -19 14 -41q0 -37 -29 -63q-23 -18 -49 -18q-25 0 -40.5 17t-15.5 42z" />
<glyph unicode="&#xe5;" horiz-adv-x="542" d="M59 195q0 136 72 226t186 90q41 0 68.5 -10.5t34.5 -20.5l8 -10h4l24 30h98l-70 -500h-102l-16 44h-1q-1 -2 -3.5 -6t-13 -13.5t-24 -16.5t-37.5 -13t-53 -6q-79 0 -127 55.5t-48 150.5zM199 175q0 -108 78 -108q24 0 45 10t29.5 18.5t13.5 16.5l41 283q-20 40 -71 40 q-64 0 -100 -65t-36 -195zM273 639q0 57 33.5 90.5t85.5 33.5q41 0 67 -24.5t26 -66.5q0 -56 -33.5 -90t-85.5 -34q-43 0 -68 24t-25 67zM319 645q0 -26 14.5 -40t38.5 -14q31 0 49.5 20t18.5 57q0 26 -15 39.5t-38 13.5q-30 0 -49 -19.5t-19 -56.5z" />
<glyph unicode="&#xe6;" horiz-adv-x="757" d="M59 195q0 137 75 226.5t201 89.5q41 0 71 -11.5t39 -23.5l9 -11h5q65 45 150 45q78 0 123 -40t45 -100q0 -36 -14 -64t-40.5 -44.5t-54 -27.5t-65.5 -15.5t-64.5 -6t-59.5 -1.5q-1 -14 -1 -44q0 -111 105 -111q34 0 64 14t43 28l12 13l40 -36q-2 -3 -6.5 -9t-20.5 -21 t-35.5 -26t-52.5 -20.5t-70 -9.5q-115 0 -172 67h-4q-1 -3 -4 -7.5t-13.5 -16t-24.5 -20.5t-38.5 -16t-53.5 -7q-88 0 -138 55t-50 151zM199 175q0 -108 83 -108q47 0 76 34q-17 40 -17 94q0 128 60 212q-23 28 -66 28q-64 0 -100 -65t-36 -195zM483 268q30 0 51 1.5 t46.5 8.5t41 18.5t26 33.5t10.5 53q0 63 -65 63q-42 0 -71 -45t-39 -133z" />
<glyph unicode="&#xe7;" horiz-adv-x="446" d="M60 202q0 140 74.5 224.5t202.5 84.5q33 0 69.5 -11.5t56.5 -23.5l20 -12l-19 -64q-66 44 -112 44q-150 0 -150 -272q0 -61 27.5 -88.5t69.5 -27.5q35 0 63.5 15.5t39.5 30.5l11 16l43 -30q-2 -4 -5.5 -10.5t-18.5 -24t-33.5 -30.5t-51.5 -23.5t-72 -10.5h-6l-10 -47 q0 -1 7.5 -4t18.5 -8t22.5 -13t19.5 -22.5t8 -33.5q0 -49 -33.5 -80.5t-96.5 -31.5q-33 0 -55 11.5t-28 23.5l-6 11l30 29q15 -29 50 -29q60 0 60 63q0 18 -13.5 28t-27 12.5t-13.5 3.5l23 91q-78 13 -121.5 67t-43.5 142z" />
<glyph unicode="&#xe8;" horiz-adv-x="474" d="M59 195q0 148 75 231.5t193 83.5q78 0 123 -40t45 -100q0 -36 -14 -64t-40.5 -44.5t-54 -27.5t-65.5 -15.5t-64.5 -6t-59.5 -1.5q-1 -14 -1 -44q0 -111 105 -111q34 0 64 14t43 28l12 13l40 -36q-2 -3 -6.5 -9t-20.5 -21t-35.5 -26t-52.5 -20.5t-70 -9.5 q-97 0 -156.5 51.5t-59.5 154.5zM201 268q30 0 51 1.5t46.5 8.5t41 18.5t26 33.5t10.5 53q0 63 -65 63q-42 0 -71 -45t-39 -133zM209 703l111 35l64 -147l-64 -17z" />
<glyph unicode="&#xe9;" horiz-adv-x="474" d="M59 195q0 148 75 231.5t193 83.5q78 0 123 -40t45 -100q0 -36 -14 -64t-40.5 -44.5t-54 -27.5t-65.5 -15.5t-64.5 -6t-59.5 -1.5q-1 -14 -1 -44q0 -111 105 -111q34 0 64 14t43 28l12 13l40 -36q-2 -3 -6.5 -9t-20.5 -21t-35.5 -26t-52.5 -20.5t-70 -9.5 q-97 0 -156.5 51.5t-59.5 154.5zM201 268q30 0 51 1.5t46.5 8.5t41 18.5t26 33.5t10.5 53q0 63 -65 63q-42 0 -71 -45t-39 -133zM286 578l91 152l104 -31l-139 -130z" />
<glyph unicode="&#xea;" horiz-adv-x="474" d="M59 195q0 148 75 231.5t193 83.5q78 0 123 -40t45 -100q0 -36 -14 -64t-40.5 -44.5t-54 -27.5t-65.5 -15.5t-64.5 -6t-59.5 -1.5q-1 -14 -1 -44q0 -111 105 -111q34 0 64 14t43 28l12 13l40 -36q-2 -3 -6.5 -9t-20.5 -21t-35.5 -26t-52.5 -20.5t-70 -9.5 q-97 0 -156.5 51.5t-59.5 154.5zM201 268q30 0 51 1.5t46.5 8.5t41 18.5t26 33.5t10.5 53q0 63 -65 63q-42 0 -71 -45t-39 -133zM207 631l115 122h70l80 -122l-34 -45l-92 85l-117 -85z" />
<glyph unicode="&#xeb;" horiz-adv-x="474" d="M59 195q0 148 75 231.5t193 83.5q78 0 123 -40t45 -100q0 -36 -14 -64t-40.5 -44.5t-54 -27.5t-65.5 -15.5t-64.5 -6t-59.5 -1.5q-1 -14 -1 -44q0 -111 105 -111q34 0 64 14t43 28l12 13l40 -36q-2 -3 -6.5 -9t-20.5 -21t-35.5 -26t-52.5 -20.5t-70 -9.5 q-97 0 -156.5 51.5t-59.5 154.5zM180 641q0 37 28 63q22 17 49 17q26 0 43 -17q14 -19 14 -41q0 -37 -29 -63q-23 -18 -48 -18t-41 16.5t-16 42.5zM201 268q30 0 51 1.5t46.5 8.5t41 18.5t26 33.5t10.5 53q0 63 -65 63q-42 0 -71 -45t-39 -133zM366 641q0 37 28 63 q22 17 48 17q25 0 44 -17q14 -19 14 -41q0 -37 -29 -63q-23 -18 -49 -18q-25 0 -40.5 17t-15.5 42z" />
<glyph unicode="&#xec;" horiz-adv-x="249" d="M58 0l70 500h133l-70 -500h-133zM80 703l111 35l64 -147l-64 -17z" />
<glyph unicode="&#xed;" horiz-adv-x="249" d="M58 0l70 500h133l-70 -500h-133zM157 578l91 152l104 -31l-139 -130z" />
<glyph unicode="&#xee;" horiz-adv-x="249" d="M58 0l70 500h133l-70 -500h-133zM82 631l115 122h70l80 -122l-34 -45l-92 85l-117 -85z" />
<glyph unicode="&#xef;" horiz-adv-x="249" d="M55 641q0 37 28 63q22 17 49 17q26 0 43 -17q14 -19 14 -41q0 -37 -29 -63q-22 -18 -48 -18q-25 0 -41 16.5t-16 42.5zM58 0l70 500h133l-70 -500h-133zM241 641q0 37 28 63q22 17 48 17q25 0 44 -17q14 -19 14 -41q0 -37 -29 -63q-22 -18 -49 -18q-25 0 -40.5 17 t-15.5 42z" />
<glyph unicode="&#xf0;" horiz-adv-x="532" d="M60 196q0 154 73 234t187 80q46 0 85 -21q-16 73 -60 137l-103 -54l-13 42l88 46q-23 24 -56 49l64 37q39 -21 68 -46l84 44l13 -42l-64 -34q112 -123 112 -318q0 -30 -3 -61q-15 -145 -85.5 -222.5t-188.5 -77.5q-99 0 -150 58.5t-51 148.5zM197 165q0 -112 77 -112 q124 0 124 281q0 111 -77 111q-124 0 -124 -280z" />
<glyph unicode="&#xf1;" horiz-adv-x="534" d="M58 0l70 500h107l12 -40h3q5 6 14.5 14t47 22t82.5 14q137 0 137 -129q0 -19 -3 -42l-47 -339h-133q41 298 46 328q3 21 3 37q0 35 -14.5 48.5t-46.5 13.5q-54 0 -90 -36l-55 -391h-133zM167 630q2 4 6 10t17 21.5t27.5 27.5t37.5 21.5t47 9.5q39 0 81 -23.5t65 -23.5 q16 0 29.5 8t18.5 16l6 8l31 -35q-1 -3 -4 -8.5t-14 -19t-24 -24t-35 -19t-46 -8.5q-33 0 -77 24t-72 24q-16 0 -31.5 -11.5t-23.5 -22.5l-8 -11z" />
<glyph unicode="&#xf2;" horiz-adv-x="525" d="M60 195q0 144 72.5 230t201.5 86q94 0 147.5 -53.5t53.5 -152.5q0 -144 -75 -230t-200 -86q-93 0 -146.5 53.5t-53.5 152.5zM198 159q0 -104 76 -104q123 0 123 286q0 103 -76 103q-123 0 -123 -285zM208 703l111 35l64 -147l-64 -17z" />
<glyph unicode="&#xf3;" horiz-adv-x="525" d="M60 195q0 144 72.5 230t201.5 86q94 0 147.5 -53.5t53.5 -152.5q0 -144 -75 -230t-200 -86q-93 0 -146.5 53.5t-53.5 152.5zM198 159q0 -104 76 -104q123 0 123 286q0 103 -76 103q-123 0 -123 -285zM285 578l91 152l104 -31l-139 -130z" />
<glyph unicode="&#xf4;" horiz-adv-x="525" d="M60 195q0 144 72.5 230t201.5 86q94 0 147.5 -53.5t53.5 -152.5q0 -144 -75 -230t-200 -86q-93 0 -146.5 53.5t-53.5 152.5zM198 159q0 -104 76 -104q123 0 123 286q0 103 -76 103q-123 0 -123 -285zM205 631l115 122h70l80 -122l-34 -45l-92 85l-117 -85z" />
<glyph unicode="&#xf5;" horiz-adv-x="525" d="M60 195q0 144 72.5 230t201.5 86q94 0 147.5 -53.5t53.5 -152.5q0 -144 -75 -230t-200 -86q-93 0 -146.5 53.5t-53.5 152.5zM160 630q2 4 6 10t17 21.5t27.5 27.5t37.5 21.5t47 9.5q39 0 81 -23.5t65 -23.5q16 0 29.5 8t19.5 16l5 8l31 -35q-1 -3 -4 -8.5t-14 -19 t-24 -24t-35 -19t-46 -8.5q-33 0 -77 24t-72 24q-16 0 -31.5 -11.5t-23.5 -22.5l-8 -11zM198 159q0 -104 76 -104q123 0 123 286q0 103 -76 103q-123 0 -123 -285z" />
<glyph unicode="&#xf6;" horiz-adv-x="525" d="M60 195q0 144 72.5 230t201.5 86q94 0 147.5 -53.5t53.5 -152.5q0 -144 -75 -230t-200 -86q-93 0 -146.5 53.5t-53.5 152.5zM179 641q0 37 28 63q22 17 49 17q26 0 43 -17q14 -19 14 -41q0 -37 -29 -63q-22 -18 -48 -18q-25 0 -41 16.5t-16 42.5zM198 159q0 -104 76 -104 q123 0 123 286q0 103 -76 103q-123 0 -123 -285zM365 641q0 37 28 63q22 17 48 17q25 0 44 -17q14 -19 14 -41q0 -37 -29 -63q-22 -18 -49 -18q-25 0 -40.5 17t-15.5 42z" />
<glyph unicode="&#xf7;" d="M63 228l10 74h464l-10 -74h-464zM192 64q0 41 34 72q25 21 58 21q32 0 53 -21q16 -19 16 -47q0 -43 -33 -72q-27 -21 -59 -21q-30 0 -49.5 19t-19.5 49zM245 442q0 41 34 72q25 21 58 21q32 0 53 -21q16 -19 16 -47q0 -43 -33 -72q-27 -21 -59 -21q-30 0 -49.5 19 t-19.5 49z" />
<glyph unicode="&#xf8;" horiz-adv-x="529" d="M47 -172l99 188q-86 52 -86 179q0 144 72.5 230t201.5 86q38 0 69 -9l78 148l56 -11l-84 -159q82 -54 82 -175q0 -144 -75 -230t-200 -86q-33 0 -63 8l-95 -180zM198 159q0 -23 3 -39l164 311q-18 13 -44 13q-123 0 -123 -285zM233 65q16 -10 41 -10q123 0 123 286 q0 12 -2 30z" />
<glyph unicode="&#xf9;" horiz-adv-x="534" d="M73 118q0 20 3 42l48 340h133l-44 -312q-4 -25 -4 -49q0 -37 14 -52t43 -15q24 0 47 9.5t34 18.5l11 10l54 390h133l-70 -500h-107l-13 44h-2q-2 -2 -5 -6t-16 -13.5t-28 -16.5t-40 -13t-54 -6q-137 0 -137 129zM226 703l111 35l64 -147l-64 -17z" />
<glyph unicode="&#xfa;" horiz-adv-x="534" d="M73 118q0 20 3 42l48 340h133l-44 -312q-4 -25 -4 -49q0 -37 14 -52t43 -15q24 0 47 9.5t34 18.5l11 10l54 390h133l-70 -500h-107l-13 44h-2q-2 -2 -5 -6t-16 -13.5t-28 -16.5t-40 -13t-54 -6q-137 0 -137 129zM303 578l91 152l104 -31l-139 -130z" />
<glyph unicode="&#xfb;" horiz-adv-x="534" d="M73 118q0 20 3 42l48 340h133l-44 -312q-4 -25 -4 -49q0 -37 14 -52t43 -15q24 0 47 9.5t34 18.5l11 10l54 390h133l-70 -500h-107l-13 44h-2q-2 -2 -5 -6t-16 -13.5t-28 -16.5t-40 -13t-54 -6q-137 0 -137 129zM223 631l115 122h70l80 -122l-34 -45l-92 85l-117 -85z " />
<glyph unicode="&#xfc;" horiz-adv-x="534" d="M73 118q0 20 3 42l48 340h133l-44 -312q-4 -25 -4 -49q0 -37 14 -52t43 -15q24 0 47 9.5t34 18.5l11 10l54 390h133l-70 -500h-107l-13 44h-2q-2 -2 -5 -6t-16 -13.5t-28 -16.5t-40 -13t-54 -6q-137 0 -137 129zM197 641q0 37 28 63q22 17 49 17q26 0 43 -17 q14 -19 14 -41q0 -37 -29 -63q-22 -18 -48 -18q-25 0 -41 16.5t-16 42.5zM383 641q0 37 28 63q22 17 48 17q25 0 44 -17q14 -19 14 -41q0 -37 -29 -63q-22 -18 -49 -18q-25 0 -40.5 17t-15.5 42z" />
<glyph unicode="&#xfd;" horiz-adv-x="488" d="M-9 -246l21 78q23 -11 49 -11q46 0 79.5 36t79.5 123l-139 520h160l73 -354l153 354h82l-246 -511q-61 -126 -114.5 -188t-122.5 -62q-23 0 -42 4t-26 7zM290 578l91 152l104 -31l-139 -130z" />
<glyph unicode="&#xfe;" horiz-adv-x="541" d="M21 -254q5 39 140 1000l134 8l-41 -291h5q3 5 11 13t39.5 21t71.5 13q78 0 125 -55t47 -148q0 -136 -69 -227t-183 -91q-67 0 -109 30l-38 -269zM203 96q2 -5 7 -10.5t23 -13t43 -7.5q64 0 100.5 65t36.5 201q0 102 -79 102q-19 0 -36.5 -7t-29 -17.5t-17.5 -17t-8 -10.5 z" />
<glyph unicode="&#xff;" horiz-adv-x="488" d="M-9 -246l21 78q23 -11 49 -11q46 0 79.5 36t79.5 123l-139 520h160l73 -354l153 354h82l-246 -511q-61 -126 -114.5 -188t-122.5 -62q-23 0 -42 4t-26 7zM184 641q0 37 28 63q22 17 49 17q26 0 43 -17q14 -19 14 -41q0 -37 -29 -63q-22 -18 -48 -18q-25 0 -41 16.5 t-16 42.5zM370 641q0 37 28 63q22 17 48 17q25 0 44 -17q14 -19 14 -41q0 -37 -29 -63q-23 -18 -49 -18q-25 0 -40.5 17t-15.5 42z" />
<glyph unicode="&#x152;" horiz-adv-x="929" d="M76 259q0 179 90 290t250 111q91 0 152 -39l4 29h391l-10 -72h-252l-24 -172v-14q0 -5 -0.5 -14.5t-0.5 -13.5h217l-10 -70h-215q-6 -36 -16 -64l-22 -158h266l-10 -72h-405l3 24q-68 -35 -149 -35q-123 0 -191 72t-68 198zM222 225q0 -77 31 -121t89 -44q141 0 177 212 l5 37v5q6 48 6 107q0 76 -30 121.5t-91 45.5q-187 0 -187 -363z" />
<glyph unicode="&#x153;" horiz-adv-x="807" d="M60 195q0 144 72.5 230t201.5 86q101 0 155 -63q68 62 171 62q78 0 123 -40t45 -100q0 -36 -14 -64t-40.5 -44.5t-54 -27.5t-65.5 -15.5t-64.5 -6t-59.5 -1.5q-1 -14 -1 -44q0 -111 105 -111q34 0 64 14t42 28l13 13l40 -36q-2 -3 -6.5 -9t-20.5 -21t-35.5 -26 t-52.5 -20.5t-70 -9.5q-113 0 -170 64q-72 -64 -178 -64q-93 0 -146.5 53.5t-53.5 152.5zM198 159q0 -104 76 -104q123 0 123 286q0 103 -76 103q-123 0 -123 -285zM534 268q30 0 51 1.5t46.5 8.5t41 18.5t26 33.5t10.5 53q0 63 -65 63q-42 0 -71 -45t-39 -133z" />
<glyph unicode="&#x178;" horiz-adv-x="523" d="M84 650h155l102 -295h1l182 295h96l-250 -383l-36 -267h-139l35 251zM229 776q0 37 28 63q22 17 49 17q26 0 43 -17q14 -19 14 -41q0 -37 -29 -63q-23 -18 -48 -18t-41 16.5t-16 42.5zM415 776q0 37 28 63q22 17 48 17q25 0 44 -17q14 -19 14 -41q0 -37 -29 -63 q-22 -18 -49 -18q-25 0 -40.5 17t-15.5 42z" />
<glyph unicode="&#x2c6;" horiz-adv-x="357" d="M134 631l115 122h70l80 -122l-34 -45l-92 85l-117 -85z" />
<glyph unicode="&#x2dc;" horiz-adv-x="428" d="M124 630q2 4 6 10t17 21.5t27.5 27.5t37.5 21.5t47 9.5q39 0 81 -23.5t65 -23.5q16 0 29.5 8t19.5 16l5 8l31 -35q-1 -3 -4 -8.5t-14 -19t-24 -24t-35 -19t-46 -8.5q-33 0 -77 24t-72 24q-16 0 -31.5 -11.5t-23.5 -22.5l-8 -11z" />
<glyph unicode="&#x2000;" horiz-adv-x="449" />
<glyph unicode="&#x2001;" horiz-adv-x="898" />
<glyph unicode="&#x2002;" horiz-adv-x="449" />
<glyph unicode="&#x2003;" horiz-adv-x="898" />
<glyph unicode="&#x2004;" horiz-adv-x="299" />
<glyph unicode="&#x2005;" horiz-adv-x="224" />
<glyph unicode="&#x2006;" horiz-adv-x="149" />
<glyph unicode="&#x2007;" horiz-adv-x="149" />
<glyph unicode="&#x2008;" horiz-adv-x="112" />
<glyph unicode="&#x2009;" horiz-adv-x="179" />
<glyph unicode="&#x200a;" horiz-adv-x="49" />
<glyph unicode="&#x2010;" horiz-adv-x="333" d="M65 238l10 74h271l-10 -74h-271z" />
<glyph unicode="&#x2011;" horiz-adv-x="333" d="M65 238l10 74h271l-10 -74h-271z" />
<glyph unicode="&#x2012;" horiz-adv-x="333" d="M65 238l10 74h271l-10 -74h-271z" />
<glyph unicode="&#x2013;" d="M64 238l10 74h464l-10 -74h-464z" />
<glyph unicode="&#x2014;" horiz-adv-x="678" d="M64 238l10 74h618l-10 -74h-618z" />
<glyph unicode="&#x2018;" horiz-adv-x="181" d="M90 507q0 59 44 133.5t102 117.5l29 -37q-38 -30 -65.5 -71.5t-34.5 -79.5h5q30 0 47 -17q14 -17 14 -41q0 -36 -28 -62q-23 -18 -50 -18q-30 0 -46.5 21t-16.5 54z" />
<glyph unicode="&#x2019;" horiz-adv-x="180" d="M79 468q38 30 65.5 71t34.5 79h-7q-26 0 -42.5 16.5t-16.5 42.5q0 36 28 62q22 18 50 18t46 -18q18 -23 18 -57q0 -60 -44 -134.5t-103 -116.5z" />
<glyph unicode="&#x201a;" horiz-adv-x="180" d="M-5 -133q38 30 65 71t35 80h-8q-28 0 -45 17q-14 19 -14 41q0 36 29 62q21 18 50 18q27 0 45 -18q18 -21 18 -57q0 -59 -44 -134t-102 -117z" />
<glyph unicode="&#x201c;" horiz-adv-x="368" d="M90 507q0 59 44 133.5t102 117.5l29 -37q-38 -30 -65.5 -71.5t-34.5 -79.5h5q30 0 47 -17q14 -17 14 -41q0 -36 -28 -62q-23 -18 -50 -18q-30 0 -46.5 21t-16.5 54zM277 507q0 59 44 133.5t102 117.5l29 -37q-38 -30 -65.5 -71.5t-34.5 -79.5h5q30 0 47 -17 q14 -17 14 -41q0 -36 -28 -62q-22 -18 -50 -18q-30 0 -46.5 21t-16.5 54z" />
<glyph unicode="&#x201d;" horiz-adv-x="368" d="M79 468q38 30 65.5 71t34.5 79h-7q-26 0 -42.5 16.5t-16.5 42.5q0 36 28 62q22 18 50 18t46 -18q18 -23 18 -57q0 -60 -44 -134.5t-103 -116.5zM266 468q38 30 65.5 71t34.5 79h-7q-26 0 -42.5 16.5t-16.5 42.5q0 36 28 62q22 18 50 18t46 -18q18 -23 18 -57 q0 -60 -44 -134.5t-103 -116.5z" />
<glyph unicode="&#x201e;" horiz-adv-x="368" d="M-5 -133q38 30 65 71t35 80h-8q-28 0 -45 17q-14 19 -14 41q0 36 29 62q21 18 50 18q27 0 45 -18q18 -21 18 -57q0 -59 -44 -134t-102 -117zM182 -133q38 30 65 71t35 80h-8q-28 0 -45 17q-14 19 -14 41q0 36 29 62q21 18 50 18q27 0 45 -18q18 -21 18 -57 q0 -59 -44 -134t-102 -117z" />
<glyph unicode="&#x2022;" horiz-adv-x="380" d="M105 310q0 65 51 113q38 31 90 31q50 0 81 -31q25 -31 25 -74q0 -66 -52 -112q-40 -32 -89 -32q-51 0 -81 32q-25 29 -25 73z" />
<glyph unicode="&#x2026;" horiz-adv-x="809" d="M76 52q0 41 34 72q26 21 58 21t53 -21q16 -19 16 -47q0 -43 -33 -72q-27 -21 -59 -21q-30 0 -49.5 19t-19.5 49zM332 52q0 41 34 72q26 21 58 21t53 -21q16 -19 16 -47q0 -43 -33 -72q-27 -21 -59 -21q-30 0 -49.5 19t-19.5 49zM587 52q0 41 34 72q25 21 58 21 q32 0 53 -21q16 -19 16 -47q0 -43 -33 -72q-27 -21 -59 -21q-30 0 -49.5 19t-19.5 49z" />
<glyph unicode="&#x202f;" horiz-adv-x="179" />
<glyph unicode="&#x2039;" horiz-adv-x="352" d="M114 250l204 186l29 -37l-110 -151l67 -150l-39 -39z" />
<glyph unicode="&#x203a;" horiz-adv-x="352" d="M72 95l111 151l-67 151l40 39l150 -191l-203 -186z" />
<glyph unicode="&#x205f;" horiz-adv-x="224" />
<glyph unicode="&#x20ac;" horiz-adv-x="568" d="M71 223l9 59h48q1 34 6 67l-44 5l8 59h47q58 246 300 246q43 0 82.5 -11t58.5 -22l18 -11l-24 -69q-61 42 -129 42q-67 0 -108 -39t-59 -136h230l-10 -69h-229q-2 -22 -4 -62h225l-10 -70h-216q1 -84 33.5 -119.5t92.5 -35.5q37 0 72.5 18t51.5 36l17 18l19 -50 q-2 -4 -7 -10t-22.5 -21.5t-38 -27.5t-55.5 -21.5t-73 -9.5q-107 0 -165 60t-66 168z" />
<glyph unicode="&#x2122;" horiz-adv-x="796" d="M149 694l8 56h309l-8 -55l-118 -1l-41 -294h-82l41 294h-109zM433 400l71 350h83l44 -279l134 279h80l-41 -350h-78l25 223l-109 -223h-72l-45 234l-38 -234h-54z" />
<glyph unicode="&#xe000;" horiz-adv-x="500" d="M0 0v500h500v-500h-500z" />
</font>
</defs>
</svg>
