<?xml version="1.0" standalone="no"?>
<!DOCTYPE svg PUBLIC "-//W3C//DTD SVG 1.1//EN" "http://www.w3.org/Graphics/SVG/1.1/DTD/svg11.dtd" >
<svg xmlns="http://www.w3.org/2000/svg">
<metadata></metadata>
<defs>
<font id="texgyreadventoritalic" horiz-adv-x="554" >
<font-face units-per-em="1000" ascent="808" descent="-192" />
<missing-glyph horiz-adv-x="277" />
<glyph unicode="&#xfb01;" horiz-adv-x="487" d="M71 0l89 480h-85l12 67h85q20 99 81 145.5t147 46.5h17l-12 -67h-15q-64 0 -98 -29.5t-46 -95.5h135l-12 -67h-135l-89 -480h-74zM320 0l101 547h74l-101 -547h-74zM433 607l23 126h74l-23 -126h-74z" />
<glyph unicode="&#xfb02;" horiz-adv-x="485" d="M71 0l89 480h-85l12 67h85q20 99 81 145.5t147 46.5h17l-12 -67h-15q-64 0 -98 -29.5t-46 -95.5h135l-12 -67h-135l-89 -480h-74zM318 0l137 739h74l-137 -739h-74z" />
<glyph unicode="&#xfb03;" horiz-adv-x="732" d="M71 0l89 480h-85l12 67h85q20 99 81 145.5t147 46.5h17l-12 -67h-15q-64 0 -98 -29.5t-46 -95.5h173q20 99 81 145.5t147 46.5h17l-12 -67h-15q-64 0 -98 -29.5t-46 -95.5h135l-12 -67h-135l-89 -480h-74l89 480h-173l-89 -480h-74zM565 0l101 547h74l-101 -547h-74z M677 607l23 126h74l-23 -126h-74z" />
<glyph unicode="&#xfb04;" horiz-adv-x="732" d="M71 0l89 480h-85l12 67h85q20 99 81 145.5t147 46.5h17l-12 -67h-15q-64 0 -98 -29.5t-46 -95.5h173q20 99 81 145.5t147 46.5h17l-12 -67h-15q-64 0 -98 -29.5t-46 -95.5h135l-12 -67h-135l-89 -480h-74l89 480h-173l-89 -480h-74zM565 0l137 739h74l-137 -739h-74z" />
<glyph horiz-adv-x="1000" />
<glyph horiz-adv-x="1000" />
<glyph unicode="&#xd;" horiz-adv-x="1000" />
<glyph unicode=" "  horiz-adv-x="277" />
<glyph unicode="&#x09;" horiz-adv-x="277" />
<glyph unicode="&#xa0;" horiz-adv-x="277" />
<glyph unicode="!" horiz-adv-x="295" d="M81 0l23 126h74l-23 -126h-74zM118 197l100 542h74l-100 -542h-74z" />
<glyph unicode="&#x22;" horiz-adv-x="309" d="M139 513l42 226h50l-42 -226h-50zM252 513l42 226h50l-42 -226h-50z" />
<glyph unicode="#" d="M21 237l11 60h128l59 156h-121l11 60h132l85 226h64l-84 -226h127l83 226h66l-83 -226h111l-11 -60h-122l-57 -156h115l-11 -60h-126l-87 -237h-66l87 237h-129l-88 -237h-66l89 237h-117zM226 297h128l57 156h-127z" />
<glyph unicode="$" d="M82 178q0 18 6 50h68q-2 -24 -2 -32q0 -47 29.5 -76.5t77.5 -29.5q65 0 110.5 47.5t45.5 114.5q0 41 -23 65.5t-89 45.5q-78 24 -108 59.5t-30 90.5q0 79 51.5 139.5t131.5 75.5l15 82h66l-15 -82q68 -15 98.5 -51.5t30.5 -103.5q0 -4 -2 -26h-70q2 23 2 32q0 38 -27 62 t-69 24q-59 0 -99.5 -42.5t-40.5 -106.5q0 -29 22.5 -48.5t81.5 -39.5q90 -31 120.5 -67.5t30.5 -96.5q0 -83 -56 -150.5t-152 -84.5l-16 -85h-66l16 85q-57 8 -97.5 47t-40.5 102z" />
<glyph unicode="%" horiz-adv-x="775" d="M87 542q0 78 64 142.5t148 64.5q62 0 103.5 -41t41.5 -102q0 -81 -64 -145t-145 -64q-64 0 -106 41t-42 104zM153 0l468 739h75l-471 -739h-72zM155 552q0 -37 25 -62t63 -25q53 0 93 39t40 91q0 36 -25.5 61t-62.5 25q-53 0 -93 -38.5t-40 -90.5zM398 132q0 80 64.5 143 t147.5 63q62 0 103.5 -41t41.5 -102q0 -81 -64 -144.5t-146 -63.5q-64 0 -105.5 41t-41.5 104zM466 142q0 -37 25.5 -62t62.5 -25q53 0 93 39t40 91q0 35 -25.5 60t-62.5 25q-52 0 -92.5 -39t-40.5 -89z" />
<glyph unicode="&#x26;" horiz-adv-x="757" d="M63 173q0 61 34 119t93 95l71 37q10 5 17 9q-55 75 -55 127q0 76 63 134t146 58q66 0 107.5 -37.5t41.5 -97.5q0 -69 -39.5 -115t-140.5 -91l115 -138l146 208h82l-184 -261l153 -182l-60 -51l-141 166q-107 -166 -256 -166q-88 0 -140.5 50.5t-52.5 135.5zM135 177 q0 -53 37 -87.5t94 -34.5q51 0 104 39t97 112l-146 174q-102 -47 -144 -92.5t-42 -110.5zM300 572q0 -23 12 -45t45 -63q92 38 122 66t30 73q0 38 -23.5 59.5t-64.5 21.5q-46 0 -83.5 -34t-37.5 -78z" />
<glyph unicode="'" horiz-adv-x="198" d="M139 513l42 226h50l-42 -226h-50z" />
<glyph unicode="(" horiz-adv-x="369" d="M76 221q0 98 44.5 203t130 193t191.5 122l-12 -63q-135 -81 -206 -201.5t-71 -242.5q0 -194 141 -292l-12 -65q-98 39 -152 135.5t-54 210.5z" />
<glyph unicode=")" horiz-adv-x="369" d="M-20 -125l12 64q118 63 198 190.5t80 252.5q0 185 -142 292l12 65q94 -34 150.5 -133t56.5 -214q0 -100 -45 -203.5t-130 -189t-192 -124.5z" />
<glyph unicode="*" horiz-adv-x="425" d="M142 602l10 52l105 -22l-40 102l55 18l34 -100l70 82l41 -38l-73 -81l103 -16l-9 -52l-102 21l39 -100l-53 -19l-35 101l-70 -80l-44 36l75 79z" />
<glyph unicode="+" horiz-adv-x="606" d="M86 213v74h203v203h74v-203h203v-74h-203v-203h-74v203h-203z" />
<glyph unicode="," horiz-adv-x="277" d="M49 -67l124 193h73l-124 -193h-73z" />
<glyph unicode="-" horiz-adv-x="332" d="M50 233l12 63h272l-12 -63h-272z" />
<glyph unicode="." horiz-adv-x="277" d="M71 0l23 126h74l-23 -126h-74z" />
<glyph unicode="/" horiz-adv-x="437" d="M-14 -128l449 867h69l-451 -867h-67z" />
<glyph unicode="0" d="M41 175q0 49 10 94l39 210q25 136 102.5 204.5t195.5 68.5q89 0 146 -50.5t57 -126.5q0 -47 -9 -96l-39 -210q-53 -282 -296 -282q-95 0 -150.5 50.5t-55.5 137.5zM118 189q0 -60 39 -97t103 -37q86 0 138 53.5t74 172.5l33 181q9 52 9 88q0 63 -39.5 98.5t-100.5 35.5 q-175 0 -215 -222l-33 -181q-8 -37 -8 -92z" />
<glyph unicode="1" d="M250 672l12 67h199l-137 -739h-73l125 672h-126z" />
<glyph unicode="2" d="M3 0l12 67l306 250q107 87 143 136t36 107q0 56 -36 90t-96 34q-76 0 -127.5 -49t-65.5 -135h-73q17 112 94.5 182t184.5 70q88 0 142 -49.5t54 -130.5q0 -74 -39 -134t-143 -144l-280 -227h369l-12 -67h-469z" />
<glyph unicode="3" d="M41 171q0 22 3 60h73l-1 -15q0 -86 33.5 -123.5t97.5 -37.5q77 0 135.5 59t58.5 138q0 74 -45.5 105t-135.5 31l12 66l39 -2q61 0 103.5 40t42.5 101q0 40 -25 65.5t-68 25.5q-53 0 -92 -36.5t-45 -92.5h-73q19 93 81.5 145t143.5 52q70 0 112.5 -41t42.5 -107 q0 -113 -108 -181q92 -49 92 -153q0 -112 -84 -197.5t-194 -85.5q-88 0 -143.5 52t-55.5 132z" />
<glyph unicode="4" d="M7 135l12 67l461 537h87l-100 -537h68l-12 -67h-68l-25 -135h-73l25 135h-375zM105 202h289l81 435z" />
<glyph unicode="5" d="M37 190v42h72q0 -89 39.5 -133t104.5 -44q88 0 152.5 69t64.5 162q0 66 -40 107.5t-104 41.5q-86 0 -168 -82l-53 22l133 364h335l-12 -67h-276l-74 -204q74 35 136 35q89 0 144.5 -57.5t55.5 -148.5q0 -122 -92.5 -216t-208.5 -94q-86 0 -147.5 57t-61.5 146z" />
<glyph unicode="6" d="M36 189q0 71 24.5 125.5t109.5 152.5l233 272h85l-221 -257q50 21 91 21q84 0 137.5 -57t53.5 -147q0 -126 -90 -219t-212 -93q-93 0 -152 56.5t-59 145.5zM113 204q0 -68 40.5 -108.5t107.5 -40.5q84 0 147.5 70.5t63.5 160.5q0 67 -38.5 108t-102.5 41 q-86 0 -152 -68.5t-66 -162.5z" />
<glyph unicode="7" d="M78 0l431 672h-350l12 67h426l-12 -67l-429 -672h-78z" />
<glyph unicode="8" d="M48 176q0 74 44.5 138.5t120.5 98.5q-37 28 -49.5 52t-12.5 62q0 91 73 158t163 67q73 0 118 -41.5t45 -107.5q0 -62 -29 -113t-90 -77q95 -50 95 -146q0 -116 -81 -198t-196 -82q-92 0 -146.5 51.5t-54.5 137.5zM125 181q0 -55 38 -90.5t96 -35.5q79 0 135.5 57.5 t56.5 137.5q0 56 -36.5 90.5t-95.5 34.5q-79 0 -136.5 -56.5t-57.5 -137.5zM228 541q0 -41 30 -69t74 -28q57 0 99 44t42 99q0 44 -27 70.5t-73 26.5q-59 0 -102 -42.5t-43 -100.5z" />
<glyph unicode="9" d="M82 435q0 128 89.5 222.5t210.5 94.5q95 0 154 -56t59 -146q0 -71 -32 -137q-22 -46 -103 -141l-233 -272h-85l222 257q-50 -21 -91 -21q-83 0 -137 56.5t-54 142.5zM159 455q0 -68 38 -109.5t102 -41.5q89 0 154 68t65 160q0 68 -41 110t-107 42q-86 0 -148.5 -71.5 t-62.5 -157.5z" />
<glyph unicode=":" horiz-adv-x="277" d="M71 0l23 126h74l-23 -126h-74zM143 381l23 126h74l-23 -126h-74z" />
<glyph unicode=";" horiz-adv-x="277" d="M-1 -67l125 193h72l-124 -193h-73zM171 381l23 126h74l-23 -126h-74z" />
<glyph unicode="&#x3c;" horiz-adv-x="606" d="M125 222v56l378 317v-96l-296 -249l296 -249v-96z" />
<glyph unicode="=" horiz-adv-x="606" d="M86 121v74h480v-74h-480zM86 305v74h480v-74h-480z" />
<glyph unicode="&#x3e;" horiz-adv-x="606" d="M125 1l296 249l-296 249v96l378 -317v-56l-378 -317v96z" />
<glyph unicode="?" horiz-adv-x="591" d="M129 508q26 118 101 181t178 63q86 0 137.5 -48t51.5 -127q0 -64 -25 -108t-101 -104q-65 -52 -94.5 -91t-37.5 -81h-70q9 102 139 204q66 52 85 81q27 39 27 89q0 52 -35 84.5t-91 32.5q-148 0 -195 -176h-70zM231 0l23 126h74l-23 -126h-74z" />
<glyph unicode="@" horiz-adv-x="867" d="M103 298q0 118 64.5 223t172 168t228.5 63q123 0 204 -74.5t81 -188.5q0 -78 -45 -160.5t-113.5 -136t-132.5 -53.5q-36 0 -54 13t-25 44q-66 -52 -129 -52q-52 0 -82.5 30.5t-30.5 82.5q0 72 48 151.5t119.5 132t135.5 52.5q82 0 102 -69l26 50h61l-145 -278 q-26 -54 -30 -64t-4 -21q0 -8 9 -14t22 -6q40 0 90.5 42.5t87.5 112.5t37 136q0 96 -69.5 157t-178.5 61q-153 0 -274.5 -120.5t-121.5 -272.5q0 -117 77.5 -192.5t197.5 -75.5q137 0 252 99l34 -33q-130 -118 -304 -118q-134 0 -222 88t-88 223zM313 271q0 -32 17.5 -50.5 t46.5 -18.5q40 0 76 28.5t79 93.5q66 101 66 158q0 26 -16 42t-45 17h-5q-44 0 -96 -44.5t-87.5 -108.5t-35.5 -117z" />
<glyph unicode="A" horiz-adv-x="740" d="M-19 0l454 739h83l181 -739h-81l-61 249h-344l-154 -249h-78zM254 316h287l-80 339z" />
<glyph unicode="B" horiz-adv-x="574" d="M46 0l137 739h173q113 0 167 -35t54 -109q0 -67 -29.5 -121.5t-90.5 -79.5q56 -27 78.5 -57t22.5 -77q0 -57 -23 -109.5t-62 -86.5q-40 -35 -95.5 -49.5t-148.5 -14.5h-183zM132 67h101q138 0 193 46t55 129q0 65 -50 92q-37 20 -157 20h-91zM198 421h90q68 0 105 9 t62 32q45 42 45 116q0 53 -35.5 73.5t-129.5 20.5h-90z" />
<glyph unicode="C" horiz-adv-x="813" d="M76 290q0 123 63 229.5t170 169.5t230 63q114 0 197.5 -57t102.5 -148h-82q-61 137 -228 137q-96 0 -183 -51.5t-140 -138.5t-53 -184q0 -111 74 -183t187 -72q154 0 281 139h82q-67 -98 -165 -152.5t-210 -54.5q-145 0 -235.5 84.5t-90.5 218.5z" />
<glyph unicode="D" horiz-adv-x="744" d="M46 0l137 739h174q186 0 269 -58q118 -81 118 -233q0 -102 -43 -192t-122 -154q-68 -54 -146 -78t-188 -24h-199zM132 67h103q116 0 188 22.5t129 75.5q53 49 84 122t31 148q0 116 -73.5 176.5t-245.5 60.5h-103z" />
<glyph unicode="E" horiz-adv-x="536" d="M46 0l137 739h404l-12 -67h-330l-50 -265h319l-12 -67h-319l-51 -273h330l-12 -67h-404z" />
<glyph unicode="F" horiz-adv-x="485" d="M46 0l137 739h375l-12 -67h-301l-50 -267h290l-12 -67h-290l-63 -338h-74z" />
<glyph unicode="G" horiz-adv-x="872" d="M77 300q0 88 38.5 171t102 144.5t150 99t177.5 37.5q121 0 206 -57.5t106 -152.5h-84q-23 65 -85.5 103.5t-145.5 38.5q-157 0 -272.5 -111t-115.5 -261q0 -116 76.5 -186.5t194.5 -70.5q105 0 197.5 60t140.5 159h-414l12 67h503q-37 -147 -166 -250.5t-282 -103.5 q-149 0 -244 87.5t-95 225.5z" />
<glyph unicode="H" horiz-adv-x="683" d="M46 0l137 739h74l-60 -325h383l60 325h74l-137 -739h-74l64 347h-383l-64 -347h-74z" />
<glyph unicode="I" horiz-adv-x="226" d="M46 0l137 739h74l-137 -739h-74z" />
<glyph unicode="J" horiz-adv-x="482" d="M11 146q0 18 2 29h73q6 -64 28 -92.5t74 -28.5q62 0 100 43t56 134l95 508h74l-95 -508q-22 -121 -83.5 -183t-157.5 -62q-77 0 -121.5 41t-44.5 119z" />
<glyph unicode="K" horiz-adv-x="591" d="M46 0l137 739h74l-79 -425l421 425h93l-359 -360l222 -379h-93l-187 320l-118 -118l-37 -202h-74z" />
<glyph unicode="L" horiz-adv-x="462" d="M46 0l137 739h74l-125 -672h306l-12 -67h-380z" />
<glyph unicode="M" horiz-adv-x="919" d="M46 0l137 739h115l152 -629l385 629h115l-137 -739h-74l122 658l-400 -658h-64l-155 658l-122 -658h-74z" />
<glyph unicode="N" horiz-adv-x="740" d="M46 0l137 739h100l300 -613l114 613h74l-137 -739h-74l-320 650l-120 -650h-74z" />
<glyph unicode="O" horiz-adv-x="869" d="M76 302q0 115 66.5 219.5t176 167.5t229.5 63q133 0 227.5 -89.5t94.5 -226.5q0 -114 -66.5 -218.5t-176 -167.5t-229.5 -63q-135 0 -228.5 90t-93.5 225zM153 316q0 -110 74.5 -185.5t182.5 -75.5q149 0 266 112.5t117 254.5q0 114 -74 188t-189 74q-143 0 -260 -114 t-117 -254z" />
<glyph unicode="P" horiz-adv-x="592" d="M46 0l137 739h205q131 0 189 -39.5t58 -127.5q0 -57 -20.5 -110.5t-57.5 -90.5q-39 -39 -94 -55.5t-146 -16.5h-142l-55 -299h-74zM188 366h137q72 0 113.5 12t68.5 41q23 25 37 63t14 76q0 64 -47 92q-36 22 -161 22h-105z" />
<glyph unicode="Q" horiz-adv-x="871" d="M75 299q0 120 68 225.5t178 166.5t230 61q149 0 240.5 -84.5t91.5 -220.5q0 -103 -48.5 -198.5t-131.5 -155.5q44 -38 88 -38q9 0 16 1l-13 -69q-54 1 -84.5 14t-65.5 50q-102 -64 -233 -64q-145 0 -240.5 89t-95.5 223zM151 279q88 26 169 26q103 0 175.5 -36 t163.5 -127q79 70 113 137t34 148q0 115 -73.5 186t-192.5 71q-159 0 -273.5 -114t-114.5 -285zM171 216q16 -60 88 -110.5t162 -50.5q89 0 172 45q-66 73 -136 105t-163 32q-68 0 -123 -21z" />
<glyph unicode="R" horiz-adv-x="607" d="M46 0l137 739h183q150 0 213.5 -44.5t63.5 -141.5q0 -114 -73 -190.5t-190 -86.5l156 -276h-92l-187 335q141 0 200 24q48 20 78.5 71t30.5 111q0 71 -50 101t-167 30h-104l-125 -672h-74z" />
<glyph unicode="S" horiz-adv-x="498" d="M26 165q0 10 2 42h79q0 -80 31.5 -116t95.5 -36q72 0 124.5 52.5t52.5 124.5q0 46 -30 72.5t-109 51.5q-97 30 -127 65.5t-30 98.5q0 89 72.5 160.5t173.5 71.5q78 0 125.5 -44.5t47.5 -117.5q0 -11 -3 -38h-77q0 132 -106 132q-65 0 -110.5 -47.5t-45.5 -105.5 q0 -15 6.5 -34t15.5 -28q11 -11 29 -19.5t72 -26.5q110 -37 141 -76q32 -41 32 -101q0 -102 -81 -180.5t-188 -78.5q-85 0 -139 49.5t-54 128.5z" />
<glyph unicode="T" horiz-adv-x="426" d="M102 672l12 67h412l-12 -67h-169l-125 -672h-74l125 672h-169z" />
<glyph unicode="U" horiz-adv-x="655" d="M89 173q0 44 11 105l85 461h74l-85 -461q-9 -48 -9 -90q0 -59 40 -96t104 -37q84 0 140.5 55t77.5 168l85 461h74l-85 -461q-27 -145 -107.5 -218t-197.5 -73q-92 0 -149.5 52t-57.5 134z" />
<glyph unicode="V" horiz-adv-x="702" d="M117 739h81l140 -647l381 647h80l-443 -739h-72z" />
<glyph unicode="W" horiz-adv-x="960" d="M117 739h76l63 -643l296 643h70l58 -643l301 643h76l-349 -739h-95l-52 606l-274 -606h-96z" />
<glyph unicode="X" horiz-adv-x="609" d="M-22 0l321 378l-170 361h87l141 -296l250 296h86l-304 -361l182 -378h-88l-149 316l-269 -316h-87z" />
<glyph unicode="Y" horiz-adv-x="592" d="M109 739h82l133 -414l292 414h81l-349 -492l-46 -247h-74l46 247z" />
<glyph unicode="Z" horiz-adv-x="480" d="M-13 0l12 67l476 605h-352l12 67h435l-12 -67l-475 -605h373l-12 -67h-457z" />
<glyph unicode="[" horiz-adv-x="351" d="M102 86q0 26 10 78l55 298q16 101 84.5 176.5t168.5 100.5l-14 -75q-76 -29 -115 -78t-57 -138l-50 -271q-10 -51 -10 -88q0 -95 100 -139l-14 -75q-158 48 -158 211z" />
<glyph unicode="\" horiz-adv-x="605" d="M191 739h72l171 -739h-71z" />
<glyph unicode="]" horiz-adv-x="351" d="M-16 -125l14 75q75 27 115.5 78.5t56.5 137.5l50 272q10 51 10 88q0 96 -100 138l14 75q73 -22 115.5 -75t42.5 -123q0 -43 -9 -91l-55 -297q-20 -106 -85.5 -178t-168.5 -100z" />
<glyph unicode="^" horiz-adv-x="606" d="M21 180l347 559h84l139 -559h-81l-114 477l-292 -477h-83z" />
<glyph unicode="_" horiz-adv-x="500" d="M-53 -125l11 58h500l-11 -58h-500z" />
<glyph unicode="`" horiz-adv-x="375" d="M137 708l46 58l171 -116l-45 -56z" />
<glyph unicode="a" horiz-adv-x="683" d="M58 216q0 139 103 241.5t243 102.5q139 0 195 -110l18 97h74l-101 -547h-74l18 96q-61 -62 -111 -85.5t-120 -23.5q-110 0 -177.5 63t-67.5 166zM135 235q0 -80 50.5 -130t132.5 -50q100 0 176.5 80t76.5 184q0 75 -49.5 124t-124.5 49q-104 0 -183 -77.5t-79 -179.5z " />
<glyph unicode="b" horiz-adv-x="682" d="M33 0l137 739h74l-53 -286q43 51 104.5 79t129.5 28q105 0 173 -65t68 -165q0 -139 -104 -241t-244 -102q-67 0 -117.5 28t-76.5 79l-17 -94h-74zM148 237q0 -78 51 -130t130 -52q104 0 182 79t78 184q0 78 -49 126t-129 48q-103 0 -183 -78.5t-80 -176.5z" />
<glyph unicode="c" horiz-adv-x="647" d="M58 222q0 133 106 235.5t244 102.5q94 0 158.5 -48t82.5 -131h-83q-20 53 -64.5 82t-105.5 29q-104 0 -182.5 -78t-78.5 -181q0 -78 51.5 -128t131.5 -50q61 0 102.5 21t105.5 85h83q-70 -95 -141.5 -134.5t-158.5 -39.5q-112 0 -181.5 65t-69.5 170z" />
<glyph unicode="d" horiz-adv-x="685" d="M58 217q0 137 105 240t245 103q127 0 195 -100l52 279h74l-137 -739h-74l18 99q-53 -60 -106.5 -86t-124.5 -26q-107 0 -177 65t-70 165zM135 236q0 -81 51 -131t134 -50q99 0 177.5 80.5t78.5 182.5q0 75 -52.5 124.5t-131.5 49.5q-101 0 -179 -78t-78 -178z" />
<glyph unicode="e" horiz-adv-x="650" d="M58 220q0 135 102.5 237.5t237.5 102.5q104 0 170.5 -64t66.5 -164q0 -32 -9 -83h-495q-2 -24 -2 -28q0 -70 52 -118t127 -48q61 0 121.5 35t92.5 90h77q-48 -88 -130.5 -140.5t-173.5 -52.5q-102 0 -169.5 66.5t-67.5 166.5zM146 316h419q-4 81 -52.5 128.5t-127.5 47.5 q-78 0 -145 -49.5t-94 -126.5z" />
<glyph unicode="f" horiz-adv-x="314" d="M71 0l89 480h-85l12 67h85q20 99 81 145.5t147 46.5h17l-12 -67h-15q-64 0 -98 -29.5t-46 -95.5h135l-12 -67h-135l-89 -480h-74z" />
<glyph unicode="g" horiz-adv-x="673" d="M30 -17h72q33 -77 70 -103.5t107 -26.5q97 0 158.5 56t81.5 165l7 37q-81 -124 -231 -124q-104 0 -171 65t-67 167q0 135 103 238t236 103q67 0 109.5 -22.5t83.5 -87.5l18 97h74l-84 -449q-17 -88 -35 -132t-55 -83q-92 -98 -242 -98q-99 0 -158.5 47t-76.5 151z M134 236q0 -78 45 -129.5t128 -51.5q100 0 177.5 80.5t77.5 189.5q0 72 -50.5 119.5t-126.5 47.5q-96 0 -173.5 -76t-77.5 -180z" />
<glyph unicode="h" horiz-adv-x="610" d="M33 0l137 739h74l-49 -263q76 84 185 84q94 0 146.5 -48.5t52.5 -135.5q0 -26 -10 -82l-54 -294h-74l54 294q7 44 7 72q0 55 -39 90.5t-100 35.5q-76 0 -129 -49.5t-71 -142.5l-56 -300h-74z" />
<glyph unicode="i" horiz-adv-x="200" d="M33 0l101 547h74l-101 -547h-74zM146 607l23 126h74l-23 -126h-74z" />
<glyph unicode="j" horiz-adv-x="203" d="M-111 -192l13 71q64 4 94.5 38.5t47.5 120.5l94 509h74l-94 -509q-35 -220 -229 -230zM150 607l23 126h74l-23 -126h-74z" />
<glyph unicode="k" horiz-adv-x="502" d="M33 0l137 739h74l-97 -524l316 332h91l-264 -275l177 -272h-92l-141 219l-106 -106l-21 -113h-74z" />
<glyph unicode="l" horiz-adv-x="200" d="M33 0l137 739h74l-137 -739h-74z" />
<glyph unicode="m" horiz-adv-x="938" d="M33 0l101 547h74l-11 -63q47 47 81 61.5t85 14.5q128 0 159 -105q49 56 97 80.5t112 24.5q81 0 130.5 -43.5t49.5 -114.5q0 -31 -8 -77l-60 -325h-74l59 317q6 36 6 62q0 52 -31.5 82.5t-86.5 30.5q-69 0 -117 -43.5t-65 -131.5l-59 -317h-74l59 319q6 31 6 53 q0 59 -34 89.5t-87 30.5q-68 0 -116 -46.5t-63 -126.5l-59 -319h-74z" />
<glyph unicode="n" horiz-adv-x="610" d="M33 0l101 547h74l-13 -71q87 84 188 84q90 0 143 -49t53 -132q0 -35 -11 -92l-53 -287h-74l53 287q8 45 8 74q0 60 -37.5 95.5t-101.5 35.5q-76 0 -129 -47t-71 -144l-56 -301h-74z" />
<glyph unicode="o" horiz-adv-x="655" d="M57 215q0 141 105 243t243 102q104 0 169 -63t65 -165q0 -140 -102 -242.5t-234 -102.5q-109 0 -177.5 63.5t-68.5 164.5zM134 228q0 -77 49.5 -125t129.5 -48q104 0 176.5 78.5t72.5 191.5q0 73 -48 120t-122 47q-105 0 -181.5 -78.5t-76.5 -185.5z" />
<glyph unicode="p" horiz-adv-x="682" d="M-3 -192l137 739h74l-17 -94q37 49 100 78t134 29q108 0 174 -65t66 -170q0 -133 -104.5 -235.5t-240.5 -102.5q-140 0 -196 107l-53 -286h-74zM147 227q0 -74 51 -123t127 -49q101 0 182 76.5t81 185.5q0 76 -50.5 125.5t-128.5 49.5q-99 0 -180.5 -76.5t-81.5 -188.5z " />
<glyph unicode="q" horiz-adv-x="682" d="M57 217q0 137 103.5 240t241.5 103q145 0 197 -107l17 94h74l-137 -739h-74l53 286q-91 -107 -237 -107q-104 0 -171 65t-67 165zM134 229q0 -76 49.5 -125t126.5 -49q105 0 185 78t80 185q0 75 -51.5 124.5t-130.5 49.5q-103 0 -181 -79t-78 -184z" />
<glyph unicode="r" horiz-adv-x="301" d="M33 0l101 547h74l-14 -78q30 45 69.5 66t102.5 25l-14 -73q-158 -17 -186 -168l-59 -319h-74z" />
<glyph unicode="s" horiz-adv-x="388" d="M13 117q0 20 3 44h73q0 -62 20.5 -84t62.5 -22q46 0 79.5 33.5t33.5 78.5q0 31 -16 47.5t-72 40.5q-45 20 -62.5 30t-28.5 23q-26 29 -26 72q0 72 57.5 126t130.5 54q55 0 91 -33.5t36 -84.5q0 -19 -1 -30h-75q0 80 -65 80q-37 0 -67 -28.5t-30 -63.5q0 -38 38 -59 q18 -9 95 -44q72 -32 72 -108q0 -83 -61 -142.5t-142 -59.5q-66 0 -106 38t-40 92z" />
<glyph unicode="t" horiz-adv-x="339" d="M71 480l12 67h112l36 192h74l-36 -192h129l-12 -67h-129l-89 -480h-74l89 480h-112z" />
<glyph unicode="u" horiz-adv-x="608" d="M69 155q0 47 9 97l55 295h74l-55 -295q-6 -26 -6 -67q0 -62 34 -96t100 -34q77 0 132.5 50.5t76.5 160.5l53 281h74l-102 -547h-74l16 85q-40 -53 -85.5 -75.5t-110.5 -22.5q-87 0 -139 45.5t-52 122.5z" />
<glyph unicode="v" d="M79 547h75l107 -460l281 460h75l-331 -547h-78z" />
<glyph unicode="w" horiz-adv-x="831" d="M78 547h74l89 -458l202 391h61l56 -391l263 458h72l-313 -547h-79l-52 363l-185 -363h-80z" />
<glyph unicode="x" horiz-adv-x="480" d="M-22 0l242 279l-141 268h84l109 -211l186 211h85l-240 -268l139 -279h-85l-106 219l-189 -219h-84z" />
<glyph unicode="y" horiz-adv-x="536" d="M67 -192l127 210l-114 529h81l92 -436l266 436h79l-453 -739h-78z" />
<glyph unicode="z" horiz-adv-x="425" d="M-20 0l12 67l379 413h-292l12 67h376l-11 -63l-377 -417h318l-12 -67h-405z" />
<glyph unicode="{" horiz-adv-x="351" d="M64 272l13 69q47 8 65.5 26t25.5 64l32 170q23 89 55.5 112.5t122.5 25.5l-13 -67q-49 -4 -63 -15.5t-25 -55.5l-32 -170q-12 -58 -34 -82.5t-78 -42.5q41 -14 55.5 -31.5t14.5 -53.5l-3 -38l-32 -170q-3 -15 -3 -31q0 -21 11 -29t44 -11l10 -1l-13 -67q-73 2 -93 14 q-37 22 -37 71q0 32 4 54l32 170l3 32q0 28 -11.5 38.5t-50.5 18.5z" />
<glyph unicode="|" horiz-adv-x="672" d="M322 -125v864h74v-864h-74z" />
<glyph unicode="}" horiz-adv-x="351" d="M-16 -126l12 67q49 4 62.5 14.5t26.5 57.5l31 170q8 52 33 79.5t78 43.5q-45 20 -57.5 34.5t-12.5 44.5q0 23 5 46l32 170q1 4 1 31q0 21 -10 28.5t-42 10.5l-11 1l12 67q73 -2 93 -14q38 -23 38 -77q0 -15 -5 -47l-32 -170l-4 -41q0 -21 13.5 -31.5t48.5 -17.5l-13 -69 q-49 -9 -63.5 -23t-27.5 -66l-31 -170q-15 -81 -53 -110t-124 -29z" />
<glyph unicode="~" horiz-adv-x="606" d="M69 257q48 65 86 92.5t80 27.5q29 0 73 -19l60 -27q50 -23 75 -22q47 0 111 81l35 -47q-35 -51 -79 -81.5t-83 -30.5q-28 0 -87 26l-50 22q-47 20 -69 20q-31 0 -53 -16.5t-66 -72.5z" />
<glyph unicode="&#xa1;" horiz-adv-x="295" d="M44 -192l100 542h74l-100 -542h-74zM158 421l23 126h74l-23 -126h-74z" />
<glyph unicode="&#xa2;" d="M83 338q0 100 73 180.5t187 95.5l17 93h67l-17 -93q64 -11 104.5 -50t50.5 -101h-82q-1 2 -2.5 4.5t-2.5 4.5l-1 3q-35 72 -123 72q-77 0 -135.5 -58.5t-58.5 -135.5q0 -61 37 -98.5t97 -37.5q83 0 153 73h80q-28 -54 -84 -92t-119 -47l-16 -89h-67l16 89 q-77 7 -125.5 59t-48.5 128z" />
<glyph unicode="&#xa3;" d="M28 0l12 67h138q30 28 48 69t18 84q0 31 -15.5 59.5t-53.5 67.5h-124l13 67h76q-12 40 -12 67q0 111 88.5 191t197.5 80q93 0 152 -53.5t59 -129.5q0 -4 -2 -28h-70q0 65 -41 104t-110 39q-81 0 -139 -61t-58 -147q0 -24 15 -62h283l-13 -67h-216q47 -64 47 -128 q0 -68 -56 -152h57q102 0 155.5 54t53.5 147h72q0 -126 -79 -197t-211 -71h-285z" />
<glyph unicode="&#xa4;" d="M21 111l51 42q-23 39 -23 97q0 110 78 202l-35 43l64 54l35 -42q54 28 86 37.5t72 9.5q87 0 142 -47l51 42l43 -54l-49 -43q24 -55 24 -100q0 -55 -21.5 -109.5t-57.5 -89.5l34 -42l-64 -53l-33 42q-88 -50 -163 -50q-42 0 -73 11t-66 39l-51 -42zM121 270q0 -67 41 -107 t110 -40q87 0 151.5 64.5t64.5 152.5q0 67 -42 104t-105 37q-89 0 -154.5 -64.5t-65.5 -146.5z" />
<glyph unicode="&#xa5;" d="M67 237l12 67h182l-32 92h-140l13 67h104l-97 276h76l145 -412l290 412h76l-195 -276h102l-13 -67h-138l-66 -92h180l-12 -67h-205l-44 -237h-74l44 237h-208z" />
<glyph unicode="&#xa6;" horiz-adv-x="672" d="M322 -125v346h74v-346h-74zM322 393v346h74v-346h-74z" />
<glyph unicode="&#xa7;" horiz-adv-x="615" d="M84 22q0 16 3 42h68q-1 -9 -1 -25q0 -50 32.5 -81t84.5 -31q55 0 98 38.5t43 86.5q0 43 -78 85l-130 70q-47 26 -67.5 49.5t-20.5 53.5q0 53 31.5 101.5t86.5 79.5q-24 28 -24 70q0 76 61.5 133.5t144.5 57.5q62 0 106 -35.5t44 -85.5q0 -3 -2 -25h-71q-3 78 -93 78 q-49 0 -84.5 -32.5t-35.5 -76.5q0 -47 45 -70l143 -74q85 -44 85 -116q0 -93 -104 -169q31 -38 31 -76q0 -92 -69 -151.5t-155 -59.5q-76 0 -124 47.5t-48 115.5zM188 333q0 -14 11.5 -29.5t29.5 -25.5l181 -96q71 47 71 118q0 42 -45 65l-171 89q-33 -21 -55 -55.5 t-22 -65.5z" />
<glyph unicode="&#xa8;" horiz-adv-x="369" d="M155 607l23 126h74l-23 -126h-74zM302 607l23 126h74l-23 -126h-74z" />
<glyph unicode="&#xa9;" horiz-adv-x="747" d="M44 341q0 146 103.5 250t249.5 104t250 -104t104 -250t-104 -249.5t-250 -103.5t-249.5 103.5t-103.5 249.5zM81 341q0 -131 92.5 -223.5t223.5 -92.5t224 92.5t93 223.5t-93 224t-224 93t-223.5 -93t-92.5 -224zM163 296q-2 105 81.5 182.5t198.5 77.5q74 0 126.5 -35.5 t60.5 -90.5h-61q-36 74 -135 74q-85 0 -149 -58t-63 -135q1 -58 44 -95.5t109 -37.5q90 0 164 75h62q-39 -60 -101 -93.5t-134 -33.5q-89 0 -145 47.5t-58 122.5z" />
<glyph unicode="&#xaa;" horiz-adv-x="369" d="M61 319l9 52h318l-9 -52h-318zM115 569q0 68 57.5 122t130.5 54q53 0 88 -51l8 45h48l-54 -291h-48l8 45q-49 -52 -114 -52q-52 0 -88 37t-36 91zM168 575q0 -35 24 -60t58 -25q44 0 82 38t38 82q0 36 -22.5 61t-56.5 25q-47 0 -85 -37.5t-38 -83.5z" />
<glyph unicode="&#xab;" horiz-adv-x="425" d="M66 300l149 199l53 -32l-124 -167l62 -168l-65 -33zM240 300l149 199l53 -32l-124 -167l62 -168l-65 -33z" />
<glyph unicode="&#xac;" horiz-adv-x="606" d="M86 305v74h480v-221h-74v147h-406z" />
<glyph unicode="&#xad;" horiz-adv-x="332" d="M50 233l12 63h272l-12 -63h-272z" />
<glyph unicode="&#xae;" horiz-adv-x="747" d="M44 341q0 146 103.5 250t249.5 104t250 -104t104 -250t-104 -249.5t-250 -103.5t-249.5 103.5t-103.5 249.5zM81 341q0 -131 92.5 -223.5t223.5 -92.5t224 92.5t93 223.5t-93 224t-224 93t-223.5 -93t-92.5 -224zM215 133l77 416h116q92 0 131 -25.5t41 -81.5 q1 -62 -40 -105.5t-108 -52.5l97 -151h-73l-124 197q96 -1 132 13q26 10 42 35t15 54q-1 36 -29.5 50.5t-96.5 14.5h-56l-67 -364h-57z" />
<glyph unicode="&#xaf;" horiz-adv-x="485" d="M162 639l12 62h337l-12 -62h-337z" />
<glyph unicode="&#xb0;" horiz-adv-x="400" d="M127 532q0 62 45 105.5t110 43.5q62 0 106 -44.5t44 -105.5q0 -62 -44.5 -106t-108.5 -44q-63 0 -107.5 44t-44.5 107zM184 532q0 -39 28 -66.5t67 -27.5q40 0 68 27.5t28 65.5t-28 65.5t-66 27.5q-40 0 -68.5 -27t-28.5 -65z" />
<glyph unicode="&#xb1;" horiz-adv-x="606" d="M86 0v74h480v-74h-480zM86 287v74h203v203h74v-203h203v-74h-203v-146h-74v146h-203z" />
<glyph unicode="&#xb2;" horiz-adv-x="332" d="M37 297l9 49l191 146q76 58 93 80t17 57q0 29 -22.5 47.5t-58.5 18.5q-94 0 -114 -107h-57q11 74 60.5 116.5t122.5 42.5q57 0 92 -31t35 -82q0 -43 -25.5 -79t-89.5 -85l-161 -121h223l-9 -52h-306z" />
<glyph unicode="&#xb3;" horiz-adv-x="332" d="M61 402q0 18 3 41h57l-1 -35q-1 -27 23 -47t57 -20q45 0 80 31.5t35 71.5q0 79 -111 79h-9l10 50h24q41 0 67.5 20t26.5 51q0 24 -15 37.5t-41 13.5q-70 0 -82 -75h-57q8 55 49.5 91t97.5 36q49 0 77.5 -25.5t28.5 -68.5q0 -32 -17.5 -60t-46.5 -43q56 -29 56 -94 t-55 -116t-126 -51q-59 0 -95 32t-36 81z" />
<glyph unicode="&#xb4;" horiz-adv-x="375" d="M202 650l214 116l24 -58l-214 -114z" />
<glyph unicode="&#xb5;" horiz-adv-x="608" d="M-3 -192l137 739h74l-52 -281q-7 -38 -7 -68q0 -143 149 -143q73 0 121 47t70 164l53 281h74l-102 -547h-74l16 85q-34 -53 -72.5 -75.5t-94.5 -22.5q-112 0 -165 107l-53 -286h-74z" />
<glyph unicode="&#xb6;" horiz-adv-x="564" d="M105 510q0 96 70 162.5t192 66.5h231l-161 -872h-74l149 805h-116l-149 -805h-74l90 488q-75 8 -116.5 48t-41.5 107z" />
<glyph unicode="&#xb7;" horiz-adv-x="277" d="M99 250q0 26 18.5 44.5t44.5 18.5t44.5 -18.5t18.5 -44.5t-18.5 -44.5t-44.5 -18.5t-44.5 18.5t-18.5 44.5z" />
<glyph unicode="&#xb8;" horiz-adv-x="324" d="M19 -166l54 6q2 -18 10.5 -25.5t27.5 -7.5q24 0 41 18.5t17 45.5q1 19 -10 29.5t-30 10.5q-29 0 -51 -19l-28 19l55 94h39l-27 -53q22 5 34 5q37 0 60 -20.5t23 -54.5q0 -7 -2 -19q-8 -48 -45.5 -81t-87.5 -33q-73 0 -80 85z" />
<glyph unicode="&#xb9;" horiz-adv-x="332" d="M197 687l9 52h134l-81 -442h-58l72 390h-76z" />
<glyph unicode="&#xba;" horiz-adv-x="369" d="M62 319l9 52h305l-9 -52h-305zM111 567q0 70 56 124t129 54q53 0 88.5 -36t35.5 -90q0 -69 -56.5 -123t-129.5 -54q-52 0 -87.5 36t-35.5 89zM164 572q0 -35 23.5 -58t58.5 -23q49 0 85 37.5t36 88.5q0 32 -23.5 55.5t-56.5 23.5q-50 0 -86.5 -37t-36.5 -87z" />
<glyph unicode="&#xbb;" horiz-adv-x="425" d="M35 132l124 168l-62 167l65 32l75 -199l-149 -201zM209 132l124 168l-62 167l65 32l75 -199l-149 -201z" />
<glyph unicode="&#xbc;" horiz-adv-x="831" d="M187 0l479 739h54l-479 -739h-54zM204 687l9 52h134l-81 -442h-58l72 390h-76zM454 79l9 48l285 315h63l-58 -311h42l-9 -52h-42l-15 -79h-58l15 79h-232zM534 131h161l43 227z" />
<glyph unicode="&#xbd;" horiz-adv-x="831" d="M177 0l479 739h54l-479 -739h-54zM194 687l9 52h134l-81 -442h-58l72 390h-76zM476 0l9 49l191 146q76 58 93 80t17 57q0 29 -22.5 47.5t-58.5 18.5q-94 0 -114 -107h-57q11 74 60.5 116.5t122.5 42.5q57 0 92 -31t35 -82q0 -43 -25.5 -79t-89.5 -85l-161 -121h223 l-9 -52h-306z" />
<glyph unicode="&#xbe;" horiz-adv-x="831" d="M61 402q0 18 3 41h57l-1 -35q-1 -27 23 -47t57 -20q45 0 80 31.5t35 71.5q0 79 -111 79h-9l10 50h24q41 0 67.5 20t26.5 51q0 24 -15 37.5t-41 13.5q-70 0 -82 -75h-57q8 55 49.5 91t97.5 36q49 0 77.5 -25.5t28.5 -68.5q0 -32 -17.5 -60t-46.5 -43q56 -29 56 -94 t-55 -116t-126 -51q-59 0 -95 32t-36 81zM197 0l479 739h54l-479 -739h-54zM454 79l9 48l285 315h63l-58 -311h42l-9 -52h-42l-15 -79h-58l15 79h-232zM534 131h161l43 227z" />
<glyph unicode="&#xbf;" horiz-adv-x="591" d="M35 -30q0 64 25 108t101 104q65 52 94.5 91t37.5 81h70q-9 -102 -139 -204q-66 -52 -85 -81q-27 -39 -27 -89q0 -52 35 -84.5t91 -32.5q148 0 195 176h70q-26 -118 -101 -181t-178 -63q-86 0 -137.5 48t-51.5 127zM304 421l23 126h74l-23 -126h-74z" />
<glyph unicode="&#xc0;" horiz-adv-x="740" d="M-19 0l454 739h83l181 -739h-81l-61 249h-344l-154 -249h-78zM254 316h287l-80 339zM353 890l46 58l171 -116l-45 -56z" />
<glyph unicode="&#xc1;" horiz-adv-x="740" d="M-19 0l454 739h83l181 -739h-81l-61 249h-344l-154 -249h-78zM254 316h287l-80 339zM417 832l214 116l24 -58l-214 -114z" />
<glyph unicode="&#xc2;" horiz-adv-x="740" d="M-19 0l454 739h83l181 -739h-81l-61 249h-344l-154 -249h-78zM254 316h287l-80 339zM309 789l168 126h66l120 -126h-89l-72 74l-102 -74h-91z" />
<glyph unicode="&#xc3;" horiz-adv-x="740" d="M-19 0l454 739h83l181 -739h-81l-61 249h-344l-154 -249h-78zM254 316h287l-80 339zM352 851q49 51 89 51q14 0 55 -18.5t50 -18.5q36 0 71 38l21 -46q-40 -55 -92 -55q-27 0 -96 33q-7 4 -17 4q-9 0 -18 -5.5t-40 -27.5z" />
<glyph unicode="&#xc4;" horiz-adv-x="740" d="M-19 0l454 739h83l181 -739h-81l-61 249h-344l-154 -249h-78zM254 316h287l-80 339zM374 789l23 126h74l-23 -126h-74zM521 789l23 126h74l-23 -126h-74z" />
<glyph unicode="&#xc5;" horiz-adv-x="740" d="M-19 0l454 739h83l181 -739h-81l-61 249h-344l-154 -249h-78zM254 316h287l-80 339zM396 843q0 50 35.5 86.5t84.5 36.5q39 0 62.5 -24t23.5 -63q0 -44 -38 -79.5t-84 -35.5q-36 0 -60 22.5t-24 56.5zM438 854q0 -20 14 -33t36 -13q26 0 49 21t23 45q0 20 -15 34t-36 14 q-27 0 -49 -21t-22 -47z" />
<glyph unicode="&#xc6;" horiz-adv-x="992" d="M-19 0l648 739h414l-12 -67h-319l-50 -265h308l-12 -67h-308l-51 -273h319l-12 -67h-393l46 250h-271l-219 -250h-88zM348 317h224l60 327z" />
<glyph unicode="&#xc7;" horiz-adv-x="813" d="M76 290q0 123 63 229.5t170 169.5t230 63q114 0 197.5 -57t102.5 -148h-82q-61 137 -228 137q-96 0 -183 -51.5t-140 -138.5t-53 -184q0 -111 74 -183t187 -72q154 0 281 139h82q-66 -98 -163.5 -152t-208.5 -55l-18 -35q22 5 34 5q37 0 60 -20.5t23 -54.5q0 -7 -2 -19 q-8 -48 -45.5 -81t-87.5 -33q-73 0 -80 85l54 6q2 -18 10.5 -25.5t27.5 -7.5q24 0 41 18.5t17 45.5q1 19 -10 29.5t-30 10.5q-29 0 -51 -19l-28 19l45 78q-130 11 -209.5 93.5t-79.5 207.5z" />
<glyph unicode="&#xc8;" horiz-adv-x="536" d="M46 0l137 739h404l-12 -67h-330l-50 -265h319l-12 -67h-319l-51 -273h330l-12 -67h-404zM261 890l46 58l171 -116l-45 -56z" />
<glyph unicode="&#xc9;" horiz-adv-x="536" d="M46 0l137 739h404l-12 -67h-330l-50 -265h319l-12 -67h-319l-51 -273h330l-12 -67h-404zM326 832l214 116l24 -58l-214 -114z" />
<glyph unicode="&#xca;" horiz-adv-x="536" d="M46 0l137 739h404l-12 -67h-330l-50 -265h319l-12 -67h-319l-51 -273h330l-12 -67h-404zM218 789l168 126h66l120 -126h-89l-72 74l-102 -74h-91z" />
<glyph unicode="&#xcb;" horiz-adv-x="536" d="M46 0l137 739h404l-12 -67h-330l-50 -265h319l-12 -67h-319l-51 -273h330l-12 -67h-404zM282 789l23 126h74l-23 -126h-74zM429 789l23 126h74l-23 -126h-74z" />
<glyph unicode="&#xcc;" horiz-adv-x="226" d="M46 0l137 739h74l-137 -739h-74zM92 890l46 58l171 -116l-45 -56z" />
<glyph unicode="&#xcd;" horiz-adv-x="226" d="M46 0l137 739h74l-137 -739h-74zM165 832l214 116l24 -58l-214 -114z" />
<glyph unicode="&#xce;" horiz-adv-x="226" d="M46 0l137 739h74l-137 -739h-74zM53 789l168 126h66l120 -126h-89l-72 74l-102 -74h-91z" />
<glyph unicode="&#xcf;" horiz-adv-x="226" d="M46 0l137 739h74l-137 -739h-74zM117 789l23 126h74l-23 -126h-74zM264 789l23 126h74l-23 -126h-74z" />
<glyph unicode="&#xd0;" horiz-adv-x="790" d="M63 347l12 67h93l61 325h174q100 0 162 -13.5t107 -44.5q118 -82 118 -230q0 -216 -165 -349q-68 -54 -146 -78t-188 -24h-199l64 347h-93zM179 67h103q115 0 187 22.5t129 75.5q53 49 84 122t31 148q0 116 -73.5 176.5t-245.5 60.5h-103l-49 -258h206l-12 -67h-206z" />
<glyph unicode="&#xd1;" horiz-adv-x="740" d="M46 0l137 739h100l300 -613l114 613h74l-137 -739h-74l-320 650l-120 -650h-74zM352 851q49 51 89 51q14 0 55 -18.5t50 -18.5q36 0 71 38l21 -46q-40 -55 -92 -55q-27 0 -96 33q-7 4 -17 4q-9 0 -18 -5.5t-40 -27.5z" />
<glyph unicode="&#xd2;" horiz-adv-x="869" d="M76 302q0 115 66.5 219.5t176 167.5t229.5 63q133 0 227.5 -89.5t94.5 -226.5q0 -114 -66.5 -218.5t-176 -167.5t-229.5 -63q-135 0 -228.5 90t-93.5 225zM153 316q0 -110 74.5 -185.5t182.5 -75.5q149 0 266 112.5t117 254.5q0 114 -74 188t-189 74q-143 0 -260 -114 t-117 -254zM422 890l46 58l171 -116l-45 -56z" />
<glyph unicode="&#xd3;" horiz-adv-x="869" d="M76 302q0 115 66.5 219.5t176 167.5t229.5 63q133 0 227.5 -89.5t94.5 -226.5q0 -114 -66.5 -218.5t-176 -167.5t-229.5 -63q-135 0 -228.5 90t-93.5 225zM153 316q0 -110 74.5 -185.5t182.5 -75.5q149 0 266 112.5t117 254.5q0 114 -74 188t-189 74q-143 0 -260 -114 t-117 -254zM486 832l214 116l24 -58l-214 -114z" />
<glyph unicode="&#xd4;" horiz-adv-x="869" d="M76 302q0 115 66.5 219.5t176 167.5t229.5 63q133 0 227.5 -89.5t94.5 -226.5q0 -114 -66.5 -218.5t-176 -167.5t-229.5 -63q-135 0 -228.5 90t-93.5 225zM153 316q0 -110 74.5 -185.5t182.5 -75.5q149 0 266 112.5t117 254.5q0 114 -74 188t-189 74q-143 0 -260 -114 t-117 -254zM378 789l168 126h66l120 -126h-89l-72 74l-102 -74h-91z" />
<glyph unicode="&#xd5;" horiz-adv-x="869" d="M76 302q0 115 66.5 219.5t176 167.5t229.5 63q133 0 227.5 -89.5t94.5 -226.5q0 -114 -66.5 -218.5t-176 -167.5t-229.5 -63q-135 0 -228.5 90t-93.5 225zM153 316q0 -110 74.5 -185.5t182.5 -75.5q149 0 266 112.5t117 254.5q0 114 -74 188t-189 74q-143 0 -260 -114 t-117 -254zM421 851q49 51 89 51q14 0 55 -18.5t50 -18.5q36 0 71 38l21 -46q-40 -55 -92 -55q-27 0 -96 33q-7 4 -17 4q-9 0 -18 -5.5t-40 -27.5z" />
<glyph unicode="&#xd6;" horiz-adv-x="869" d="M76 302q0 115 66.5 219.5t176 167.5t229.5 63q133 0 227.5 -89.5t94.5 -226.5q0 -114 -66.5 -218.5t-176 -167.5t-229.5 -63q-135 0 -228.5 90t-93.5 225zM153 316q0 -110 74.5 -185.5t182.5 -75.5q149 0 266 112.5t117 254.5q0 114 -74 188t-189 74q-143 0 -260 -114 t-117 -254zM443 789l23 126h74l-23 -126h-74zM590 789l23 126h74l-23 -126h-74z" />
<glyph unicode="&#xd7;" horiz-adv-x="606" d="M130 106l144 144l-144 144l52 52l144 -144l144 144l52 -52l-144 -144l144 -144l-52 -52l-144 144l-144 -144z" />
<glyph unicode="&#xd8;" horiz-adv-x="868" d="M42 -42l117 124q-86 84 -86 212q0 119 65.5 225.5t172 169.5t223.5 63q116 0 199 -56l117 125l45 -43l-114 -122q86 -84 86 -214q0 -115 -66 -221t-174.5 -170t-225.5 -64q-51 0 -104 15t-89 40l-118 -125zM150 309q0 -56 12 -90t49 -81l471 503q-62 43 -158 43 q-147 0 -260.5 -117t-113.5 -258zM259 97q75 -42 151 -42q146 0 263 111.5t117 259.5q0 53 -11 86t-43 78l-7 10z" />
<glyph unicode="&#xd9;" horiz-adv-x="655" d="M89 173q0 44 11 105l85 461h74l-85 -461q-9 -48 -9 -90q0 -59 40 -96t104 -37q84 0 140.5 55t77.5 168l85 461h74l-85 -461q-27 -145 -107.5 -218t-197.5 -73q-92 0 -149.5 52t-57.5 134zM312 890l46 58l171 -116l-45 -56z" />
<glyph unicode="&#xda;" horiz-adv-x="655" d="M89 173q0 44 11 105l85 461h74l-85 -461q-9 -48 -9 -90q0 -59 40 -96t104 -37q84 0 140.5 55t77.5 168l85 461h74l-85 -461q-27 -145 -107.5 -218t-197.5 -73q-92 0 -149.5 52t-57.5 134zM376 832l214 116l24 -58l-214 -114z" />
<glyph unicode="&#xdb;" horiz-adv-x="655" d="M89 173q0 44 11 105l85 461h74l-85 -461q-9 -48 -9 -90q0 -59 40 -96t104 -37q84 0 140.5 55t77.5 168l85 461h74l-85 -461q-27 -145 -107.5 -218t-197.5 -73q-92 0 -149.5 52t-57.5 134zM268 789l168 126h66l120 -126h-89l-72 74l-102 -74h-91z" />
<glyph unicode="&#xdc;" horiz-adv-x="655" d="M89 173q0 44 11 105l85 461h74l-85 -461q-9 -48 -9 -90q0 -59 40 -96t104 -37q84 0 140.5 55t77.5 168l85 461h74l-85 -461q-27 -145 -107.5 -218t-197.5 -73q-92 0 -149.5 52t-57.5 134zM333 789l23 126h74l-23 -126h-74zM480 789l23 126h74l-23 -126h-74z" />
<glyph unicode="&#xdd;" horiz-adv-x="592" d="M109 739h82l133 -414l292 414h81l-349 -492l-46 -247h-74l46 247zM343 832l214 116l24 -58l-214 -114z" />
<glyph unicode="&#xde;" horiz-adv-x="592" d="M46 0l137 739h74l-27 -147h130q131 0 189 -39.5t58 -127.5q0 -57 -20.5 -110.5t-57.5 -90.5q-39 -39 -94 -55.5t-146 -16.5h-141l-28 -152h-74zM160 219h137q72 0 113.5 12t68.5 41q23 25 37 63t14 76q0 64 -47 92q-36 22 -161 22h-105z" />
<glyph unicode="&#xdf;" d="M29 0l89 481q27 140 90 205.5t165 65.5q77 0 125 -45.5t48 -118.5q0 -132 -115 -199q104 -36 104 -144q0 -105 -73 -181.5t-174 -76.5q-128 0 -165 122l-20 -109h-74zM141 203h51q-4 -20 -4 -31q0 -52 30.5 -84.5t79.5 -32.5q64 0 112 52.5t48 122.5q0 53 -41.5 83 t-116.5 30q-21 0 -43 -2l13 67h15q79 0 131.5 49t52.5 117q0 50 -30 80t-79 30q-68 0 -108.5 -48.5t-59.5 -154.5z" />
<glyph unicode="&#xe0;" horiz-adv-x="683" d="M58 216q0 139 103 241.5t243 102.5q139 0 195 -110l18 97h74l-101 -547h-74l18 96q-61 -62 -111 -85.5t-120 -23.5q-110 0 -177.5 63t-67.5 166zM135 235q0 -80 50.5 -130t132.5 -50q100 0 176.5 80t76.5 184q0 75 -49.5 124t-124.5 49q-104 0 -183 -77.5t-79 -179.5z M280 708l46 58l171 -116l-45 -56z" />
<glyph unicode="&#xe1;" horiz-adv-x="683" d="M58 216q0 139 103 241.5t243 102.5q139 0 195 -110l18 97h74l-101 -547h-74l18 96q-61 -62 -111 -85.5t-120 -23.5q-110 0 -177.5 63t-67.5 166zM135 235q0 -80 50.5 -130t132.5 -50q100 0 176.5 80t76.5 184q0 75 -49.5 124t-124.5 49q-104 0 -183 -77.5t-79 -179.5z M344 650l214 116l24 -58l-214 -114z" />
<glyph unicode="&#xe2;" horiz-adv-x="683" d="M58 216q0 139 103 241.5t243 102.5q139 0 195 -110l18 97h74l-101 -547h-74l18 96q-61 -62 -111 -85.5t-120 -23.5q-110 0 -177.5 63t-67.5 166zM135 235q0 -80 50.5 -130t132.5 -50q100 0 176.5 80t76.5 184q0 75 -49.5 124t-124.5 49q-104 0 -183 -77.5t-79 -179.5z M235 607l168 126h66l120 -126h-89l-72 74l-102 -74h-91z" />
<glyph unicode="&#xe3;" horiz-adv-x="683" d="M58 216q0 139 103 241.5t243 102.5q139 0 195 -110l18 97h74l-101 -547h-74l18 96q-61 -62 -111 -85.5t-120 -23.5q-110 0 -177.5 63t-67.5 166zM135 235q0 -80 50.5 -130t132.5 -50q100 0 176.5 80t76.5 184q0 75 -49.5 124t-124.5 49q-104 0 -183 -77.5t-79 -179.5z M277 669q49 51 89 51q14 0 55 -18.5t50 -18.5q36 0 71 38l21 -46q-40 -55 -92 -55q-27 0 -96 33q-7 4 -17 4q-9 0 -18 -5.5t-40 -27.5z" />
<glyph unicode="&#xe4;" horiz-adv-x="683" d="M58 216q0 139 103 241.5t243 102.5q139 0 195 -110l18 97h74l-101 -547h-74l18 96q-61 -62 -111 -85.5t-120 -23.5q-110 0 -177.5 63t-67.5 166zM135 235q0 -80 50.5 -130t132.5 -50q100 0 176.5 80t76.5 184q0 75 -49.5 124t-124.5 49q-104 0 -183 -77.5t-79 -179.5z M300 607l23 126h74l-23 -126h-74zM447 607l23 126h74l-23 -126h-74z" />
<glyph unicode="&#xe5;" horiz-adv-x="683" d="M58 216q0 139 103 241.5t243 102.5q139 0 195 -110l18 97h74l-101 -547h-74l18 96q-61 -62 -111 -85.5t-120 -23.5q-110 0 -177.5 63t-67.5 166zM135 235q0 -80 50.5 -130t132.5 -50q100 0 176.5 80t76.5 184q0 75 -49.5 124t-124.5 49q-104 0 -183 -77.5t-79 -179.5z M323 658q0 50 35.5 86.5t84.5 36.5q38 0 61.5 -24t23.5 -63q0 -44 -38 -79.5t-84 -35.5q-36 0 -59.5 22.5t-23.5 56.5zM365 669q0 -20 13.5 -33t35.5 -13q26 0 49.5 21t23.5 45q0 20 -15 34t-37 14q-26 0 -48 -21t-22 -47z" />
<glyph unicode="&#xe6;" horiz-adv-x="1157" d="M58 219q0 131 103 236t241 105q144 0 198 -108l18 95h71l-18 -95q105 108 235 108q104 0 170 -63.5t66 -163.5q0 -40 -10 -86h-495q-1 -10 -1 -22q0 -72 52.5 -121t129.5 -49q62 0 121 34t90 89h77q-36 -79 -124.5 -135t-177.5 -56q-128 0 -200 105l-17 -92h-71l17 92 q-102 -105 -233 -105q-109 0 -175.5 64t-66.5 168zM135 231q0 -77 50 -126.5t127 -49.5q104 0 183 79.5t79 184.5q0 77 -49.5 125t-128.5 48q-107 0 -184 -79t-77 -182zM653 314h420q-1 82 -49 130t-128 48q-81 0 -150 -50.5t-93 -127.5z" />
<glyph unicode="&#xe7;" horiz-adv-x="647" d="M58 222q0 133 106 235.5t244 102.5q94 0 158.5 -48t82.5 -131h-83q-20 53 -64.5 82t-105.5 29q-104 0 -182.5 -78t-78.5 -181q0 -78 51.5 -128t131.5 -50q61 0 102.5 21t105.5 85h83q-68 -93 -138.5 -132.5t-155.5 -41.5l-18 -35q22 5 34 5q37 0 60 -20.5t23 -54.5 q0 -7 -2 -19q-8 -48 -45.5 -81t-87.5 -33q-73 0 -80 85l54 6q2 -18 10.5 -25.5t27.5 -7.5q24 0 41 18.5t17 45.5q1 19 -10 29.5t-30 10.5q-29 0 -51 -19l-28 19l45 78q-98 10 -157.5 73t-59.5 160z" />
<glyph unicode="&#xe8;" horiz-adv-x="650" d="M58 220q0 135 102.5 237.5t237.5 102.5q104 0 170.5 -64t66.5 -164q0 -32 -9 -83h-495q-2 -24 -2 -28q0 -70 52 -118t127 -48q61 0 121.5 35t92.5 90h77q-48 -88 -130.5 -140.5t-173.5 -52.5q-102 0 -169.5 66.5t-67.5 166.5zM146 316h419q-4 81 -52.5 128.5t-127.5 47.5 q-78 0 -145 -49.5t-94 -126.5zM274 708l46 58l171 -116l-45 -56z" />
<glyph unicode="&#xe9;" horiz-adv-x="650" d="M58 220q0 135 102.5 237.5t237.5 102.5q104 0 170.5 -64t66.5 -164q0 -32 -9 -83h-495q-2 -24 -2 -28q0 -70 52 -118t127 -48q61 0 121.5 35t92.5 90h77q-48 -88 -130.5 -140.5t-173.5 -52.5q-102 0 -169.5 66.5t-67.5 166.5zM146 316h419q-4 81 -52.5 128.5t-127.5 47.5 q-78 0 -145 -49.5t-94 -126.5zM338 650l214 116l24 -58l-214 -114z" />
<glyph unicode="&#xea;" horiz-adv-x="650" d="M58 220q0 135 102.5 237.5t237.5 102.5q104 0 170.5 -64t66.5 -164q0 -32 -9 -83h-495q-2 -24 -2 -28q0 -70 52 -118t127 -48q61 0 121.5 35t92.5 90h77q-48 -88 -130.5 -140.5t-173.5 -52.5q-102 0 -169.5 66.5t-67.5 166.5zM146 316h419q-4 81 -52.5 128.5t-127.5 47.5 q-78 0 -145 -49.5t-94 -126.5zM229 607l168 126h66l120 -126h-89l-72 74l-102 -74h-91z" />
<glyph unicode="&#xeb;" horiz-adv-x="650" d="M58 220q0 135 102.5 237.5t237.5 102.5q104 0 170.5 -64t66.5 -164q0 -32 -9 -83h-495q-2 -24 -2 -28q0 -70 52 -118t127 -48q61 0 121.5 35t92.5 90h77q-48 -88 -130.5 -140.5t-173.5 -52.5q-102 0 -169.5 66.5t-67.5 166.5zM146 316h419q-4 81 -52.5 128.5t-127.5 47.5 q-78 0 -145 -49.5t-94 -126.5zM294 607l23 126h74l-23 -126h-74zM441 607l23 126h74l-23 -126h-74z" />
<glyph unicode="&#xec;" horiz-adv-x="200" d="M33 0l101 547h74l-101 -547h-74zM45 708l46 58l171 -116l-45 -56z" />
<glyph unicode="&#xed;" horiz-adv-x="200" d="M33 0l101 547h74l-101 -547h-74zM118 650l214 116l24 -58l-214 -114z" />
<glyph unicode="&#xee;" horiz-adv-x="200" d="M5 607l168 126h66l120 -126h-89l-72 74l-102 -74h-91zM33 0l101 547h74l-101 -547h-74z" />
<glyph unicode="&#xef;" horiz-adv-x="200" d="M33 0l101 547h74l-101 -547h-74zM70 607l23 126h74l-23 -126h-74zM217 607l23 126h74l-23 -126h-74z" />
<glyph unicode="&#xf0;" horiz-adv-x="655" d="M57 220q0 134 101 235.5t234 101.5q44 0 91 -17l-74 92l-95 -40l-28 45l86 37l-46 45l55 37q10 -8 58 -55l100 40l29 -45l-93 -37q168 -173 168 -313q0 -149 -99.5 -254t-241.5 -105q-111 0 -178 63.5t-67 169.5zM134 229q0 -79 49.5 -126.5t131.5 -47.5q103 0 177 77.5 t74 186.5q0 77 -47.5 125t-123.5 48q-106 0 -183.5 -78t-77.5 -185z" />
<glyph unicode="&#xf1;" horiz-adv-x="610" d="M33 0l101 547h74l-13 -71q87 84 188 84q90 0 143 -49t53 -132q0 -35 -11 -92l-53 -287h-74l53 287q8 45 8 74q0 60 -37.5 95.5t-101.5 35.5q-76 0 -129 -47t-71 -144l-56 -301h-74zM251 669q49 51 89 51q14 0 55 -18.5t50 -18.5q36 0 71 38l21 -46q-40 -55 -92 -55 q-27 0 -96 33q-7 4 -17 4q-9 0 -18 -5.5t-40 -27.5z" />
<glyph unicode="&#xf2;" horiz-adv-x="655" d="M57 215q0 141 105 243t243 102q104 0 169 -63t65 -165q0 -140 -102 -242.5t-234 -102.5q-109 0 -177.5 63.5t-68.5 164.5zM134 228q0 -77 49.5 -125t129.5 -48q104 0 176.5 78.5t72.5 191.5q0 73 -48 120t-122 47q-105 0 -181.5 -78.5t-76.5 -185.5zM281 708l46 58 l171 -116l-45 -56z" />
<glyph unicode="&#xf3;" horiz-adv-x="655" d="M57 215q0 141 105 243t243 102q104 0 169 -63t65 -165q0 -140 -102 -242.5t-234 -102.5q-109 0 -177.5 63.5t-68.5 164.5zM134 228q0 -77 49.5 -125t129.5 -48q104 0 176.5 78.5t72.5 191.5q0 73 -48 120t-122 47q-105 0 -181.5 -78.5t-76.5 -185.5zM345 650l214 116 l24 -58l-214 -114z" />
<glyph unicode="&#xf4;" horiz-adv-x="655" d="M57 215q0 141 105 243t243 102q104 0 169 -63t65 -165q0 -140 -102 -242.5t-234 -102.5q-109 0 -177.5 63.5t-68.5 164.5zM134 228q0 -77 49.5 -125t129.5 -48q104 0 176.5 78.5t72.5 191.5q0 73 -48 120t-122 47q-105 0 -181.5 -78.5t-76.5 -185.5zM236 607l168 126h66 l120 -126h-89l-72 74l-102 -74h-91z" />
<glyph unicode="&#xf5;" horiz-adv-x="655" d="M57 215q0 141 105 243t243 102q104 0 169 -63t65 -165q0 -140 -102 -242.5t-234 -102.5q-109 0 -177.5 63.5t-68.5 164.5zM134 228q0 -77 49.5 -125t129.5 -48q104 0 176.5 78.5t72.5 191.5q0 73 -48 120t-122 47q-105 0 -181.5 -78.5t-76.5 -185.5zM278 669q49 51 89 51 q14 0 55 -18.5t50 -18.5q36 0 71 38l21 -46q-40 -55 -92 -55q-27 0 -96 33q-7 4 -17 4q-9 0 -18 -5.5t-40 -27.5z" />
<glyph unicode="&#xf6;" horiz-adv-x="655" d="M57 215q0 141 105 243t243 102q104 0 169 -63t65 -165q0 -140 -102 -242.5t-234 -102.5q-109 0 -177.5 63.5t-68.5 164.5zM134 228q0 -77 49.5 -125t129.5 -48q104 0 176.5 78.5t72.5 191.5q0 73 -48 120t-122 47q-105 0 -181.5 -78.5t-76.5 -185.5zM301 607l23 126h74 l-23 -126h-74zM448 607l23 126h74l-23 -126h-74z" />
<glyph unicode="&#xf7;" horiz-adv-x="606" d="M86 213v74h480v-74h-480zM263 65q0 26 18.5 44.5t44.5 18.5t44.5 -18.5t18.5 -44.5t-18.5 -44.5t-44.5 -18.5t-44.5 18.5t-18.5 44.5zM263 435q0 26 18.5 44.5t44.5 18.5t44.5 -18.5t18.5 -44.5t-18.5 -44.5t-44.5 -18.5t-44.5 18.5t-18.5 44.5z" />
<glyph unicode="&#xf8;" horiz-adv-x="653" d="M46 2l62 66q-28 41 -38.5 73t-10.5 73q0 93 51 174t129.5 126.5t160.5 45.5q83 0 141 -41l70 74l46 -42l-70 -73q52 -55 52 -138q0 -144 -100.5 -248.5t-239.5 -104.5q-82 0 -145 41l-63 -66zM136 225q0 -55 23 -104l332 347q-45 24 -96 24q-100 0 -179.5 -82t-79.5 -185 zM203 79q40 -16 54.5 -20t41.5 -4q112 0 187.5 80.5t75.5 200.5q0 45 -25 90z" />
<glyph unicode="&#xf9;" horiz-adv-x="608" d="M69 155q0 47 9 97l55 295h74l-55 -295q-6 -26 -6 -67q0 -62 34 -96t100 -34q77 0 132.5 50.5t76.5 160.5l53 281h74l-102 -547h-74l16 85q-40 -53 -85.5 -75.5t-110.5 -22.5q-87 0 -139 45.5t-52 122.5zM253 708l46 58l171 -116l-45 -56z" />
<glyph unicode="&#xfa;" horiz-adv-x="608" d="M69 155q0 47 9 97l55 295h74l-55 -295q-6 -26 -6 -67q0 -62 34 -96t100 -34q77 0 132.5 50.5t76.5 160.5l53 281h74l-102 -547h-74l16 85q-40 -53 -85.5 -75.5t-110.5 -22.5q-87 0 -139 45.5t-52 122.5zM317 650l214 116l24 -58l-214 -114z" />
<glyph unicode="&#xfb;" horiz-adv-x="608" d="M69 155q0 47 9 97l55 295h74l-55 -295q-6 -26 -6 -67q0 -62 34 -96t100 -34q77 0 132.5 50.5t76.5 160.5l53 281h74l-102 -547h-74l16 85q-40 -53 -85.5 -75.5t-110.5 -22.5q-87 0 -139 45.5t-52 122.5zM208 607l168 126h66l120 -126h-89l-72 74l-102 -74h-91z" />
<glyph unicode="&#xfc;" horiz-adv-x="608" d="M69 155q0 47 9 97l55 295h74l-55 -295q-6 -26 -6 -67q0 -62 34 -96t100 -34q77 0 132.5 50.5t76.5 160.5l53 281h74l-102 -547h-74l16 85q-40 -53 -85.5 -75.5t-110.5 -22.5q-87 0 -139 45.5t-52 122.5zM273 607l23 126h74l-23 -126h-74zM420 607l23 126h74l-23 -126h-74 z" />
<glyph unicode="&#xfd;" horiz-adv-x="536" d="M67 -192l127 210l-114 529h81l92 -436l266 436h79l-453 -739h-78zM283 650l214 116l24 -58l-214 -114z" />
<glyph unicode="&#xfe;" horiz-adv-x="682" d="M-3 -192l173 931h74l-53 -286q37 49 100 78t134 29q108 0 174 -65t66 -170q0 -133 -104.5 -235.5t-240.5 -102.5q-140 0 -196 107l-53 -286h-74zM147 227q0 -74 51 -123t127 -49q101 0 182 76.5t81 185.5q0 77 -50.5 126t-129.5 49q-98 0 -179.5 -76.5t-81.5 -188.5z" />
<glyph unicode="&#xff;" horiz-adv-x="536" d="M67 -192l127 210l-114 529h81l92 -436l266 436h79l-453 -739h-78zM239 607l23 126h74l-23 -126h-74zM386 607l23 126h74l-23 -126h-74z" />
<glyph unicode="&#x152;" horiz-adv-x="1194" d="M76 300q0 182 139 317t327 135q103 0 175.5 -41.5t105.5 -118.5l28 147h394l-13 -67h-319l-49 -265h308l-12 -67h-308l-51 -273h319l-12 -67h-394l28 151q-128 -164 -330 -164q-152 0 -244 85.5t-92 227.5zM153 313q0 -111 72.5 -184.5t193.5 -73.5q95 0 181 51 t138.5 139.5t52.5 190.5q0 111 -72.5 179.5t-190.5 68.5q-150 0 -262.5 -112t-112.5 -259z" />
<glyph unicode="&#x153;" horiz-adv-x="1137" d="M58 217q0 94 50.5 174t128.5 124.5t161 44.5q79 0 128 -31.5t91 -114.5q34 56 110 101t162 45q102 0 168 -62t66 -159q0 -32 -13 -91h-488q-2 -26 -2 -32q0 -65 53 -113t131 -48q131 0 209 124h75q-36 -78 -119 -135t-177 -57q-80 0 -141.5 37.5t-84.5 113.5 q-42 -50 -61 -68.5t-45 -34.5q-79 -48 -158 -48q-107 0 -175.5 64t-68.5 166zM135 230q0 -77 48.5 -126t124.5 -49q100 0 176 80.5t76 184.5q0 77 -48 124.5t-125 47.5q-101 0 -176.5 -78t-75.5 -184zM635 315h419v12q0 70 -50.5 117.5t-125.5 47.5q-79 0 -142 -45.5 t-101 -131.5z" />
<glyph unicode="&#x178;" horiz-adv-x="592" d="M109 739h82l133 -414l292 414h81l-349 -492l-46 -247h-74l46 247zM299 789l23 126h74l-23 -126h-74zM446 789l23 126h74l-23 -126h-74z" />
<glyph unicode="&#x2c6;" horiz-adv-x="502" d="M156 607l168 126h66l120 -126h-89l-72 74l-102 -74h-91z" />
<glyph unicode="&#x2dc;" horiz-adv-x="439" d="M167 669q49 51 89 51q14 0 55 -18.5t50 -18.5q36 0 71 38l21 -46q-40 -55 -92 -55q-27 0 -96 33q-7 4 -17 4q-9 0 -18 -5.5t-40 -27.5z" />
<glyph unicode="&#x2000;" horiz-adv-x="483" />
<glyph unicode="&#x2001;" horiz-adv-x="966" />
<glyph unicode="&#x2002;" horiz-adv-x="483" />
<glyph unicode="&#x2003;" horiz-adv-x="966" />
<glyph unicode="&#x2004;" horiz-adv-x="322" />
<glyph unicode="&#x2005;" horiz-adv-x="241" />
<glyph unicode="&#x2006;" horiz-adv-x="161" />
<glyph unicode="&#x2007;" horiz-adv-x="161" />
<glyph unicode="&#x2008;" horiz-adv-x="120" />
<glyph unicode="&#x2009;" horiz-adv-x="193" />
<glyph unicode="&#x200a;" horiz-adv-x="53" />
<glyph unicode="&#x2010;" horiz-adv-x="332" d="M50 233l12 63h272l-12 -63h-272z" />
<glyph unicode="&#x2011;" horiz-adv-x="332" d="M50 233l12 63h272l-12 -63h-272z" />
<glyph unicode="&#x2012;" horiz-adv-x="332" d="M50 233l12 63h272l-12 -63h-272z" />
<glyph unicode="&#x2013;" horiz-adv-x="500" d="M19 233l12 63h501l-12 -63h-501z" />
<glyph unicode="&#x2014;" horiz-adv-x="1000" d="M19 233l12 63h1001l-12 -63h-1001z" />
<glyph unicode="&#x2018;" horiz-adv-x="351" d="M205 739h74l52 -192h-74z" />
<glyph unicode="&#x2019;" horiz-adv-x="351" d="M162 547l124 192h74l-124 -192h-74z" />
<glyph unicode="&#x201a;" horiz-adv-x="354" d="M47 -67l124 193h73l-124 -193h-73z" />
<glyph unicode="&#x201c;" horiz-adv-x="502" d="M203 739h74l52 -192h-74zM351 739h74l52 -192h-74z" />
<glyph unicode="&#x201d;" horiz-adv-x="484" d="M158 547l124 192h74l-124 -192h-74zM302 547l124 192h74l-124 -192h-74z" />
<glyph unicode="&#x201e;" horiz-adv-x="502" d="M47 -66l124 192h74l-124 -192h-74zM193 -66l124 192h74l-124 -192h-74z" />
<glyph unicode="&#x2022;" horiz-adv-x="606" d="M141 303q0 76 55.5 131t132.5 55q79 0 133.5 -54.5t54.5 -133.5t-55 -133.5t-135 -54.5q-76 0 -131 56t-55 134z" />
<glyph unicode="&#x2026;" horiz-adv-x="1000" d="M100 0l23 126h74l-23 -126h-74zM433 0l23 126h74l-23 -126h-74zM766 0l23 126h74l-23 -126h-74z" />
<glyph unicode="&#x202f;" horiz-adv-x="193" />
<glyph unicode="&#x2039;" horiz-adv-x="251" d="M66 300l149 199l53 -32l-124 -167l62 -168l-65 -33z" />
<glyph unicode="&#x203a;" horiz-adv-x="251" d="M35 132l124 168l-62 167l65 32l75 -199l-149 -201z" />
<glyph unicode="&#x205f;" horiz-adv-x="241" />
<glyph unicode="&#x20ac;" d="M-62 272l35 59h68q4 35 14 69h-94l35 59h75q30 81 55.5 125.5t61.5 78.5q92 89 218 89q70 0 115.5 -25.5t86.5 -98.5l-43 -67q-34 71 -70 98t-96 27q-89 0 -145.5 -49.5t-108.5 -177.5h351l-35 -59h-333q-9 -34 -13 -69h303l-35 -59h-274v-27q0 -93 42.5 -143t122.5 -50 q57 0 94.5 18.5t111.5 77.5l-14 -86q-86 -75 -198 -75q-122 0 -178 68t-56 217h-96z" />
<glyph unicode="&#x2122;" horiz-adv-x="1023" d="M214 687l9 52h275l-9 -52h-108l-69 -369h-60l69 369h-107zM488 318l78 421h83l105 -338l229 338h84l-78 -421h-60l63 340l-230 -340h-48l-103 340l-63 -340h-60z" />
<glyph unicode="&#xe000;" horiz-adv-x="545" d="M0 0v545h545v-545h-545z" />
</font>
</defs>
</svg>
