<?xml version="1.0" standalone="no"?>
<!DOCTYPE svg PUBLIC "-//W3C//DTD SVG 1.1//EN" "http://www.w3.org/Graphics/SVG/1.1/DTD/svg11.dtd" >
<svg xmlns="http://www.w3.org/2000/svg">
<metadata></metadata>
<defs>
<font id="texgyreadventorbold" horiz-adv-x="560" >
<font-face units-per-em="1000" ascent="815" descent="-185" />
<missing-glyph horiz-adv-x="280" />
<glyph unicode="&#xfb01;" horiz-adv-x="520" d="M10 433v111h48q20 195 183 195q17 0 33 -2v-126h-13q-39 0 -54 -14.5t-16 -52.5h75v-111h-75v-433h-133v433h-48zM334 0v554h133v-554h-133zM335 634v133h133v-133h-133z" />
<glyph unicode="&#xfb02;" horiz-adv-x="520" d="M10 433v111h48q20 195 183 195q17 0 33 -2v-126h-13q-39 0 -54 -14.5t-16 -52.5h75v-111h-75v-433h-133v433h-48zM334 0v739h133v-739h-133z" />
<glyph unicode="&#xfb03;" horiz-adv-x="796" d="M10 433v111h48q20 195 183 195q17 0 33 -2v-126h-13q-39 0 -54 -14.5t-16 -52.5h143q20 195 183 195q17 0 33 -2v-126h-13q-39 0 -54 -14.5t-16 -52.5h75v-111h-75v-433h-133v433h-143v-433h-133v433h-48zM610 0v554h133v-554h-133zM611 634v133h133v-133h-133z" />
<glyph unicode="&#xfb04;" horiz-adv-x="796" d="M10 433v111h48q20 195 183 195q17 0 33 -2v-126h-13q-39 0 -54 -14.5t-16 -52.5h143q20 195 183 195q17 0 33 -2v-126h-13q-39 0 -54 -14.5t-16 -52.5h75v-111h-75v-433h-133v433h-143v-433h-133v433h-48zM610 0v739h133v-739h-133z" />
<glyph horiz-adv-x="1000" />
<glyph horiz-adv-x="1000" />
<glyph unicode="&#xd;" horiz-adv-x="1000" />
<glyph unicode=" "  horiz-adv-x="280" />
<glyph unicode="&#x09;" horiz-adv-x="280" />
<glyph unicode="&#xa0;" horiz-adv-x="280" />
<glyph unicode="!" horiz-adv-x="280" d="M72 0v128h133v-128h-133zM72 188v551h133v-551h-133z" />
<glyph unicode="&#x22;" horiz-adv-x="360" d="M74 513v226h76v-226h-76zM207 513v226h76v-226h-76z" />
<glyph unicode="#" d="M34 233v100h110l12 89h-96v99h110l29 218h90l-29 -218h87l29 218h90l-29 -218h89v-99h-103l-12 -89h89v-100h-102l-32 -233h-90l32 233h-87l-31 -233h-91l32 233h-97zM234 333h87l12 89h-86z" />
<glyph unicode="$" d="M59 236v13h134q2 -39 25 -62.5t59 -23.5t60 24t24 59q0 45 -39 70q-22 14 -105 45q-129 47 -129 180q0 68 33.5 117.5t98.5 64.5v133h127v-133q51 -10 86.5 -59t37.5 -113h-126q-12 62 -65 62q-26 0 -42.5 -18t-16.5 -46q0 -35 20.5 -54t93.5 -46q92 -32 125.5 -74.5 t33.5 -123.5q0 -77 -38.5 -131.5t-108.5 -73.5v-132h-127v132q-75 21 -118 73t-43 117z" />
<glyph unicode="%" horiz-adv-x="860" d="M21 571q0 76 53 128.5t129 52.5q73 0 126.5 -53t53.5 -127q0 -75 -53 -128t-128 -53t-128 53t-53 127zM129 572q0 -31 21.5 -52.5t51.5 -21.5t52 22t22 52t-22 52t-52 22t-51.5 -21.5t-21.5 -52.5zM223 0l305 739h103l-306 -739h-102zM473 167q0 76 53 128.5t129 52.5 q73 0 126.5 -53t53.5 -127q0 -75 -53 -128t-128 -53t-128 53t-53 127zM581 168q0 -31 21.5 -52.5t51.5 -21.5t52 22t22 52t-22 52t-52 22t-51.5 -21.5t-21.5 -52.5z" />
<glyph unicode="&#x26;" horiz-adv-x="680" d="M35 223q0 67 33 117t105 93q-36 41 -49 69t-13 67q0 77 54 130t133 53q81 0 135.5 -52t54.5 -130q0 -60 -25 -99.5t-91 -81.5l67 -75l72 119h149l-128 -219l132 -141l-95 -86l-105 111q-47 -63 -88 -87t-100 -24q-101 0 -171 68.5t-70 167.5zM168 215q0 -41 28.5 -68.5 t71.5 -27.5q33 0 56 17t48 62l-115 124q-89 -40 -89 -107zM238 567q0 -20 11 -39t40 -47q42 23 57 40t15 45q0 27 -17 44t-44 17q-26 0 -44 -17.5t-18 -42.5z" />
<glyph unicode="'" horiz-adv-x="220" d="M74 513v226h76v-226h-76z" />
<glyph unicode="(" horiz-adv-x="380" d="M74 300q0 148 74.5 267.5t200.5 171.5v-144q-140 -108 -140 -295q0 -88 39.5 -170t100.5 -122v-145q-121 43 -198 168.5t-77 268.5z" />
<glyph unicode=")" horiz-adv-x="380" d="M37 7q140 108 140 295q0 88 -39.5 170t-100.5 122v145q121 -43 198 -169t77 -268q0 -148 -74.5 -267.5t-200.5 -171.5v144z" />
<glyph unicode="*" horiz-adv-x="440" d="M70 554v71l99 -5l-53 86l63 32l44 -86l46 87l59 -36l-54 -83l97 6v-72l-97 5l53 -80l-57 -38l-47 88l-43 -88l-64 31l52 89z" />
<glyph unicode="+" horiz-adv-x="600" d="M54 181v138h177v177h138v-177h177v-138h-177v-177h-138v177h-177z" />
<glyph unicode="," horiz-adv-x="280" d="M72 0v128h133v-135q0 -60 -34.5 -96.5t-98.5 -36.5v67q32 6 45.5 19t13.5 37q0 11 -1 17h-58z" />
<glyph unicode="-" horiz-adv-x="420" d="M74 229v118h277v-118h-277z" />
<glyph unicode="." horiz-adv-x="280" d="M72 0v128h133v-128h-133z" />
<glyph unicode="/" horiz-adv-x="460" d="M26 -128l323 867h94l-323 -867h-94z" />
<glyph unicode="0" d="M30 247v251q0 117 67 185.5t181 68.5q112 0 179.5 -67t67.5 -180v-258q0 -123 -65.5 -191.5t-175.5 -68.5q-116 0 -185 68.5t-69 191.5zM163 251q0 -69 30 -105.5t87 -36.5q112 0 112 139v250q0 64 -29.5 98t-83.5 34t-85 -35.5t-31 -96.5v-247z" />
<glyph unicode="1" d="M153 614v125h226v-739h-133v614h-93z" />
<glyph unicode="2" d="M34 484q0 125 68 196.5t177 71.5q103 0 172 -69t69 -171q0 -69 -30 -122t-113 -128l-151 -137h291v-125h-478v117l263 249q85 81 85 148q0 50 -30.5 83t-76.5 33q-52 0 -83.5 -40t-31.5 -106h-131z" />
<glyph unicode="3" d="M15 224h134q7 -52 39.5 -83.5t80.5 -31.5q50 0 83 35t33 88q0 56 -39.5 90t-105.5 34h-22v128q62 1 88 19t26 57q0 31 -18 50.5t-47 19.5q-53 0 -62 -67h-135q7 91 61.5 140t134.5 49q86 0 142.5 -57t56.5 -142q0 -82 -62 -127q115 -51 115 -191q0 -107 -70.5 -177.5 t-177.5 -70.5q-106 0 -177.5 66.5t-77.5 170.5z" />
<glyph unicode="4" d="M0 111v108l340 520h112v-509h78v-119h-78v-111h-133v111h-319zM135 230h184v285z" />
<glyph unicode="5" d="M12 221h133q10 -54 41 -83t79 -29q54 0 88 38t34 98q0 56 -34.5 94t-85.5 38q-58 0 -103 -56l-118 32l69 386h334v-125h-234l-24 -136q50 21 95 21q101 0 167.5 -71.5t66.5 -180.5q0 -111 -72 -185.5t-179 -74.5q-100 0 -176 67t-81 167z" />
<glyph unicode="6" d="M21 242q0 53 16.5 100t56.5 107l193 290h159l-177 -263q30 10 60 10q88 0 146 -66.5t58 -167.5q0 -115 -71.5 -190t-181.5 -75q-112 0 -185.5 72.5t-73.5 182.5zM154 239q0 -57 35.5 -93.5t90.5 -36.5q53 0 86.5 36t33.5 94q0 57 -34.5 94t-87.5 37q-55 0 -89.5 -36 t-34.5 -95z" />
<glyph unicode="7" d="M65 614v125h435v-125l-270 -614h-150l280 614h-295z" />
<glyph unicode="8" d="M31 231q0 121 106 180q-34 37 -47.5 67t-13.5 71q0 85 59 144t144 59q87 0 144.5 -57.5t57.5 -143.5q0 -90 -62 -140q55 -33 79.5 -75t24.5 -104q0 -105 -70 -175t-175 -70q-104 0 -175.5 70.5t-71.5 173.5zM164 226q0 -50 33 -83.5t82 -33.5q47 0 79 33.5t32 82.5 q0 48 -32.5 82t-78.5 34q-48 0 -81.5 -33t-33.5 -82zM203 549q0 -33 22.5 -56.5t53.5 -23.5t53 23.5t22 57.5t-21.5 57t-52.5 23q-33 0 -55 -23t-22 -58z" />
<glyph unicode="9" d="M22 487q0 116 71 190.5t180 74.5q112 0 185.5 -73t73.5 -183q0 -53 -16.5 -100t-56.5 -106l-193 -290h-159l178 263q-32 -12 -60 -12q-86 0 -144.5 68t-58.5 168zM155 500q0 -57 34 -94t87 -37q55 0 89 36.5t34 94.5q0 57 -35.5 93.5t-90.5 36.5q-52 0 -85 -36.5 t-33 -93.5z" />
<glyph unicode=":" horiz-adv-x="280" d="M72 0v128h133v-128h-133zM72 369v133h133v-133h-133z" />
<glyph unicode=";" horiz-adv-x="280" d="M72 0v128h133v-135q0 -61 -36 -97t-97 -36v67q32 6 45.5 19t13.5 37v17h-59zM72 369v133h133v-133h-133z" />
<glyph unicode="&#x3c;" horiz-adv-x="600" d="M65 196v108l427 338v-176l-273 -216l273 -216v-176z" />
<glyph unicode="=" horiz-adv-x="600" d="M54 89v138h492v-138h-492zM54 273v138h492v-138h-492z" />
<glyph unicode="&#x3e;" horiz-adv-x="600" d="M65 34l273 216l-273 216v176l427 -338v-108l-427 -338v176z" />
<glyph unicode="?" d="M32 520q9 112 72 172t156 60q96 0 160.5 -65.5t64.5 -163.5q0 -50 -22.5 -89.5t-79.5 -89.5q-41 -36 -52.5 -64t-12.5 -93h-133q0 94 23.5 144t98.5 111q45 38 45 85q0 40 -27 66.5t-68 26.5q-79 0 -92 -100h-133zM185 0v128h133v-128h-133z" />
<glyph unicode="@" horiz-adv-x="740" d="M3 377q0 166 110.5 277.5t274.5 111.5q160 0 258.5 -100.5t98.5 -268.5q0 -108 -59 -175.5t-152 -67.5q-80 0 -99 54q-36 -54 -113 -54q-75 0 -120 51.5t-45 139.5q0 99 58 165.5t144 66.5q41 0 67 -13t51 -45l7 54h96l-33 -295q-1 -5 -1 -15q0 -26 27 -26 q40 0 69.5 52.5t29.5 123.5q0 125 -78 203t-204 78q-136 0 -226 -91t-90 -229q0 -131 89.5 -222.5t237.5 -91.5q86 0 149 47l46 -60q-77 -60 -197 -60q-171 0 -283.5 111t-112.5 279zM277 355q0 -44 21 -69.5t57 -25.5q44 0 72 32t28 82q0 42 -20.5 66.5t-55.5 24.5 q-42 0 -72 -32t-30 -78z" />
<glyph unicode="A" horiz-adv-x="740" d="M7 0l308 739h108l310 -739h-151l-79 191h-263l-82 -191h-151zM290 322h158l-79 224z" />
<glyph unicode="B" horiz-adv-x="580" d="M68 0v739h152q83 0 125 -7.5t75 -28.5q84 -54 84 -161q0 -52 -19 -84t-63 -55q69 -29 97.5 -72t28.5 -111q0 -104 -71.5 -162t-211.5 -58h-197zM205 131h68q72 0 104.5 22t32.5 70q0 97 -140 97h-65v-189zM205 454h44q62 0 90 18t28 58q0 75 -106 75h-56v-151z" />
<glyph unicode="C" horiz-adv-x="780" d="M30 372q0 157 111.5 268.5t268.5 111.5q115 0 208.5 -59.5t141.5 -165.5h-153q-38 49 -84 71t-110 22q-105 0 -175 -72t-70 -177q0 -104 73 -178t175 -74q54 0 96 20t87 67h161q-43 -101 -135.5 -160t-205.5 -59q-162 0 -275.5 112.5t-113.5 272.5z" />
<glyph unicode="D" horiz-adv-x="700" d="M68 0v739h169q174 0 262 -53q77 -46 119 -129.5t42 -188.5q0 -112 -48 -198.5t-133 -128.5q-82 -41 -239 -41h-172zM205 131h30q121 0 180 33q49 27 78 82t29 122q0 71 -30 127t-83 83q-59 30 -177 30h-27v-477z" />
<glyph unicode="E" horiz-adv-x="520" d="M68 0v739h397v-131h-260v-174h249v-131h-249v-172h260v-131h-397z" />
<glyph unicode="F" horiz-adv-x="480" d="M68 0v739h376v-131h-239v-174h228v-131h-228v-303h-137z" />
<glyph unicode="G" horiz-adv-x="840" d="M30 371q0 159 113.5 270t275.5 111q121 0 223 -65t138 -165h-161q-70 98 -203 98q-108 0 -178 -72.5t-70 -178.5t73.5 -178t182.5 -72q73 0 130 34t87 96h-306v128h483v-18q0 -152 -112 -262t-274 -110q-170 0 -286 111t-116 273z" />
<glyph unicode="H" horiz-adv-x="680" d="M68 0v739h137v-298h264v298h137v-739h-137v310h-264v-310h-137z" />
<glyph unicode="I" horiz-adv-x="280" d="M68 0v739h137v-739h-137z" />
<glyph unicode="J" horiz-adv-x="480" d="M9 175h137q14 -56 65 -56q66 0 66 97v523h137v-527q0 -104 -53.5 -164.5t-146.5 -60.5q-83 0 -139.5 48.5t-65.5 139.5z" />
<glyph unicode="K" horiz-adv-x="620" d="M68 0v739h137v-319l229 319h165l-278 -363l278 -376h-165l-229 325v-325h-137z" />
<glyph unicode="L" horiz-adv-x="440" d="M68 0v739h137v-608h226v-131h-363z" />
<glyph unicode="M" horiz-adv-x="900" d="M68 0v739h188l199 -560l197 560h188v-739h-137v554l-193 -554h-112l-193 554v-554h-137z" />
<glyph unicode="N" horiz-adv-x="740" d="M68 0v739h156l306 -538v538h137v-739h-153l-309 537v-537h-137z" />
<glyph unicode="O" horiz-adv-x="840" d="M30 369q0 162 112.5 272.5t277.5 110.5q158 0 269 -112t111 -270q0 -162 -110 -272.5t-271 -110.5q-163 0 -276 111t-113 271zM168 369q0 -105 72.5 -177.5t177.5 -72.5t174.5 71t69.5 178q0 106 -70.5 179t-173.5 73q-107 0 -178.5 -72t-71.5 -179z" />
<glyph unicode="P" d="M68 0v739h183q132 0 189 -34q100 -61 100 -194q0 -64 -26 -116.5t-71 -80.5q-31 -19 -73 -26t-121 -7h-44v-281h-137zM205 412h40q89 0 123 23.5t34 73.5q0 57 -34.5 78t-116.5 21h-46v-196z" />
<glyph unicode="Q" horiz-adv-x="840" d="M30 370q0 161 114 271.5t280 110.5q168 0 279.5 -110t111.5 -276q0 -145 -89 -237q43 -22 68 -22q13 0 34 3v-124q-8 -1 -26 -1q-47 0 -82.5 13.5t-84.5 46.5q-84 -58 -205 -58q-167 0 -283.5 111.5t-116.5 271.5zM167 369q0 -17 2 -35q49 13 114 13q88 0 177 -38 t157 -105q60 62 60 160q0 110 -72.5 183t-182.5 73q-109 0 -182 -72t-73 -179zM211 227q82 -108 219 -108q47 0 89 19q-121 97 -237 97q-28 0 -71 -8z" />
<glyph unicode="R" horiz-adv-x="580" d="M68 0v739h213q76 0 121 -12t81 -43q78 -66 78 -182q0 -181 -193 -229l200 -273h-169l-194 283v-283h-137zM205 386h67q79 0 115 26.5t36 85.5q0 55 -33 82.5t-124 27.5h-61v-222z" />
<glyph unicode="S" horiz-adv-x="520" d="M14 211h143q9 -92 100 -92q44 0 72 25t28 65q0 49 -34 75q-16 12 -34 20t-94 37q-74 28 -114 79.5t-40 121.5q0 88 63 149t152 61q91 0 152.5 -57t66.5 -153h-142q-3 38 -23 58t-55 20q-34 0 -55 -21t-21 -54q0 -41 41 -67q11 -7 82 -33q108 -40 149.5 -91t41.5 -130 q0 -100 -68 -168.5t-168 -68.5q-99 0 -166.5 60.5t-76.5 163.5z" />
<glyph unicode="T" horiz-adv-x="420" d="M7 608v131h411v-131h-137v-608h-137v608h-137z" />
<glyph unicode="U" horiz-adv-x="640" d="M68 271v468h137v-468q0 -82 28.5 -117t84.5 -35q55 0 83.5 34.5t28.5 117.5v468h137v-468q0 -138 -68.5 -211t-181.5 -73q-112 0 -180.5 73.5t-68.5 210.5z" />
<glyph unicode="V" horiz-adv-x="700" d="M8 739h144l199 -562l199 562h144l-286 -739h-112z" />
<glyph unicode="W" horiz-adv-x="900" d="M7 739h140l130 -516l126 516h100l124 -516l131 516h140l-216 -739h-109l-119 489l-122 -489h-108z" />
<glyph unicode="X" horiz-adv-x="680" d="M5 0l254 368l-254 371h163l172 -258l177 258h159l-256 -371l256 -368h-159l-177 255l-172 -255h-163z" />
<glyph unicode="Y" horiz-adv-x="620" d="M3 739h148l164 -340l163 340h148l-243 -466v-273h-137v273z" />
<glyph unicode="Z" horiz-adv-x="500" d="M18 0v116l280 492h-265v131h428v-123l-278 -485h297v-131h-462z" />
<glyph unicode="[" horiz-adv-x="320" d="M74 187v259q0 115 50.5 187t167.5 106v-147q-51 -22 -67 -60.5t-16 -112.5v-255q0 -61 17.5 -98.5t65.5 -55.5v-147q-218 50 -218 324z" />
<glyph unicode="\" horiz-adv-x="640" d="M84 739h94l325 -739h-94z" />
<glyph unicode="]" horiz-adv-x="320" d="M37 10q51 21 67 60t16 113v255q0 61 -17.5 97.5t-65.5 56.5v147q218 -49 218 -324v-259q0 -115 -50.5 -187t-167.5 -106v147z" />
<glyph unicode="^" horiz-adv-x="600" d="M63 363l179 376h122l179 -376l-104 -50l-136 276l-136 -276z" />
<glyph unicode="_" horiz-adv-x="500" d="M0 -48h500v-90h-500v90z" />
<glyph unicode="`" horiz-adv-x="420" d="M25 724l54 92l224 -134l-51 -78z" />
<glyph unicode="a" horiz-adv-x="660" d="M30 275q0 127 79.5 209.5t202.5 82.5q115 0 181 -87v74h122v-554h-122v72q-40 -45 -83 -65t-101 -20q-121 0 -200 81.5t-79 206.5zM164 272q0 -73 45.5 -118t118.5 -45q74 0 117.5 46.5t43.5 117.5q0 76 -46 124t-117 48t-116.5 -48.5t-45.5 -124.5z" />
<glyph unicode="b" horiz-adv-x="660" d="M54 0v739h133v-236q38 38 78 54.5t94 16.5q119 0 199 -84t80 -209q0 -126 -76.5 -210t-193.5 -84q-62 0 -105.5 19t-86.5 65v-71h-122zM179 281q0 -76 46 -124t118 -48q71 0 116 47.5t45 123.5q0 74 -46.5 123t-117.5 49q-70 0 -115.5 -48t-45.5 -123z" />
<glyph unicode="c" horiz-adv-x="640" d="M30 277q0 122 84.5 206t207.5 84q96 0 171.5 -52t107.5 -146h-150q-40 76 -129 76q-69 0 -113.5 -47t-44.5 -120t46 -121t115 -48q79 0 126 73h150q-35 -93 -106.5 -144t-168.5 -51q-123 0 -209.5 84.5t-86.5 205.5z" />
<glyph unicode="d" horiz-adv-x="660" d="M30 278q0 124 80.5 210t196.5 86q110 0 173 -69v234h133v-739h-122v72q-75 -85 -183 -85q-118 0 -198 84t-80 207zM164 284q0 -74 47.5 -124.5t117.5 -50.5q68 0 114.5 49.5t46.5 121.5q0 73 -47 122.5t-117 49.5q-68 0 -115 -48.5t-47 -119.5z" />
<glyph unicode="e" horiz-adv-x="640" d="M30 275q0 122 85 207t207 85q124 0 205 -84.5t81 -213.5q0 -27 -5 -51h-429q12 -50 53 -79.5t100 -29.5q41 0 68.5 12.5t53.5 42.5h145q-27 -82 -101.5 -129.5t-162.5 -47.5q-127 0 -213.5 83t-86.5 205zM170 335h307q-13 53 -52.5 81.5t-100.5 28.5q-121 0 -154 -110z " />
<glyph unicode="f" horiz-adv-x="280" d="M10 433v111h48q20 195 183 195q17 0 33 -2v-126h-13q-39 0 -54 -14.5t-16 -52.5h75v-111h-75v-433h-133v433h-48z" />
<glyph unicode="g" horiz-adv-x="660" d="M30 281q0 123 77.5 204.5t195.5 81.5q120 0 181 -83v70h127v-449q0 -326 -287 -326q-102 0 -176.5 46.5t-108.5 129.5h151q29 -32 60.5 -45.5t78.5 -13.5q148 0 155 177q-39 -46 -81.5 -66t-100.5 -20q-119 0 -195.5 83t-76.5 211zM164 275q0 -76 42.5 -121t113.5 -45 t114.5 45.5t43.5 120.5q0 76 -44.5 123t-115.5 47q-70 0 -112 -46.5t-42 -123.5z" />
<glyph unicode="h" horiz-adv-x="600" d="M54 0v739h133v-223q58 52 141 52q217 0 217 -255v-313h-133v283q0 87 -25 124.5t-83 37.5q-59 0 -88 -37.5t-29 -126.5v-281h-133z" />
<glyph unicode="i" horiz-adv-x="240" d="M54 0v554h133v-554h-133zM55 634v133h133v-133h-133z" />
<glyph unicode="j" horiz-adv-x="260" d="M17 -56q37 7 46 22t9 74v514h133v-517q0 -109 -50.5 -165.5t-137.5 -56.5v129zM73 634v133h133v-133h-133z" />
<glyph unicode="k" horiz-adv-x="580" d="M54 0v739h133v-446l177 261h159l-198 -271l230 -283h-179l-189 259v-259h-133z" />
<glyph unicode="l" horiz-adv-x="240" d="M54 0v739h133v-739h-133z" />
<glyph unicode="m" horiz-adv-x="940" d="M54 0v554h122v-52q29 35 62 50t82 15q109 0 163 -86q65 86 178 86q224 0 224 -247v-320h-133v304q0 78 -26.5 109.5t-77.5 31.5q-58 0 -85 -38t-27 -134v-273h-133v304q0 78 -26.5 109.5t-81.5 31.5q-59 0 -83.5 -37.5t-24.5 -134.5v-273h-133z" />
<glyph unicode="n" horiz-adv-x="600" d="M54 0v554h123v-53q69 66 156 66q118 0 173 -80q22 -32 31 -74t9 -116v-297h-133v271q0 104 -25.5 139t-80.5 35q-66 0 -98 -51q-22 -35 -22 -133v-261h-133z" />
<glyph unicode="o" horiz-adv-x="640" d="M30 277q0 119 86 204.5t207 85.5q125 0 210.5 -85t85.5 -209q0 -117 -87 -201.5t-208 -84.5q-122 0 -208 85t-86 205zM164 279q0 -71 47 -120.5t114 -49.5q66 0 113 49t47 119q0 69 -47 118.5t-114 49.5q-65 0 -112.5 -49t-47.5 -117z" />
<glyph unicode="p" horiz-adv-x="660" d="M54 -185v739h122v-65q67 78 182 78q120 0 198 -81.5t78 -206.5q0 -126 -78.5 -209t-198.5 -83q-98 0 -170 65v-237h-133zM179 278q0 -73 46.5 -121t117.5 -48q66 0 111.5 48.5t45.5 118.5q0 72 -45.5 120.5t-113.5 48.5q-69 0 -115.5 -48t-46.5 -119z" />
<glyph unicode="q" horiz-adv-x="660" d="M30 279q0 120 81.5 204t197.5 84q118 0 180 -84v71h122v-739h-133v238q-66 -66 -167 -66q-119 0 -200 84t-81 208zM164 276q0 -72 46.5 -119.5t116.5 -47.5q68 0 113.5 47.5t45.5 118.5q0 73 -45 121.5t-113 48.5q-71 0 -117.5 -48t-46.5 -121z" />
<glyph unicode="r" horiz-adv-x="320" d="M54 0v554h122v-54q26 38 51.5 52.5t68.5 14.5h10v-128q-119 -3 -119 -131v-308h-133z" />
<glyph unicode="s" horiz-adv-x="440" d="M19 176h134q10 -35 27.5 -51t46.5 -16q26 0 43 15.5t17 38.5q0 25 -15 37t-79 34q-83 28 -118.5 65.5t-35.5 98.5q0 71 53.5 120t130.5 49q73 0 125.5 -45t56.5 -121h-130q-9 44 -52 44q-22 0 -36.5 -13.5t-14.5 -33.5q0 -22 13 -30t81 -30q86 -27 120 -63.5t34 -98.5 q0 -79 -57.5 -134t-140.5 -55q-85 0 -139 47.5t-64 141.5z" />
<glyph unicode="t" horiz-adv-x="300" d="M9 433v121h65v185h133v-185h80v-121h-80v-433h-133v433h-65z" />
<glyph unicode="u" horiz-adv-x="600" d="M54 257v297h133v-271q0 -103 26 -138.5t79 -35.5q69 0 101 51q21 35 21 133v261h133v-554h-123v53q-37 -37 -73 -51.5t-86 -14.5q-211 0 -211 270z" />
<glyph unicode="v" d="M1 554h148l128 -367l126 367h150l-223 -554h-106z" />
<glyph unicode="w" horiz-adv-x="800" d="M10 554h143l99 -338l93 338h106l91 -338l101 338h142l-200 -554h-83l-105 359l-107 -359h-82z" />
<glyph unicode="x" d="M1 0l196 286l-170 268h150l100 -167l98 167h150l-169 -268l197 -286h-160l-116 190l-116 -190h-160z" />
<glyph unicode="y" horiz-adv-x="580" d="M6 554h152l123 -359l134 359h153l-320 -739h-143l104 237z" />
<glyph unicode="z" horiz-adv-x="460" d="M20 0v119l244 316h-216v119h375v-119l-244 -316h263v-119h-422z" />
<glyph unicode="{" horiz-adv-x="340" d="M37 265v81q81 10 81 98v157q0 74 33.5 106.5t109.5 32.5q26 0 41 -1v-80q-53 -4 -66 -21t-13 -81v-123q0 -59 -20 -87.5t-70 -41.5q50 -12 70 -41t20 -87v-123q0 -64 13 -81t66 -21v-80q-15 -1 -41 -1q-76 0 -109.5 32.5t-33.5 106.5v157q0 88 -81 98z" />
<glyph unicode="|" horiz-adv-x="600" d="M231 -137v876h138v-876h-138z" />
<glyph unicode="}" horiz-adv-x="340" d="M38 -48q53 4 66 21t13 81v123q0 59 20 87.5t70 41.5q-50 12 -70 41t-20 87v123q0 64 -13 81t-66 21v80q15 1 41 1q76 0 109.5 -32.5t33.5 -106.5v-157q0 -88 81 -98v-81q-81 -10 -81 -98v-157q0 -74 -33.5 -106.5t-109.5 -32.5q-26 0 -41 1v80z" />
<glyph unicode="~" horiz-adv-x="600" d="M51 289q44 71 72.5 97t75.5 26q39 0 77 -16l67 -27q54 -22 71 -22q36 0 77 74l64 -74q-39 -64 -71.5 -90.5t-73.5 -26.5q-33 0 -91 24l-54 22q-47 19 -64 19q-26 0 -47 -22q-11 -11 -40 -59z" />
<glyph unicode="&#xa1;" horiz-adv-x="280" d="M75 -185v551h133v-551h-133zM75 426v128h133v-128h-133z" />
<glyph unicode="&#xa2;" d="M39 381q0 81 47.5 145t131.5 85v104h125v-104q64 -16 109 -61t59 -107h-142q-33 46 -93 46q-44 0 -74 -31.5t-30 -78.5t30.5 -78t77.5 -31q49 0 85 40h146q-52 -131 -168 -162v-109h-125v109q-80 18 -129.5 82.5t-49.5 150.5z" />
<glyph unicode="&#xa3;" d="M0 310v125h58q-17 38 -17 81q0 99 69.5 167.5t169.5 68.5q95 0 160.5 -58.5t73.5 -152.5h-135q-11 43 -36.5 66t-61.5 23q-45 0 -76 -34.5t-31 -84.5q0 -43 27 -76h207v-125h-107q32 -63 32 -110q0 -38 -13 -75q53 0 81.5 26t28.5 69q0 21 -10 54h132q11 -29 11 -52 q0 -103 -75 -168q-35 -30 -76.5 -42t-110.5 -12h-260v125h139q20 34 20 73q0 58 -58 112h-142z" />
<glyph unicode="&#xa4;" d="M27 229l42 43q-22 41 -29 66t-7 62t7 62.5t29 66.5l-42 45l80 80l45 -44q59 36 128 36q68 0 132 -36l45 43l77 -81l-42 -43q37 -64 37 -130q0 -68 -38 -128l42 -43l-77 -80l-44 42q-62 -37 -131 -37q-68 0 -131 37l-44 -42zM153 400q0 -52 38 -89.5t90 -37.5 q53 0 89.5 36.5t36.5 89.5q0 52 -36.5 89.5t-86.5 37.5q-55 0 -93 -36.5t-38 -89.5z" />
<glyph unicode="&#xa5;" d="M-35 739h149l160 -341l161 341h154l-143 -271h92v-88h-140l-57 -105h197v-88h-197v-187h-133v187h-196v88h196l-56 105h-140v88h94z" />
<glyph unicode="&#xa6;" horiz-adv-x="600" d="M231 -137v350h138v-350h-138zM231 389v350h138v-350h-138z" />
<glyph unicode="&#xa7;" d="M40 347q0 88 78 146q-28 43 -28 93q0 73 56 119.5t145 46.5t141.5 -48t64.5 -141h-126q-13 67 -86 67q-31 0 -49.5 -13t-18.5 -35q0 -41 61 -70l164 -81q40 -20 63.5 -57.5t23.5 -81.5q0 -86 -75 -142q50 -51 50 -119q0 -83 -60.5 -135.5t-154.5 -52.5q-97 0 -159 55.5 t-70 156.5h134q0 -90 96 -90q37 0 62 18.5t25 46.5q0 21 -14.5 35.5t-58.5 37.5l-163 84q-101 52 -101 160zM157 354q0 -32 60 -63l151 -76q37 26 37 63q0 18 -12 30.5t-48 30.5l-149 74q-39 -31 -39 -59z" />
<glyph unicode="&#xa8;" horiz-adv-x="500" d="M74 634v133h133v-133h-133zM284 634v133h133v-133h-133z" />
<glyph unicode="&#xa9;" horiz-adv-x="740" d="M20 337q0 145 102.5 247.5t247.5 102.5t247.5 -102.5t102.5 -247.5t-102.5 -247.5t-247.5 -102.5t-247.5 102.5t-102.5 247.5zM80 337q0 -120 85 -205t205 -85t205 85t85 205t-85 205t-205 85t-205 -85t-85 -205zM152 339q0 84 65.5 144t157.5 60q72 0 129 -36t83 -100 h-105q-38 47 -105 47q-55 0 -91.5 -33t-36.5 -83q0 -49 38 -83.5t91 -34.5q54 0 100 45h108q-22 -61 -78.5 -97.5t-127.5 -36.5q-95 0 -161.5 61t-66.5 147z" />
<glyph unicode="&#xaa;" horiz-adv-x="360" d="M28 592q0 66 43 112t104 46q58 0 97 -50v39h66v-298h-66v41q-39 -51 -102 -51q-60 0 -101 46.5t-41 114.5zM31 310v70h311v-70h-311zM104 589q0 -35 23.5 -59.5t57.5 -24.5t57.5 25t23.5 61t-23.5 60.5t-57.5 24.5t-57.5 -25.5t-23.5 -61.5z" />
<glyph unicode="&#xab;" horiz-adv-x="460" d="M36 239v100l139 130v-123l-67 -57l67 -58v-123zM249 239v100l139 130v-123l-67 -57l67 -58v-123z" />
<glyph unicode="&#xac;" horiz-adv-x="600" d="M54 273v138h492v-253h-138v115h-354z" />
<glyph unicode="&#xad;" horiz-adv-x="420" d="M74 229v118h277v-118h-277z" />
<glyph unicode="&#xae;" horiz-adv-x="740" d="M20 337q0 145 102.5 247.5t247.5 102.5t247.5 -102.5t102.5 -247.5t-102.5 -247.5t-247.5 -102.5t-247.5 102.5t-102.5 247.5zM80 337q0 -120 85 -205t205 -85t205 85t85 205t-85 205t-205 85t-205 -85t-85 -205zM214 138v399h129q81 0 119 -30q48 -37 48 -102 q0 -94 -100 -123l116 -144h-121l-95 126v-126h-96zM301 346h37q45 0 65 13.5t20 43.5q0 28 -18.5 42t-69.5 14h-34v-113z" />
<glyph unicode="&#xaf;" horiz-adv-x="420" d="M74 650v100h277v-100h-277z" />
<glyph unicode="&#xb0;" horiz-adv-x="400" d="M50 534q0 64 44.5 108t109.5 44q62 0 104 -44.5t42 -108.5t-43.5 -108.5t-106.5 -44.5t-106.5 44.5t-43.5 109.5zM106 533q0 -40 28 -68t66 -28q39 0 66 28t27 68t-26.5 68t-64.5 28q-40 0 -68 -28t-28 -68z" />
<glyph unicode="&#xb1;" horiz-adv-x="600" d="M54 0v138h492v-138h-492zM54 319v138h177v177h138v-177h177v-138h-177v-57h-138v57h-177z" />
<glyph unicode="&#xb2;" horiz-adv-x="336" d="M10 582q0 79 43.5 122t115.5 43q67 0 112 -42t45 -104q0 -79 -89 -150l-94 -75h181v-80h-311v74l170 148q54 46 55 85q0 28 -19.5 46.5t-48.5 18.5q-34 0 -53 -22.5t-20 -63.5h-87z" />
<glyph unicode="&#xb3;" horiz-adv-x="336" d="M4 435h88q5 -32 25.5 -50t52.5 -18t53 19.5t21 49.5q0 32 -25.5 51t-69.5 19h-21v82q46 1 64.5 10.5t18.5 31.5q0 17 -12 27.5t-31 10.5q-35 0 -42 -40h-89q6 59 41.5 88.5t88.5 29.5q57 0 94.5 -34.5t37.5 -86.5q0 -48 -34 -74q66 -31 66 -112q0 -65 -45.5 -108 t-115.5 -43t-116 41t-50 106z" />
<glyph unicode="&#xb4;" horiz-adv-x="420" d="M117 682l224 134l54 -92l-227 -120z" />
<glyph unicode="&#xb5;" horiz-adv-x="576" d="M54 -185v739h133v-272q0 -35 3.5 -61t13.5 -53t31.5 -41.5t53.5 -14.5t53.5 14.5t31 41.5t13 53t3.5 61v272h133v-554h-122v59q-40 -77 -131 -77q-39 0 -83 19v-186h-133z" />
<glyph unicode="&#xb6;" horiz-adv-x="600" d="M37 533q0 102 65 154t207 52h218v-867h-101v760h-84v-760h-101v458q-91 1 -147.5 57.5t-56.5 145.5z" />
<glyph unicode="&#xb7;" horiz-adv-x="280" d="M76 250q0 26 19 45t45 19t45 -19t19 -45t-19 -45t-45 -19t-45 19t-19 45z" />
<glyph unicode="&#xb8;" horiz-adv-x="340" d="M74 -166h61q13 -29 38 -29q16 0 27.5 13t11.5 32q0 18 -11.5 31t-27.5 13q-19 0 -38 -27l-52 26l46 112h52l-31 -63q18 7 29 7q37 0 64 -30t27 -71q0 -44 -26.5 -71t-69.5 -27q-38 0 -66 23.5t-34 60.5z" />
<glyph unicode="&#xb9;" horiz-adv-x="336" d="M94 659v80h147v-443h-88v363h-59z" />
<glyph unicode="&#xba;" horiz-adv-x="360" d="M31 311v70h307v-70h-307zM31 599q0 62 45.5 106.5t108.5 44.5q64 0 108.5 -45t44.5 -109t-45 -109t-109 -45q-63 0 -108 46t-45 111zM104 599q0 -36 22.5 -59.5t57.5 -23.5q34 0 57.5 23t23.5 58q0 34 -24 58.5t-56 24.5q-33 0 -57 -24t-24 -57z" />
<glyph unicode="&#xbb;" horiz-adv-x="460" d="M73 108v123l67 58l-67 57v123l139 -130v-100zM286 108v123l67 58l-67 57v123l139 -130v-100z" />
<glyph unicode="&#xbc;" horiz-adv-x="840" d="M94 659v80h147v-443h-88v363h-59zM220 0l306 739h95l-306 -739h-95zM506 66v67l208 310h74v-301h48v-76h-48v-66h-88v66h-194zM598 142h102v154z" />
<glyph unicode="&#xbd;" horiz-adv-x="840" d="M94 659v80h147v-443h-88v363h-59zM199 0l306 739h95l-306 -739h-95zM514 286q0 79 43.5 122t115.5 43q67 0 112 -42t45 -104q0 -79 -89 -150l-94 -75h181v-80h-311v74l170 148q54 46 55 85q0 28 -19.5 46.5t-48.5 18.5q-34 0 -53 -22.5t-20 -63.5h-87z" />
<glyph unicode="&#xbe;" horiz-adv-x="840" d="M4 435h88q5 -32 25.5 -50t52.5 -18t53 19.5t21 49.5q0 32 -25.5 51t-69.5 19h-21v82q46 1 64.5 10.5t18.5 31.5q0 17 -12 27.5t-31 10.5q-35 0 -42 -40h-89q6 59 41.5 88.5t88.5 29.5q57 0 94.5 -34.5t37.5 -86.5q0 -48 -34 -74q66 -31 66 -112q0 -65 -45.5 -108 t-115.5 -43t-116 41t-50 106zM250 0l306 739h95l-306 -739h-95zM506 66v67l208 310h74v-301h48v-76h-48v-66h-88v66h-194zM598 142h102v154z" />
<glyph unicode="&#xbf;" d="M75 31q0 50 22.5 89.5t79.5 89.5q41 36 52.5 64t12.5 93h133q0 -94 -23.5 -144t-98.5 -111q-45 -37 -45 -85q0 -40 27 -66.5t68 -26.5q79 0 92 100h133q-9 -112 -72 -172t-156 -60q-96 0 -160.5 65.5t-64.5 163.5zM242 426v128h133v-128h-133z" />
<glyph unicode="&#xc0;" horiz-adv-x="740" d="M7 0l308 739h108l310 -739h-151l-79 191h-263l-82 -191h-151zM184 899l54 92l224 -134l-51 -78zM290 322h158l-79 224z" />
<glyph unicode="&#xc1;" horiz-adv-x="740" d="M7 0l308 739h108l310 -739h-151l-79 191h-263l-82 -191h-151zM276 857l224 134l54 -92l-227 -120zM290 322h158l-79 224z" />
<glyph unicode="&#xc2;" horiz-adv-x="740" d="M7 0l308 739h108l310 -739h-151l-79 191h-263l-82 -191h-151zM170 806l147 138h107l145 -138h-145l-53 64l-54 -64h-147zM290 322h158l-79 224z" />
<glyph unicode="&#xc3;" horiz-adv-x="740" d="M7 0l308 739h108l310 -739h-151l-79 191h-263l-82 -191h-151zM203 887q26 26 49 36.5t54 10.5q12 0 52.5 -12.5t54.5 -12.5q37 0 67 34l54 -81q-45 -55 -94 -55q-13 0 -58.5 12.5t-54.5 12.5q-18 0 -29.5 -4t-40.5 -21zM290 322h158l-79 224z" />
<glyph unicode="&#xc4;" horiz-adv-x="740" d="M7 0l308 739h108l310 -739h-151l-79 191h-263l-82 -191h-151zM193 809v133h133v-133h-133zM290 322h158l-79 224zM403 809v133h133v-133h-133z" />
<glyph unicode="&#xc5;" horiz-adv-x="740" d="M7 0l308 739h108l310 -739h-151l-79 191h-263l-82 -191h-151zM256 888q0 47 33 80t81 33q46 0 79 -33t33 -80t-33 -80t-80 -33t-80 33t-33 80zM290 322h158l-79 224zM329 888q0 -16 11.5 -28t28.5 -12t28.5 12t11.5 28t-11.5 28t-28.5 12t-28.5 -12t-11.5 -28z" />
<glyph unicode="&#xc6;" horiz-adv-x="900" d="M17 0l487 739h339v-131h-218v-174h207v-131h-207v-172h218v-131h-355v191h-194l-112 -191h-165zM373 322h115v191z" />
<glyph unicode="&#xc7;" horiz-adv-x="780" d="M30 372q0 157 111.5 268.5t268.5 111.5q115 0 208.5 -59.5t141.5 -165.5h-153q-38 49 -84 71t-110 22q-105 0 -175 -72t-70 -177q0 -104 73 -178t175 -74q54 0 96 20t87 67h161q-42 -98 -130 -156.5t-198 -62.5l-22 -45q18 7 29 7q37 0 64 -30t27 -71q0 -44 -26.5 -71 t-69.5 -27q-38 0 -66 23.5t-34 60.5h61q13 -29 38 -29q16 0 27.5 13t11.5 32q0 18 -11.5 31t-27.5 13q-19 0 -38 -27l-52 26l39 96q-149 14 -250.5 123.5t-101.5 259.5z" />
<glyph unicode="&#xc8;" horiz-adv-x="520" d="M68 0v739h397v-131h-260v-174h249v-131h-249v-172h260v-131h-397zM82 899l54 92l224 -134l-51 -78z" />
<glyph unicode="&#xc9;" horiz-adv-x="520" d="M68 0v739h397v-131h-260v-174h249v-131h-249v-172h260v-131h-397zM174 857l224 134l54 -92l-227 -120z" />
<glyph unicode="&#xca;" horiz-adv-x="520" d="M68 0v739h397v-131h-260v-174h249v-131h-249v-172h260v-131h-397zM68 806l147 138h107l145 -138h-145l-53 64l-54 -64h-147z" />
<glyph unicode="&#xcb;" horiz-adv-x="520" d="M68 0v739h397v-131h-260v-174h249v-131h-249v-172h260v-131h-397zM91 809v133h133v-133h-133zM301 809v133h133v-133h-133z" />
<glyph unicode="&#xcc;" horiz-adv-x="280" d="M-22 899l54 92l224 -134l-51 -78zM68 0v739h137v-739h-137z" />
<glyph unicode="&#xcd;" horiz-adv-x="280" d="M17 857l224 134l54 -92l-227 -120zM68 0v739h137v-739h-137z" />
<glyph unicode="&#xce;" horiz-adv-x="280" d="M-62 806l147 138h107l145 -138h-145l-53 64l-54 -64h-147zM68 0v739h137v-739h-137z" />
<glyph unicode="&#xcf;" horiz-adv-x="280" d="M-39 809v133h133v-133h-133zM68 0v739h137v-739h-137zM171 809v133h133v-133h-133z" />
<glyph unicode="&#xd0;" horiz-adv-x="742" d="M14 315v107h96v317h169q174 0 262 -53q77 -46 119 -129.5t42 -189.5q0 -112 -48 -198t-133 -128q-82 -41 -239 -41h-172v315h-96zM247 131h30q121 0 180 33q50 27 78.5 82t28.5 122q0 71 -30.5 127t-82.5 83q-59 30 -177 30h-27v-186h154v-107h-154v-184z" />
<glyph unicode="&#xd1;" horiz-adv-x="740" d="M68 0v739h156l306 -538v538h137v-739h-153l-309 537v-537h-137zM202 887q26 26 49 36.5t54 10.5q12 0 52.5 -12.5t54.5 -12.5q37 0 67 34l54 -81q-45 -55 -94 -55q-13 0 -58.5 12.5t-54.5 12.5q-18 0 -29.5 -4t-40.5 -21z" />
<glyph unicode="&#xd2;" horiz-adv-x="840" d="M30 369q0 162 112.5 272.5t277.5 110.5q158 0 269 -112t111 -270q0 -162 -110 -272.5t-271 -110.5q-163 0 -276 111t-113 271zM168 369q0 -105 72.5 -177.5t177.5 -72.5t174.5 71t69.5 178q0 106 -70.5 179t-173.5 73q-107 0 -178.5 -72t-71.5 -179zM235 899l54 92 l224 -134l-51 -78z" />
<glyph unicode="&#xd3;" horiz-adv-x="840" d="M30 369q0 162 112.5 272.5t277.5 110.5q158 0 269 -112t111 -270q0 -162 -110 -272.5t-271 -110.5q-163 0 -276 111t-113 271zM168 369q0 -105 72.5 -177.5t177.5 -72.5t174.5 71t69.5 178q0 106 -70.5 179t-173.5 73q-107 0 -178.5 -72t-71.5 -179zM327 857l224 134 l54 -92l-227 -120z" />
<glyph unicode="&#xd4;" horiz-adv-x="840" d="M30 369q0 162 112.5 272.5t277.5 110.5q158 0 269 -112t111 -270q0 -162 -110 -272.5t-271 -110.5q-163 0 -276 111t-113 271zM168 369q0 -105 72.5 -177.5t177.5 -72.5t174.5 71t69.5 178q0 106 -70.5 179t-173.5 73q-107 0 -178.5 -72t-71.5 -179zM221 806l147 138h107 l145 -138h-145l-53 64l-54 -64h-147z" />
<glyph unicode="&#xd5;" horiz-adv-x="840" d="M30 369q0 162 112.5 272.5t277.5 110.5q158 0 269 -112t111 -270q0 -162 -110 -272.5t-271 -110.5q-163 0 -276 111t-113 271zM168 369q0 -105 72.5 -177.5t177.5 -72.5t174.5 71t69.5 178q0 106 -70.5 179t-173.5 73q-107 0 -178.5 -72t-71.5 -179zM254 887 q26 26 49 36.5t54 10.5q12 0 52.5 -12.5t54.5 -12.5q37 0 67 34l54 -81q-45 -55 -94 -55q-13 0 -58.5 12.5t-54.5 12.5q-18 0 -29.5 -4t-40.5 -21z" />
<glyph unicode="&#xd6;" horiz-adv-x="840" d="M30 369q0 162 112.5 272.5t277.5 110.5q158 0 269 -112t111 -270q0 -162 -110 -272.5t-271 -110.5q-163 0 -276 111t-113 271zM168 369q0 -105 72.5 -177.5t177.5 -72.5t174.5 71t69.5 178q0 106 -70.5 179t-173.5 73q-107 0 -178.5 -72t-71.5 -179zM244 809v133h133 v-133h-133zM454 809v133h133v-133h-133z" />
<glyph unicode="&#xd7;" horiz-adv-x="600" d="M77 125l125 125l-125 125l98 98l125 -125l125 125l98 -98l-125 -125l125 -125l-98 -98l-125 125l-125 -125z" />
<glyph unicode="&#xd8;" horiz-adv-x="840" d="M30 370q0 159 112.5 270.5t273.5 111.5q85 0 165 -35l62 92l95 -66l-61 -90q126 -115 126 -283q0 -162 -110.5 -272.5t-271.5 -110.5q-88 0 -168 36l-60 -88l-96 65l59 87q-60 54 -93 128.5t-33 154.5zM168 370q0 -95 65 -169l272 404q-43 15 -89 15q-104 0 -176 -72.5 t-72 -177.5zM329 135q45 -16 91 -16q105 0 175 71t70 178q0 97 -64 172z" />
<glyph unicode="&#xd9;" horiz-adv-x="640" d="M68 271v468h137v-468q0 -82 28.5 -117t84.5 -35q55 0 83.5 34.5t28.5 117.5v468h137v-468q0 -138 -68.5 -211t-181.5 -73q-112 0 -180.5 73.5t-68.5 210.5zM133 899l54 92l224 -134l-51 -78z" />
<glyph unicode="&#xda;" horiz-adv-x="640" d="M68 271v468h137v-468q0 -82 28.5 -117t84.5 -35q55 0 83.5 34.5t28.5 117.5v468h137v-468q0 -138 -68.5 -211t-181.5 -73q-112 0 -180.5 73.5t-68.5 210.5zM225 857l224 134l54 -92l-227 -120z" />
<glyph unicode="&#xdb;" horiz-adv-x="640" d="M68 271v468h137v-468q0 -82 28.5 -117t84.5 -35q55 0 83.5 34.5t28.5 117.5v468h137v-468q0 -138 -68.5 -211t-181.5 -73q-112 0 -180.5 73.5t-68.5 210.5zM119 806l147 138h107l145 -138h-145l-53 64l-54 -64h-147z" />
<glyph unicode="&#xdc;" horiz-adv-x="640" d="M68 271v468h137v-468q0 -82 28.5 -117t84.5 -35q55 0 83.5 34.5t28.5 117.5v468h137v-468q0 -138 -68.5 -211t-181.5 -73q-112 0 -180.5 73.5t-68.5 210.5zM142 809v133h133v-133h-133zM352 809v133h133v-133h-133z" />
<glyph unicode="&#xdd;" horiz-adv-x="620" d="M3 739h148l164 -340l163 340h148l-243 -466v-273h-137v273zM222 857l224 134l54 -92l-227 -120z" />
<glyph unicode="&#xde;" d="M68 0v739h137v-131h46q132 0 189 -34q100 -61 100 -194q0 -64 -26 -117t-71 -81q-31 -19 -73.5 -26t-120.5 -7h-44v-149h-137zM205 280h40q89 0 123 23.5t34 73.5q0 58 -34.5 79t-116.5 21h-46v-197z" />
<glyph unicode="&#xdf;" horiz-adv-x="600" d="M51 0v487q0 124 59 194.5t162 70.5q92 0 155 -59t63 -147q0 -96 -75 -138q84 -20 126.5 -70.5t42.5 -121.5q0 -101 -65.5 -165t-168.5 -64q-121 0 -177 92v-79h-122zM184 189h82q7 -34 33.5 -57t59.5 -23q39 0 65 27.5t26 68.5q0 57 -40 83.5t-144 26.5h-11v118h11 q39 0 64.5 29.5t25.5 73.5q0 43 -23.5 68.5t-61.5 25.5q-87 0 -87 -127v-314z" />
<glyph unicode="&#xe0;" horiz-adv-x="660" d="M30 275q0 127 79.5 209.5t202.5 82.5q115 0 181 -87v74h122v-554h-122v72q-40 -45 -83 -65t-101 -20q-121 0 -200 81.5t-79 206.5zM145 724l54 92l224 -134l-51 -78zM164 272q0 -73 45.5 -118t118.5 -45q74 0 117.5 46.5t43.5 117.5q0 76 -46 124t-117 48t-116.5 -48.5 t-45.5 -124.5z" />
<glyph unicode="&#xe1;" horiz-adv-x="660" d="M30 275q0 127 79.5 209.5t202.5 82.5q115 0 181 -87v74h122v-554h-122v72q-40 -45 -83 -65t-101 -20q-121 0 -200 81.5t-79 206.5zM164 272q0 -73 45.5 -118t118.5 -45q74 0 117.5 46.5t43.5 117.5q0 76 -46 124t-117 48t-116.5 -48.5t-45.5 -124.5zM237 682l224 134 l54 -92l-227 -120z" />
<glyph unicode="&#xe2;" horiz-adv-x="660" d="M30 275q0 127 79.5 209.5t202.5 82.5q115 0 181 -87v74h122v-554h-122v72q-40 -45 -83 -65t-101 -20q-121 0 -200 81.5t-79 206.5zM131 631l147 138h107l145 -138h-145l-53 64l-54 -64h-147zM164 272q0 -73 45.5 -118t118.5 -45q74 0 117.5 46.5t43.5 117.5q0 76 -46 124 t-117 48t-116.5 -48.5t-45.5 -124.5z" />
<glyph unicode="&#xe3;" horiz-adv-x="660" d="M30 275q0 127 79.5 209.5t202.5 82.5q115 0 181 -87v74h122v-554h-122v72q-40 -45 -83 -65t-101 -20q-121 0 -200 81.5t-79 206.5zM164 272q0 -73 45.5 -118t118.5 -45q74 0 117.5 46.5t43.5 117.5q0 76 -46 124t-117 48t-116.5 -48.5t-45.5 -124.5zM164 712 q26 26 49 36.5t54 10.5q12 0 52.5 -12.5t54.5 -12.5q37 0 67 34l54 -81q-45 -55 -94 -55q-13 0 -58.5 12.5t-54.5 12.5q-18 0 -29.5 -4t-40.5 -21z" />
<glyph unicode="&#xe4;" horiz-adv-x="660" d="M30 275q0 127 79.5 209.5t202.5 82.5q115 0 181 -87v74h122v-554h-122v72q-40 -45 -83 -65t-101 -20q-121 0 -200 81.5t-79 206.5zM154 634v133h133v-133h-133zM164 272q0 -73 45.5 -118t118.5 -45q74 0 117.5 46.5t43.5 117.5q0 76 -46 124t-117 48t-116.5 -48.5 t-45.5 -124.5zM364 634v133h133v-133h-133z" />
<glyph unicode="&#xe5;" horiz-adv-x="660" d="M30 275q0 127 79.5 209.5t202.5 82.5q115 0 181 -87v74h122v-554h-122v72q-40 -45 -83 -65t-101 -20q-121 0 -200 81.5t-79 206.5zM164 272q0 -73 45.5 -118t118.5 -45q74 0 117.5 46.5t43.5 117.5q0 76 -46 124t-117 48t-116.5 -48.5t-45.5 -124.5zM217 710q0 47 33 80 t81 33q46 0 79 -33t33 -80t-33 -80t-80 -33t-80 33t-33 80zM290 710q0 -16 12 -28t28 -12t28 12t12 28t-12 28t-28 12t-28 -12t-12 -28z" />
<glyph unicode="&#xe6;" horiz-adv-x="1080" d="M30 275q0 124 83 208t205 84q102 0 167 -68v55h122v-55q67 68 167 68q116 0 196.5 -81t80.5 -198q0 -30 -9 -69h-428q17 -52 58.5 -81t97.5 -29q71 0 117 55h145q-25 -76 -98 -126.5t-158 -50.5q-106 0 -169 73v-60h-122v60q-34 -40 -71 -56.5t-94 -16.5 q-125 0 -207.5 82t-82.5 206zM164 280q0 -74 45.5 -122.5t115.5 -48.5q67 0 111.5 48t44.5 119q0 72 -45.5 120.5t-112.5 48.5t-113 -48t-46 -117zM607 337h304q-29 108 -150 108q-116 0 -154 -108z" />
<glyph unicode="&#xe7;" horiz-adv-x="640" d="M30 277q0 122 84.5 206t207.5 84q96 0 171.5 -52t107.5 -146h-150q-40 76 -129 76q-69 0 -113.5 -47t-44.5 -120t46 -121t115 -48q79 0 126 73h150q-33 -89 -100.5 -139.5t-158.5 -55.5l-22 -45q18 7 29 7q37 0 64 -30t27 -71q0 -44 -26.5 -71t-69.5 -27q-38 0 -66 23.5 t-34 60.5h61q13 -29 38 -29q16 0 27.5 13t11.5 32q0 18 -11.5 31t-27.5 13q-19 0 -38 -27l-52 26l39 96q-112 12 -187 94t-75 194z" />
<glyph unicode="&#xe8;" horiz-adv-x="640" d="M30 275q0 122 85 207t207 85q124 0 205 -84.5t81 -213.5q0 -27 -5 -51h-429q12 -50 53 -79.5t100 -29.5q41 0 68.5 12.5t53.5 42.5h145q-27 -82 -101.5 -129.5t-162.5 -47.5q-127 0 -213.5 83t-86.5 205zM137 724l54 92l224 -134l-51 -78zM170 335h307q-13 53 -52.5 81.5 t-100.5 28.5q-121 0 -154 -110z" />
<glyph unicode="&#xe9;" horiz-adv-x="640" d="M30 275q0 122 85 207t207 85q124 0 205 -84.5t81 -213.5q0 -27 -5 -51h-429q12 -50 53 -79.5t100 -29.5q41 0 68.5 12.5t53.5 42.5h145q-27 -82 -101.5 -129.5t-162.5 -47.5q-127 0 -213.5 83t-86.5 205zM170 335h307q-13 53 -52.5 81.5t-100.5 28.5q-121 0 -154 -110z M229 682l224 134l54 -92l-227 -120z" />
<glyph unicode="&#xea;" horiz-adv-x="640" d="M30 275q0 122 85 207t207 85q124 0 205 -84.5t81 -213.5q0 -27 -5 -51h-429q12 -50 53 -79.5t100 -29.5q41 0 68.5 12.5t53.5 42.5h145q-27 -82 -101.5 -129.5t-162.5 -47.5q-127 0 -213.5 83t-86.5 205zM123 631l147 138h107l145 -138h-145l-53 64l-54 -64h-147z M170 335h307q-13 53 -52.5 81.5t-100.5 28.5q-121 0 -154 -110z" />
<glyph unicode="&#xeb;" horiz-adv-x="640" d="M30 275q0 122 85 207t207 85q124 0 205 -84.5t81 -213.5q0 -27 -5 -51h-429q12 -50 53 -79.5t100 -29.5q41 0 68.5 12.5t53.5 42.5h145q-27 -82 -101.5 -129.5t-162.5 -47.5q-127 0 -213.5 83t-86.5 205zM146 634v133h133v-133h-133zM170 335h307q-13 53 -52.5 81.5 t-100.5 28.5q-121 0 -154 -110zM356 634v133h133v-133h-133z" />
<glyph unicode="&#xec;" horiz-adv-x="240" d="M-40 724l54 92l224 -134l-51 -78zM54 0v554h133v-554h-133z" />
<glyph unicode="&#xed;" horiz-adv-x="240" d="M3 682l224 134l54 -92l-227 -120zM54 0v554h133v-554h-133z" />
<glyph unicode="&#xee;" horiz-adv-x="240" d="M-78 631l147 138h107l145 -138h-145l-53 64l-54 -64h-147zM54 0v554h133v-554h-133z" />
<glyph unicode="&#xef;" horiz-adv-x="240" d="M-55 634v133h133v-133h-133zM54 0v554h133v-554h-133zM155 634v133h133v-133h-133z" />
<glyph unicode="&#xf0;" horiz-adv-x="640" d="M30 278q0 112 78.5 195t189.5 83q26 0 67 -9l-28 28q-28 28 -49 46l-87 -40l-40 46l78 37l-70 57l103 35q4 -2 7.5 -5t5.5 -4.5t3 -1.5l30 -23q1 0 19 -13l87 40l41 -49l-78 -35q127 -109 179.5 -196.5t52.5 -184.5q0 -125 -85 -211t-209 -86q-122 0 -208.5 85.5 t-86.5 205.5zM164 279q0 -71 47 -120.5t114 -49.5q66 0 113 49t47 119q0 69 -47 118.5t-114 49.5q-65 0 -112.5 -49t-47.5 -117z" />
<glyph unicode="&#xf1;" horiz-adv-x="600" d="M54 0v554h123v-53q69 66 156 66q118 0 173 -80q22 -32 31 -74t9 -116v-297h-133v271q0 104 -25.5 139t-80.5 35q-66 0 -98 -51q-22 -35 -22 -133v-261h-133zM134 712q26 26 49 36.5t54 10.5q12 0 52.5 -12.5t54.5 -12.5q37 0 67 34l54 -81q-45 -55 -94 -55 q-13 0 -58.5 12.5t-54.5 12.5q-18 0 -29.5 -4t-40.5 -21z" />
<glyph unicode="&#xf2;" horiz-adv-x="640" d="M30 277q0 119 86 204.5t207 85.5q125 0 210.5 -85t85.5 -209q0 -117 -87 -201.5t-208 -84.5q-122 0 -208 85t-86 205zM138 724l54 92l224 -134l-51 -78zM164 279q0 -71 47 -120.5t114 -49.5q66 0 113 49t47 119q0 69 -47 118.5t-114 49.5q-65 0 -112.5 -49t-47.5 -117z " />
<glyph unicode="&#xf3;" horiz-adv-x="640" d="M30 277q0 119 86 204.5t207 85.5q125 0 210.5 -85t85.5 -209q0 -117 -87 -201.5t-208 -84.5q-122 0 -208 85t-86 205zM164 279q0 -71 47 -120.5t114 -49.5q66 0 113 49t47 119q0 69 -47 118.5t-114 49.5q-65 0 -112.5 -49t-47.5 -117zM230 682l224 134l54 -92l-227 -120z " />
<glyph unicode="&#xf4;" horiz-adv-x="640" d="M30 277q0 119 86 204.5t207 85.5q125 0 210.5 -85t85.5 -209q0 -117 -87 -201.5t-208 -84.5q-122 0 -208 85t-86 205zM124 631l147 138h107l145 -138h-145l-53 64l-54 -64h-147zM164 279q0 -71 47 -120.5t114 -49.5q66 0 113 49t47 119q0 69 -47 118.5t-114 49.5 q-65 0 -112.5 -49t-47.5 -117z" />
<glyph unicode="&#xf5;" horiz-adv-x="640" d="M30 277q0 119 86 204.5t207 85.5q125 0 210.5 -85t85.5 -209q0 -117 -87 -201.5t-208 -84.5q-122 0 -208 85t-86 205zM157 712q26 26 49 36.5t54 10.5q12 0 52.5 -12.5t54.5 -12.5q37 0 67 34l54 -81q-45 -55 -94 -55q-13 0 -58.5 12.5t-54.5 12.5q-18 0 -29.5 -4 t-40.5 -21zM164 279q0 -71 47 -120.5t114 -49.5q66 0 113 49t47 119q0 69 -47 118.5t-114 49.5q-65 0 -112.5 -49t-47.5 -117z" />
<glyph unicode="&#xf6;" horiz-adv-x="640" d="M30 277q0 119 86 204.5t207 85.5q125 0 210.5 -85t85.5 -209q0 -117 -87 -201.5t-208 -84.5q-122 0 -208 85t-86 205zM147 634v133h133v-133h-133zM164 279q0 -71 47 -120.5t114 -49.5q66 0 113 49t47 119q0 69 -47 118.5t-114 49.5q-65 0 -112.5 -49t-47.5 -117z M357 634v133h133v-133h-133z" />
<glyph unicode="&#xf7;" horiz-adv-x="600" d="M54 181v138h492v-138h-492zM236 65q0 27 19 45.5t45 18.5t45 -18.5t19 -45.5q0 -26 -19 -45t-45 -19t-45 19t-19 45zM236 435q0 26 19 45t45 19t45 -19t19 -45q0 -27 -19 -45.5t-45 -18.5t-45 18.5t-19 45.5z" />
<glyph unicode="&#xf8;" horiz-adv-x="660" d="M30 277q0 120 87 205t209 85q56 0 109 -21l52 77l86 -58l-50 -73q97 -89 97 -215q0 -120 -86 -205t-208 -85q-66 0 -126 28l-56 -82l-85 57l57 84q-86 81 -86 203zM164 278q0 -50 27 -93l172 255q-19 5 -38 5q-66 0 -113.5 -49t-47.5 -118zM271 119q27 -10 54 -10 q67 0 114 49t47 118q0 59 -36 107z" />
<glyph unicode="&#xf9;" horiz-adv-x="600" d="M54 257v297h133v-271q0 -103 26 -138.5t79 -35.5q69 0 101 51q21 35 21 133v261h133v-554h-123v53q-37 -37 -73 -51.5t-86 -14.5q-211 0 -211 270zM116 724l54 92l224 -134l-51 -78z" />
<glyph unicode="&#xfa;" horiz-adv-x="600" d="M54 257v297h133v-271q0 -103 26 -138.5t79 -35.5q69 0 101 51q21 35 21 133v261h133v-554h-123v53q-37 -37 -73 -51.5t-86 -14.5q-211 0 -211 270zM208 682l224 134l54 -92l-227 -120z" />
<glyph unicode="&#xfb;" horiz-adv-x="600" d="M54 257v297h133v-271q0 -103 26 -138.5t79 -35.5q69 0 101 51q21 35 21 133v261h133v-554h-123v53q-37 -37 -73 -51.5t-86 -14.5q-211 0 -211 270zM102 631l147 138h107l145 -138h-145l-53 64l-54 -64h-147z" />
<glyph unicode="&#xfc;" horiz-adv-x="600" d="M54 257v297h133v-271q0 -103 26 -138.5t79 -35.5q69 0 101 51q21 35 21 133v261h133v-554h-123v53q-37 -37 -73 -51.5t-86 -14.5q-211 0 -211 270zM125 634v133h133v-133h-133zM335 634v133h133v-133h-133z" />
<glyph unicode="&#xfd;" horiz-adv-x="580" d="M6 554h152l123 -359l134 359h153l-320 -739h-143l104 237zM194 682l224 134l54 -92l-227 -120z" />
<glyph unicode="&#xfe;" horiz-adv-x="660" d="M54 -185v924h133v-244q66 72 172 72q120 0 197.5 -82t77.5 -208q0 -127 -77.5 -208.5t-197.5 -81.5q-106 0 -172 72v-244h-133zM179 279q0 -73 46 -121.5t116 -48.5q67 0 113 48.5t46 119.5t-46 119.5t-113 48.5q-69 0 -115.5 -47.5t-46.5 -118.5z" />
<glyph unicode="&#xff;" horiz-adv-x="580" d="M6 554h152l123 -359l134 359h153l-320 -739h-143l104 237zM111 634v133h133v-133h-133zM321 634v133h133v-133h-133z" />
<glyph unicode="&#x152;" horiz-adv-x="1060" d="M38 369q0 164 107 273.5t268 109.5q151 0 234 -95v82h357v-131h-218v-174h207v-131h-207v-172h218v-131h-357v81q-85 -94 -229 -94q-162 0 -271 109.5t-109 272.5zM176 365q0 -104 69 -175t171 -71q103 0 169.5 70.5t66.5 178.5t-67.5 180t-169.5 72q-104 0 -171.5 -74 t-67.5 -181z" />
<glyph unicode="&#x153;" horiz-adv-x="1080" d="M30 277q0 121 84 205.5t206 84.5q136 0 223 -111q48 59 100 85t119 26q125 0 205.5 -81t80.5 -202q0 -32 -5 -66h-429q17 -50 57.5 -79.5t95.5 -29.5q34 0 67.5 15t53.5 39h142q-29 -80 -100.5 -128t-161.5 -48q-146 0 -225 113q-78 -113 -219 -113q-126 0 -210 83 t-84 207zM164 281q0 -74 47 -123t118 -49q67 0 112 48t45 119q0 72 -46.5 120.5t-114.5 48.5q-67 0 -114 -48t-47 -116zM608 335h302q-32 110 -150 110q-114 0 -152 -110z" />
<glyph unicode="&#x178;" horiz-adv-x="620" d="M3 739h148l164 -340l163 340h148l-243 -466v-273h-137v273zM139 809v133h133v-133h-133zM349 809v133h133v-133h-133z" />
<glyph unicode="&#x2c6;" horiz-adv-x="540" d="M71 631l147 138h107l145 -138h-145l-53 64l-54 -64h-147z" />
<glyph unicode="&#x2dc;" horiz-adv-x="480" d="M74 712q26 26 49 36.5t54 10.5q12 0 52.5 -12.5t54.5 -12.5q37 0 67 34l54 -81q-45 -55 -94 -55q-13 0 -58.5 12.5t-54.5 12.5q-18 0 -29.5 -4t-40.5 -21z" />
<glyph unicode="&#x2000;" horiz-adv-x="500" />
<glyph unicode="&#x2001;" horiz-adv-x="1001" />
<glyph unicode="&#x2002;" horiz-adv-x="500" />
<glyph unicode="&#x2003;" horiz-adv-x="1001" />
<glyph unicode="&#x2004;" horiz-adv-x="333" />
<glyph unicode="&#x2005;" horiz-adv-x="250" />
<glyph unicode="&#x2006;" horiz-adv-x="166" />
<glyph unicode="&#x2007;" horiz-adv-x="166" />
<glyph unicode="&#x2008;" horiz-adv-x="125" />
<glyph unicode="&#x2009;" horiz-adv-x="200" />
<glyph unicode="&#x200a;" horiz-adv-x="55" />
<glyph unicode="&#x2010;" horiz-adv-x="420" d="M74 229v118h277v-118h-277z" />
<glyph unicode="&#x2011;" horiz-adv-x="420" d="M74 229v118h277v-118h-277z" />
<glyph unicode="&#x2012;" horiz-adv-x="420" d="M74 229v118h277v-118h-277z" />
<glyph unicode="&#x2013;" horiz-adv-x="500" d="M0 229v118h500v-118h-500z" />
<glyph unicode="&#x2014;" horiz-adv-x="1000" d="M0 229v118h1000v-118h-1000z" />
<glyph unicode="&#x2018;" horiz-adv-x="280" d="M72 466v140q0 60 36 96.5t97 36.5v-67q-32 -6 -45.5 -19t-13.5 -38q0 -10 1 -16h58v-133h-133z" />
<glyph unicode="&#x2019;" horiz-adv-x="280" d="M72 466v67q32 6 45.5 20t13.5 40q0 11 -1 18h-58v128h133v-140q0 -60 -34.5 -96.5t-98.5 -36.5z" />
<glyph unicode="&#x201a;" horiz-adv-x="280" d="M70 0v128h133v-135q0 -60 -34.5 -96.5t-98.5 -36.5v67q32 6 45.5 19t13.5 37q0 11 -1 17h-58z" />
<glyph unicode="&#x201c;" horiz-adv-x="480" d="M70 466v140q0 60 36 96.5t97 36.5v-67q-32 -6 -45.5 -19t-13.5 -39q0 -9 1 -15h58v-133h-133zM277 466v140q0 60 36 96.5t97 36.5v-67q-32 -6 -45.5 -19t-13.5 -37q0 -11 1 -17h58v-133h-133z" />
<glyph unicode="&#x201d;" horiz-adv-x="480" d="M70 466v67q31 6 45 20.5t14 39.5q0 11 -1 18h-58v128h133v-140q0 -60 -35 -96.5t-98 -36.5zM277 466v67q32 6 45.5 20t13.5 40q0 11 -1 18h-58v128h133v-140q0 -60 -35 -96.5t-98 -36.5z" />
<glyph unicode="&#x201e;" horiz-adv-x="480" d="M70 0v128h133v-135q0 -60 -34.5 -96.5t-98.5 -36.5v67q32 6 45.5 19t13.5 37q0 11 -1 17h-58zM277 0v128h133v-135q0 -60 -35 -96.5t-98 -36.5v67q32 6 45.5 19t13.5 37q0 11 -1 17h-58z" />
<glyph unicode="&#x2022;" horiz-adv-x="600" d="M134 316q0 69 49.5 118.5t118.5 49.5q70 0 119.5 -49t49.5 -119q0 -71 -49.5 -120t-121.5 -49q-68 0 -117 50t-49 119z" />
<glyph unicode="&#x2026;" horiz-adv-x="1000" d="M100 0v128h133v-128h-133zM432 0v128h133v-128h-133zM765 0v128h134v-128h-134z" />
<glyph unicode="&#x202f;" horiz-adv-x="200" />
<glyph unicode="&#x2039;" horiz-adv-x="240" d="M36 239v100l139 130v-123l-67 -57l67 -58v-123z" />
<glyph unicode="&#x203a;" horiz-adv-x="240" d="M73 108v123l67 58l-67 57v123l139 -130v-100z" />
<glyph unicode="&#x205f;" horiz-adv-x="250" />
<glyph unicode="&#x20ac;" d="M-33 393l24 88h79q33 142 107.5 205.5t198.5 63.5q62 0 109.5 -14.5t109.5 -51.5l-39 -103q-98 58 -183 58q-68 0 -108 -37t-63 -121h315l-33 -88h-289v-45h272l-34 -88h-233q18 -73 64.5 -114t114.5 -41q49 0 146 40v-123q-81 -33 -160 -33q-93 0 -165 46 q-52 31 -81.5 82t-49.5 143h-101l24 88h69v19q0 15 1 26h-95z" />
<glyph unicode="&#x2122;" horiz-adv-x="1000" d="M54 643v96h295v-96h-91v-336h-113v336h-91zM412 307v432h143l125 -293l123 293h143v-432h-113v263l-110 -263h-88l-110 263v-263h-113z" />
<glyph unicode="&#xe000;" horiz-adv-x="555" d="M0 0v555h555v-555h-555z" />
</font>
</defs>
</svg>
