<?xml version="1.0" standalone="no"?>
<!DOCTYPE svg PUBLIC "-//W3C//DTD SVG 1.1//EN" "http://www.w3.org/Graphics/SVG/1.1/DTD/svg11.dtd" >
<svg xmlns="http://www.w3.org/2000/svg">
<metadata></metadata>
<defs>
<font id="bonvenocflight" horiz-adv-x="694" >
<font-face units-per-em="1000" ascent="800" descent="-200" />
<missing-glyph horiz-adv-x="400" />
<glyph horiz-adv-x="1000" />
<glyph horiz-adv-x="1000" />
<glyph unicode="&#xd;" horiz-adv-x="1000" />
<glyph unicode=" "  horiz-adv-x="400" />
<glyph unicode="&#x09;" horiz-adv-x="400" />
<glyph unicode="&#xa0;" horiz-adv-x="400" />
<glyph unicode="!" horiz-adv-x="336" d="M120 44q0 20 14 34t34 14t34 -14t14 -34t-14 -34t-34 -14t-34 14t-14 34zM142 728h54l-8 -562h-38z" />
<glyph unicode="&#x22;" horiz-adv-x="321" d="M50 728h67l-10 -204h-47zM204 728h67l-10 -204h-47z" />
<glyph unicode="#" horiz-adv-x="606" d="M50 171v50h139l19 107h-130v50h138l24 137l50 -9l-23 -128h109l24 137l49 -9l-22 -128h130v-50h-139l-19 -107h130v-50h-139l-24 -137l-49 9l22 128h-108l-24 -137l-50 9l23 128h-130zM239 221h109l19 107h-109z" />
<glyph unicode="$" horiz-adv-x="456" d="M80 166l50 2q9 -99 95 -99q47 0 74 31t27 66q0 56 -109 80q-41 9 -69.5 24.5t-40 32.5t-15.5 30t-4 25q0 61 33 96.5t77 44.5v125h50v-123q54 -7 87 -46t35 -93l-50 -2q-1 35 -24.5 63.5t-69.5 28.5q-36 0 -62 -25.5t-26 -67.5q0 -45 89 -64q149 -33 149 -129 q0 -50 -33.5 -93.5t-94.5 -51.5v-125h-50v125q-44 7 -78 41t-40 104z" />
<glyph unicode="%" horiz-adv-x="579" d="M60 426q0 51 31 79t68 28q51 0 79 -31t28 -68q0 -52 -31 -79.5t-68 -27.5q-51 0 -79 31t-28 68zM110 427q0 -19 14.5 -34.5t41.5 -15.5q19 0 34.5 14t15.5 41q0 19 -14 35t-41 16q-19 0 -35 -14.5t-16 -41.5zM145 11l244 524l46 -21l-245 -525zM313 91q0 51 31 79t68 28 q51 0 79 -31t28 -68q0 -51 -31 -79t-68 -28q-51 0 -79 31t-28 68zM363 92q0 -19 14.5 -34.5t41.5 -15.5q19 0 34.5 14t15.5 41q0 19 -14 35t-41 16q-19 0 -35 -14.5t-16 -41.5z" />
<glyph unicode="&#x26;" horiz-adv-x="699" d="M80 218q0 76 37.5 131.5t97.5 83.5q-34 23 -53.5 60t-19.5 76q0 78 50 125t116 47q77 0 124 -50t47 -115h-50q0 46 -33.5 80.5t-87.5 34.5q-46 0 -81 -33.5t-35 -87.5q0 -45 33 -80.5t86 -35.5v-50q-74 0 -127.5 -52t-53.5 -133q0 -72 51.5 -126.5t133.5 -54.5 q72 0 126.5 51.5t54.5 134.5v180h-50v50h50v50h50v-50h133v-50h-133v-180q0 -107 -70 -171.5t-160 -64.5q-106 0 -171 70t-65 160z" />
<glyph unicode="'" horiz-adv-x="167" d="M50 728h67l-10 -204h-47z" />
<glyph unicode="(" horiz-adv-x="371" d="M90 295q0 154 57 289.5t159 236.5l35 -35q-95 -95 -148 -221t-53 -270q0 -137 52 -262t147 -221l-36 -35q-101 103 -157 237t-56 281z" />
<glyph unicode=")" horiz-adv-x="371" d="M30 786l35 35q102 -102 159 -237t57 -289q0 -147 -56 -281.5t-158 -236.5l-35 35q94 96 146.5 221t52.5 262q0 144 -53 270t-148 221z" />
<glyph unicode="*" horiz-adv-x="495" d="M80 497l137 70l-137 70l22 38l130 -81l-5 153h44l-8 -153l131 81l21 -39l-137 -69l137 -70l-21 -38l-131 81l8 -153h-44l5 152l-130 -81z" />
<glyph unicode="+" horiz-adv-x="598" d="M50 224v50h224v224h50v-224h224v-50h-224v-224h-50v224h-224z" />
<glyph unicode="," horiz-adv-x="243" d="M60 -68l64 209l60 -20l-82 -204z" />
<glyph unicode="-" horiz-adv-x="355" d="M30 281l287 51l8 -49l-286 -51z" />
<glyph unicode="." horiz-adv-x="296" d="M100 44q0 20 14 34t34 14t34 -14t14 -34t-14 -34t-34 -14t-34 14t-14 34z" />
<glyph unicode="/" horiz-adv-x="449" d="M60 -130l342 940l47 -17l-342 -940z" />
<glyph unicode="0" horiz-adv-x="675" d="M105 259q0 128 70.5 203.5t159.5 75.5q103 0 169 -81.5t66 -191.5q0 -128 -70.5 -203.5t-159.5 -75.5q-103 0 -169 81.5t-66 191.5zM155 259q0 -90 51.5 -156.5t132.5 -66.5q74 0 127.5 64.5t53.5 164.5q0 90 -52 156.5t-133 66.5q-73 0 -126.5 -65t-53.5 -164z" />
<glyph unicode="1" horiz-adv-x="290" d="M120 0v524h50v-524h-50z" />
<glyph unicode="2" horiz-adv-x="447" d="M50 488q47 50 117 50q77 0 122.5 -49.5t45.5 -112.5q0 -51 -23 -89l-134 -237h220v-50h-305l175 312q17 27 17 63q0 44 -31.5 78.5t-85.5 34.5q-49 0 -82 -36z" />
<glyph unicode="3" horiz-adv-x="476" d="M20 -179l25 43q52 -30 117 -30q90 0 157 64.5t67 164.5q0 74 -44 134.5t-118 81.5q52 35 52 94q0 43 -32 78t-86 35q-49 0 -82 -36l-36 35q49 51 117 51q75 0 122 -49t47 -109q0 -40 -20 -81q61 -37 95.5 -99.5t34.5 -133.5q0 -122 -82 -201t-192 -79q-78 0 -142 37z" />
<glyph unicode="4" horiz-adv-x="585" d="M0 0l462 551v-501h73v-50h-73v-156h-50v156h-412zM107 50h305v364z" />
<glyph unicode="5" horiz-adv-x="598" d="M100 223l26 301h344v-50h-298l-14 -168q15 15 34 22.5t31 8.5t35 1q122 0 201 -81.5t79 -192.5q0 -122 -82 -201t-192 -79q-78 0 -142 37l25 43q52 -30 116 -30q91 0 158 64.5t67 164.5q0 91 -64.5 158t-164.5 67q-93 0 -159 -65z" />
<glyph unicode="6" horiz-adv-x="571" d="M60 218q0 68 32 122l234 406l44 -25l-164 -283q43 16 84 16q106 0 171 -70t65 -160q0 -106 -70 -171t-160 -65q-106 0 -171 70t-65 160zM110 219q0 -72 51.5 -126.5t133.5 -54.5q72 0 126.5 51.5t54.5 133.5q0 72 -51.5 126.5t-133.5 54.5q-72 0 -126.5 -51.5 t-54.5 -133.5z" />
<glyph unicode="7" horiz-adv-x="512" d="M30 474v50h482l-428 -741l-44 25l385 666h-395z" />
<glyph unicode="8" horiz-adv-x="606" d="M70 218q0 54 19 98t46.5 68t53 37t42.5 13q-7 1 -20.5 8t-32 21.5t-31.5 42.5t-13 63q0 78 51.5 125.5t117.5 47.5q77 0 122.5 -50.5t45.5 -116.5q0 -36 -9.5 -58.5t-29.5 -46.5q-7 -8 -27.5 -21t-29.5 -15q20 -1 55 -19.5t61 -54.5q45 -62 45 -136q0 -106 -70 -171 t-160 -65q-106 0 -171 70t-65 160zM120 219q0 -72 51.5 -126.5t133.5 -54.5q72 0 126.5 51.5t54.5 133.5q0 71 -50.5 126t-131.5 55q-78 0 -131 -53t-53 -132zM184 570q0 -45 32 -80.5t87 -35.5q46 0 82 33t36 87q0 46 -32 81.5t-86 35.5q-47 0 -83 -33.5t-36 -87.5z" />
<glyph unicode="9" horiz-adv-x="571" d="M45 304q0 106 70 171t160 65q106 0 171 -70.5t65 -159.5q0 -68 -31 -122l-235 -406l-43 24l164 284q-41 -16 -85 -16q-106 0 -171 70t-65 160zM95 304q0 -71 51.5 -125.5t133.5 -54.5q72 0 126.5 51t54.5 134q0 72 -51.5 126.5t-133.5 54.5q-72 0 -126.5 -51.5 t-54.5 -134.5z" />
<glyph unicode=":" horiz-adv-x="316" d="M110 44q0 20 14 34t34 14t34 -14t14 -34t-14 -34t-34 -14t-34 14t-14 34zM110 481q0 19 14 33.5t34 14.5t34 -14.5t14 -33.5q0 -20 -14 -34t-34 -14t-34 14t-14 34z" />
<glyph unicode=";" horiz-adv-x="346" d="M110 -68l64 209l60 -20l-82 -204zM140 481q0 19 14 33.5t34 14.5t34 -14t14 -34t-14 -34t-34 -14t-34 14t-14 34z" />
<glyph unicode="&#x3c;" horiz-adv-x="588" d="M30 250l462 267l25 -43l-387 -224l388 -224l-25 -43z" />
<glyph unicode="=" horiz-adv-x="698" d="M100 150v50h498v-50h-498zM100 298v50h498v-50h-498z" />
<glyph unicode="&#x3e;" horiz-adv-x="588" d="M70 474l25 43l463 -266l-462 -268l-25 43l387 225z" />
<glyph unicode="?" horiz-adv-x="468" d="M50 683q29 30 68 45.5t77 15.5q42 0 78 -12.5t60.5 -33t41.5 -47t25 -54.5t8 -56q0 -44 -14 -82t-38.5 -64.5t-57 -43.5t-70.5 -22l-6 -161h-38l-8 213l54 -1q37 8 65 27.5t45.5 54t17.5 79.5q0 48 -32.5 93.5t-95.5 56.5q-16 3 -35 3q-63 0 -110 -47zM154 44.5 q0 19.5 14.5 33.5t33.5 14q20 0 34 -14t14 -34t-14 -34t-34 -14q-19 0 -33.5 14.5t-14.5 34z" />
<glyph unicode="@" horiz-adv-x="798" d="M55 327q0 147 101 247t245 100t245.5 -99.5t101.5 -248.5q0 -85 -57 -148.5t-132 -63.5q-39 0 -51 17.5t-12 46.5v16q-43 -63 -122 -63q-85 0 -140.5 57.5t-55.5 134.5q0 86 57.5 141t134.5 55q85 0 126 -61v49h35q-2 -92 -2 -193v-89q0 -52 5 -64t25 -12 q57 0 105.5 51.5t48.5 125.5q0 135 -91.5 224t-221.5 89q-129 0 -219.5 -89.5t-90.5 -222.5q0 -130 90 -220.5t223 -90.5q106 0 188 63l21 -28q-95 -70 -209 -70q-148 0 -248 101t-100 245zM213 323q0 -63 45.5 -110t115.5 -47q74 0 122 59v200q-47 59 -126 59 q-63 0 -110 -45.5t-47 -115.5z" />
<glyph unicode="A" horiz-adv-x="791" d="M50 11l346 740l345 -740l-49 -23l-126 270h-341l-126 -270zM250 312h291l-146 312z" />
<glyph unicode="B" horiz-adv-x="628" d="M120 0v728h182q85 0 137 -55.5t52 -126.5q0 -68 -36 -107q-9 -9 -31 -22t-33 -15q37 -4 89.5 -57t52.5 -135q0 -94 -61.5 -152t-141.5 -58h-210zM174 54h155q59 0 104.5 43t45.5 112q0 57 -38 103t-99 46h-168v-304zM174 412h155q45 8 76.5 44t31.5 89q0 51 -37.5 90 t-97.5 39h-128v-262z" />
<glyph unicode="C" horiz-adv-x="806" d="M55 362q0 111 53.5 200.5t140 137.5t186.5 48q165 0 276 -113l-38 -38q-95 97 -238 97q-133 0 -229.5 -95t-96.5 -236q0 -134 95 -230.5t236 -96.5q133 0 230 94l38 -38q-112 -110 -267 -110q-111 0 -200.5 53.5t-137.5 140t-48 186.5z" />
<glyph unicode="D" horiz-adv-x="723" d="M120 0v728h182q152 0 259 -106t107 -257t-107 -258t-259 -107h-182zM174 54h128q129 0 220 91t91 220t-91 219t-220 90h-128v-620z" />
<glyph unicode="E" horiz-adv-x="588" d="M120 0v728h330v-54h-276v-262h220v-54h-220v-304h314v-54h-368z" />
<glyph unicode="F" horiz-adv-x="548" d="M120 0v728h368v-54h-314v-262h220v-54h-220v-358h-54z" />
<glyph unicode="G" horiz-adv-x="806" d="M55 362q0 111 53.5 200.5t140 137.5t186.5 48q165 0 276 -113l-38 -38q-95 97 -238 97q-133 0 -229.5 -95t-96.5 -236q0 -134 95 -230.5t236 -96.5q121 0 214 80v142h-214v54h268v-220q-112 -110 -267 -110q-111 0 -200.5 53.5t-137.5 140t-48 186.5z" />
<glyph unicode="H" horiz-adv-x="734" d="M120 0v728h54v-316h386v316h54v-728h-54v358h-386v-358h-54z" />
<glyph unicode="I" horiz-adv-x="294" d="M120 0v728h54v-728h-54z" />
<glyph unicode="J" horiz-adv-x="585" d="M0 109l53 9q12 -60 60 -102.5t120 -42.5q69 0 123.5 49.5t54.5 131.5v574h54v-270q0 -105 0.5 -171.5t0.5 -92.5v-33q0 -109 -70.5 -175.5t-161.5 -66.5q-94 0 -156 55.5t-78 134.5z" />
<glyph unicode="K" horiz-adv-x="691" d="M120 0v728h54v-728h-54zM190 386l356 356l38 -38l-318 -318l365 -365l-38 -38z" />
<glyph unicode="L" horiz-adv-x="593" d="M120 0v728h54v-674h384v-54h-438z" />
<glyph unicode="M" horiz-adv-x="953" d="M120 0v752l357 -425l356 425v-752h-54v604l-302 -361l-303 361v-604h-54z" />
<glyph unicode="N" horiz-adv-x="821" d="M120 0v752l527 -628v604h54v-752l-527 628v-604h-54z" />
<glyph unicode="O" horiz-adv-x="876" d="M55 362q0 111 53.5 200.5t140 137.5t186.5 48q111 0 200.5 -53.5t137.5 -140t48 -186.5q0 -111 -53.5 -200.5t-140 -137.5t-186.5 -48q-111 0 -200.5 53.5t-137.5 140t-48 186.5zM109 363q0 -131 93.5 -229t237.5 -98q131 0 229 93t98 236q0 137 -95 233t-237 96 q-130 0 -228 -93.5t-98 -237.5z" />
<glyph unicode="P" horiz-adv-x="635" d="M120 0v728h223q105 0 168.5 -70.5t63.5 -161.5q0 -104 -68.5 -171t-160.5 -67h-172v-258h-54zM174 312h171q69 0 122.5 50.5t53.5 133.5q0 69 -48.5 123.5t-129.5 54.5h-169v-362z" />
<glyph unicode="Q" horiz-adv-x="901" d="M55 362q0 167 113 276.5t267 109.5q111 0 200.5 -53.5t137.5 -140t48 -186.5q0 -164 -113 -276l109 -109l-38 -38l-112 112q-102 -75 -226 -75q-111 0 -200.5 53.5t-137.5 140t-48 186.5zM109 363q0 -131 93.5 -229t237.5 -98q130 0 228.5 93t98.5 236q0 137 -95 233 t-237 96q-130 0 -228 -93.5t-98 -237.5z" />
<glyph unicode="R" horiz-adv-x="660" d="M120 0v728h223q105 0 168.5 -70.5t63.5 -161.5q0 -94 -59 -161.5t-140 -67.5q-39 0 -63 8l254 -255l-38 -38l-330 330h146q69 0 122.5 50.5t53.5 133.5q0 69 -48.5 123.5t-129.5 54.5h-169v-674h-54z" />
<glyph unicode="S" horiz-adv-x="593" d="M55 208l54 3q4 -53 22.5 -90.5t45.5 -55.5t52 -25.5t53 -7.5q81 0 131.5 54t50.5 119q0 53 -39 86.5t-157 63.5q-181 49 -181 187q0 51 19 91.5t49.5 62.5t63.5 33.5t65 11.5q90 0 145.5 -57t59.5 -142l-54 -3q-3 64 -43.5 106t-106.5 42q-56 0 -100 -37t-44 -106 q0 -101 141 -136q137 -36 186.5 -83.5t49.5 -119.5q0 -87 -65 -157t-172 -70q-33 0 -66 9.5t-69 32.5t-61 71.5t-30 116.5z" />
<glyph unicode="T" horiz-adv-x="590" d="M20 674v54h550v-54h-246v-674h-54v674h-250z" />
<glyph unicode="U" horiz-adv-x="790" d="M120 256v472h54v-470q0 -87 62 -153t162 -66q86 0 152 62.5t66 161.5v465h54v-465q0 -123 -82.5 -200.5t-189.5 -77.5q-123 0 -200.5 82t-77.5 189z" />
<glyph unicode="V" horiz-adv-x="710" d="M10 715l49 23l296 -636l297 636l49 -23l-346 -740z" />
<glyph unicode="W" horiz-adv-x="1090" d="M10 715l49 23l296 -636l161 344l-126 269l49 23l296 -636l297 636l49 -23l-346 -740l-190 407l-190 -407z" />
<glyph unicode="X" horiz-adv-x="768" d="M40 17l309 368l-274 327l41 34l271 -322l271 323l41 -35l-277 -330l306 -365l-41 -35l-303 361l-302 -360z" />
<glyph unicode="Y" horiz-adv-x="595" d="M40 715l49 23l208 -448l209 448l49 -23l-231 -495v-220h-54v221z" />
<glyph unicode="Z" horiz-adv-x="740" d="M20 0l566 674h-490v54h605l-565 -674h584v-54h-700z" />
<glyph unicode="[" horiz-adv-x="363" d="M130 -200v1000h233v-50h-183v-900h183v-50h-233z" />
<glyph unicode="\" horiz-adv-x="449" d="M0 793l47 17l342 -940l-47 -17z" />
<glyph unicode="]" horiz-adv-x="362" d="M0 -150h182v900h-182v50h232v-1000h-232v50z" />
<glyph unicode="^" horiz-adv-x="468" d="M70 469l164 353l164 -353l-45 -21l-119 256l-119 -256z" />
<glyph unicode="_" horiz-adv-x="500" d="M0 -75h500v-50h-500v50z" />
<glyph unicode="`" horiz-adv-x="294" d="M50 728l44 45l150 -160l-31 -32z" />
<glyph unicode="a" d="M70 261q0 122 82 201t192 79q120 0 180 -87v70h50v-524h-50v76q-60 -89 -174 -89q-122 0 -201 81.5t-79 192.5zM120 262q0 -91 64.5 -158t164.5 -67q108 0 175 84v286q-67 84 -179 84q-91 0 -158 -64.5t-67 -164.5z" />
<glyph unicode="b" d="M120 0v800h50v-346q60 87 180 87q110 0 192 -79t82 -201q0 -111 -79 -192.5t-201 -81.5q-114 0 -174 89v-76h-50zM170 121q67 -84 175 -84q100 0 164.5 67t64.5 158q0 100 -67 164.5t-158 64.5q-112 0 -179 -84v-286z" />
<glyph unicode="c" horiz-adv-x="608" d="M70 261q0 122 82 201t192 79q122 0 204 -85l-36 -36q-66 71 -167 71q-91 0 -158 -64.5t-67 -164.5q0 -91 64.5 -158t164.5 -67q96 0 163 70l36 -35q-80 -85 -198 -85q-122 0 -201 81.5t-79 192.5z" />
<glyph unicode="d" d="M70 261q0 122 82 201t192 79q120 0 180 -87v346h50v-800h-50v76q-60 -89 -174 -89q-122 0 -201 81.5t-79 192.5zM120 262q0 -91 64.5 -158t164.5 -67q107 0 175 84v286q-67 84 -179 84q-91 0 -158 -64.5t-67 -164.5z" />
<glyph unicode="e" horiz-adv-x="657" d="M70 261q0 122 82 201t193 79q98 0 169.5 -54t97.5 -139l-492 -86q0 -91 65 -158t165 -67q61 0 114 31l25 -43q-64 -38 -139 -38q-122 0 -201 81.5t-79 192.5zM126 313l414 73q-30 48 -81 76.5t-114 28.5q-78 0 -140 -49t-79 -129z" />
<glyph unicode="f" horiz-adv-x="416" d="M70 474v50h50q1 80 40 144.5t101 98t133 33.5h72v-50h-72q-89 0 -156 -63.5t-68 -162.5h236v-50h-236v-474h-50v474h-50z" />
<glyph unicode="g" horiz-adv-x="695" d="M70 266q0 111 79 193t201 82q113 0 175 -90v56h50v-431q-2 -121 -83.5 -198.5t-190.5 -77.5h-72v50h72q89 0 156 63.5t68 162.5q-61 -90 -180 -90q-111 0 -193 79t-82 201zM120 266q0 -100 67.5 -165t157.5 -65q111 0 180 84v287q-68 84 -175 84q-100 0 -165 -67.5 t-65 -157.5z" />
<glyph unicode="h" horiz-adv-x="657" d="M120 0v800h50v-346q62 87 180 87q84 0 135.5 -55t51.5 -127v-359h-50v358q0 52 -38 92.5t-99 40.5q-111 0 -180 -84v-407h-50z" />
<glyph unicode="i" horiz-adv-x="336" d="M120 658q0 20 14 34t34 14t34 -14t14 -34t-14 -34t-34 -14t-34 14t-14 34zM144 0v524h50v-524h-50z" />
<glyph unicode="j" horiz-adv-x="378" d="M120 -164q66 66 66 164v524h50v-524q0 -120 -81 -199zM162 658q0 20 14 34t34 14t34 -14t14 -34t-14 -34t-34 -14t-34 14t-14 34z" />
<glyph unicode="k" horiz-adv-x="570" d="M120 0v800h50v-800h-50zM185 264l279 279l35 -35l-244 -244l245 -245l-35 -35z" />
<glyph unicode="l" horiz-adv-x="290" d="M120 0v800h50v-800h-50z" />
<glyph unicode="m" horiz-adv-x="1022" d="M120 0v524h50v-70q60 87 180 87q58 0 102 -28t66 -73l17 24q54 77 180 77q84 0 135.5 -55t51.5 -127v-359h-50v358q0 53 -37.5 93t-99.5 40q-111 0 -180 -84v-26q2 -14 2 -22v-359h-50v358q0 53 -38 93t-100 40q-112 0 -179 -84v-407h-50z" />
<glyph unicode="n" horiz-adv-x="707" d="M120 0v524h50v-133q11 50 84.5 100t146.5 50q84 0 135 -55t51 -127v-359h-50v358q0 53 -37.5 93t-99.5 40q-100 0 -165 -67t-65 -158v-266h-50z" />
<glyph unicode="o" d="M70 261q0 122 82 201t192 79q122 0 201 -81.5t79 -192.5q0 -122 -82 -201t-192 -79q-122 0 -201 81.5t-79 192.5zM120 262q0 -91 64.5 -158t164.5 -67q91 0 158 64.5t67 164.5q0 91 -64.5 158t-164.5 67q-91 0 -158 -64.5t-67 -164.5z" />
<glyph unicode="p" d="M120 -200v727h50v-76q60 90 174 90q122 0 201 -82t79 -193q0 -122 -82 -201t-192 -79q-120 0 -180 88v-274h-50zM170 120q67 -84 179 -84q91 0 158 65t67 165q0 90 -64.5 157.5t-164.5 67.5q-108 0 -175 -84v-287z" />
<glyph unicode="q" d="M70 266q0 111 79 193t201 82q114 0 174 -90v76h50v-727h-50v274q-60 -88 -180 -88q-110 0 -192 79t-82 201zM120 266q0 -100 67 -165t158 -65q112 0 179 84v287q-67 84 -175 84q-100 0 -164.5 -67.5t-64.5 -157.5z" />
<glyph unicode="r" horiz-adv-x="441" d="M120 0v524h50v-133q11 50 84.5 100t146.5 50v-50q-100 0 -165.5 -67t-65.5 -158v-266h-50z" />
<glyph unicode="s" horiz-adv-x="534" d="M70 38q113 8 194.5 47t81.5 86q0 25 -28.5 50.5t-62 44.5t-62 52t-28.5 71v2q0 11 2 18q6 22 20.5 41t32.5 32t41.5 23.5t45 16.5t44.5 10t38.5 6t28.5 3l14 1l3 -50q-12 0 -42 -4.5t-73 -14t-74 -32t-31 -52.5q0 -26 28.5 -51.5t62 -44.5t62 -52t28.5 -72q0 -8 -5 -25 q-11 -38 -46.5 -67.5t-73.5 -45t-87 -26t-70.5 -13.5t-40.5 -4z" />
<glyph unicode="t" horiz-adv-x="466" d="M70 474v50h50v148h50v-148h236v-50h-236v-302q0 -52 38 -92.5t99 -40.5q36 0 69 19l25 -43q-43 -26 -93 -26q-84 0 -136 55t-52 127v303h-50z" />
<glyph unicode="u" horiz-adv-x="707" d="M120 169v355h50v-354q0 -53 37.5 -93t99.5 -40q100 0 165 67t65 158v262h50v-524h-50v137q-11 -50 -84.5 -100t-146.5 -50q-84 0 -135 55t-51 127z" />
<glyph unicode="v" horiz-adv-x="595" d="M45 520l45 21l208 -445l208 445l45 -21l-253 -542z" />
<glyph unicode="w" horiz-adv-x="885" d="M45 520l45 21l208 -445l117 250l-81 173l45 21l208 -446l208 446l45 -22l-253 -542l-145 311l-144 -309z" />
<glyph unicode="x" horiz-adv-x="608" d="M50 10l222 264l-198 237l38 32l195 -232l195 232l38 -32l-201 -239l220 -262l-38 -32l-217 258l-216 -258z" />
<glyph unicode="y" horiz-adv-x="596" d="M45 520l45 21l208 -445l208 445l45 -21l-343 -735l-45 22l107 230z" />
<glyph unicode="z" horiz-adv-x="624" d="M50 0l398 474h-354v50h461l-398 -474h417v-50h-524z" />
<glyph unicode="{" horiz-adv-x="450" d="M120 275v50q37 0 67.5 27t30.5 75v249q0 59 36 91.5t81 32.5h115v-50h-113q-26 0 -47.5 -19t-21.5 -54v-249q0 -85 -66 -128q66 -43 66 -128v-249q0 -35 21.5 -54t47.5 -19h113v-50h-115q-45 0 -81 32.5t-36 91.5v249q0 48 -30.5 75t-67.5 27z" />
<glyph unicode="|" horiz-adv-x="290" d="M120 -200v1000h50v-1000h-50z" />
<glyph unicode="}" horiz-adv-x="450" d="M0 -150h113q26 0 47.5 19t21.5 54v249q0 85 66 128q-66 43 -66 128v249q0 35 -21.5 54t-47.5 19h-113v50h115q46 0 81.5 -32.5t35.5 -91.5v-249q0 -48 30.5 -75t67.5 -27v-50q-37 0 -67.5 -27t-30.5 -75v-249q0 -59 -35.5 -91.5t-81.5 -32.5h-115v50z" />
<glyph unicode="~" horiz-adv-x="589" d="M30 270q6 5 25.5 21t26 20.5t21.5 13t29 11t32 2.5q17 0 31 -2.5t23.5 -5t22.5 -10.5t19.5 -12.5t23 -17.5t25.5 -20q8 -6 24 -18.5t23 -17t18.5 -11t22 -9t23.5 -2.5q12 0 20 1.5t14 2.5t15 7.5t14 10t20 16t25 20.5l31 -39q-9 -7 -24 -19.5t-20.5 -17t-16 -12t-17 -9.5 t-16.5 -5.5t-21 -4.5t-25 -1t-27.5 3t-22 5t-23 11t-19 12.5t-23.5 18t-24 18.5q-10 7 -24.5 18.5t-20 15.5t-15.5 10.5t-16.5 8.5t-17 3.5t-22.5 1.5q-10 0 -18 -1.5t-14 -3.5t-15 -8t-14 -10t-19 -15.5t-23 -18.5z" />
<glyph unicode="&#xa2;" horiz-adv-x="547" d="M100 263q0 77 50.5 136t133.5 68v122h50v-122q69 -9 123 -63l-36 -34q-48 48 -113 48q-71 0 -114.5 -45.5t-43.5 -110.5q0 -69 45.5 -113t110.5 -44q68 0 115 49l36 -35q-53 -54 -123 -62v-122h-50v121q-78 8 -131 65t-53 142z" />
<glyph unicode="&#xa3;" horiz-adv-x="580" d="M120 0v50h48q100 0 100 79q0 10 -1 18.5t-4.5 17.5t-6 14.5t-10 15.5t-11.5 14.5t-15.5 18.5t-16.5 20h-83v50h41q-19 22 -27 41.5t-8 51.5q0 57 41.5 102.5t111.5 45.5q35 0 71 -20t56 -66l-43 -25q-8 23 -24.5 37.5t-30.5 19t-29 4.5q-47 0 -75 -30.5t-28 -68.5 q0 -12 1.5 -21t7 -18t9.5 -14t15.5 -18t17.5 -21h117v-50h-76q26 -31 38 -56t12 -60q0 -42 -16 -62q-8 -8 -24 -20h34q63 0 95.5 33t32.5 85q0 8 -8 40l46 20q12 -33 12 -58q0 -79 -49.5 -124.5t-128.5 -45.5h-192z" />
<glyph unicode="&#xa8;" horiz-adv-x="493" d="M100 609q0 20 14 34t34 14t34 -14t14 -34q0 -19 -14 -33.5t-34 -14.5t-34 14.5t-14 33.5zM297 609q0 20 14 34t34 14t34 -14t14 -34q0 -19 -14.5 -33.5t-33.5 -14.5t-33.5 14.5t-14.5 33.5z" />
<glyph unicode="&#xab;" horiz-adv-x="426" d="M80 263l105 187l44 -24l-92 -163l92 -162l-44 -25zM188 263l105 187l44 -24l-92 -163l92 -162l-44 -25z" />
<glyph unicode="&#xad;" horiz-adv-x="355" d="M30 281l287 51l8 -49l-286 -51z" />
<glyph unicode="&#xb4;" horiz-adv-x="294" d="M50 613l150 160l44 -45l-163 -147z" />
<glyph unicode="&#xb8;" horiz-adv-x="300" d="M80 -125h43q0 -17 10.5 -28.5t30.5 -11.5q15 0 27 10.5t12 30.5q0 15 -10.5 27t-30.5 12q-23 0 -34 -20l-37 21l48 84h50q-2 -3 -30 -53q6 5 20 5q30 0 48.5 -22.5t18.5 -52.5q0 -35 -22.5 -60t-57.5 -25q-36 0 -61 23t-25 60z" />
<glyph unicode="&#xbb;" horiz-adv-x="427" d="M90 101l92 162l-92 163l44 24l105 -187l-105 -187zM198 101l92 162l-92 163l44 24l105 -187l-105 -187z" />
<glyph unicode="&#xc0;" horiz-adv-x="791" d="M50 11l346 740l345 -740l-49 -23l-126 270h-341l-126 -270zM232 938l45 45l150 -160l-31 -32zM250 312h291l-146 312z" />
<glyph unicode="&#xc1;" horiz-adv-x="791" d="M50 11l346 740l345 -740l-49 -23l-126 270h-341l-126 -270zM250 312h291l-146 312zM365 823l150 160l44 -45l-163 -147z" />
<glyph unicode="&#xc2;" horiz-adv-x="791" d="M50 11l346 740l345 -740l-49 -23l-126 270h-341l-126 -270zM250 312h291l-146 312zM254 829l142 127l142 -127l-34 -38l-108 98l-109 -98z" />
<glyph unicode="&#xc3;" horiz-adv-x="791" d="M50 11l346 740l345 -740l-49 -23l-126 270h-341l-126 -270zM250 312h291l-146 312zM255 835q33 60 84 60q31 0 66 -27t47 -27q20 0 40 34l44 -24q-14 -21 -21 -29.5t-25.5 -19.5t-42.5 -11q-27 0 -60.5 27.5t-46.5 27.5q-21 0 -41 -34z" />
<glyph unicode="&#xc4;" horiz-adv-x="791" d="M50 11l346 740l345 -740l-49 -23l-126 270h-341l-126 -270zM249 839q0 20 14 34t34 14t34 -14t14 -34t-14 -34t-34 -14q-19 0 -33.5 14.5t-14.5 33.5zM250 312h291l-146 312zM446 839q0 20 14 34t34 14t34 -14t14 -34t-14 -34t-34 -14t-34 14.5t-14 33.5z" />
<glyph unicode="&#xc5;" horiz-adv-x="791" d="M50 11l343 734q-39 2 -66 28t-27 65q0 41 26 70t67 29q40 0 69.5 -26t29.5 -67t-26 -70t-67 -29l342 -734l-49 -23l-126 270h-341l-126 -270zM250 312h291l-146 312zM350 839q0 -17 12 -30.5t35 -13.5q17 0 31 12.5t14 35.5q0 17 -12.5 30.5t-35.5 13.5 q-17 0 -30.5 -12.5t-13.5 -35.5z" />
<glyph unicode="&#xc7;" horiz-adv-x="806" d="M55 362q0 111 53.5 200.5t140 137.5t186.5 48q165 0 276 -113l-38 -38q-95 97 -238 97q-133 0 -229.5 -95t-96.5 -236q0 -134 95 -230.5t236 -96.5q133 0 230 94l38 -38q-103 -101 -246 -109q-5 -10 -15.5 -27t-11.5 -20q6 5 21 5q29 0 48 -22.5t19 -52.5 q0 -35 -22.5 -60t-58.5 -25t-60.5 23t-24.5 60h43q0 -17 10.5 -28.5t30.5 -11.5q14 0 26 10.5t12 30.5q0 14 -10.5 26t-30.5 12q-23 0 -33 -19l-38 21q5 8 11.5 19.5t11.5 20t11 19t12 19.5q-104 7 -186.5 61.5t-127 138.5t-44.5 179z" />
<glyph unicode="&#xc8;" horiz-adv-x="588" d="M120 0v728h330v-54h-276v-262h220v-54h-220v-304h314v-54h-368zM122 935l44 45l150 -160l-31 -32z" />
<glyph unicode="&#xc9;" horiz-adv-x="588" d="M120 0v728h330v-54h-276v-262h220v-54h-220v-304h314v-54h-368zM254 820l150 160l44 -45l-163 -147z" />
<glyph unicode="&#xca;" horiz-adv-x="588" d="M120 0v728h330v-54h-276v-262h220v-54h-220v-304h314v-54h-368zM143 826l142 127l142 -127l-34 -38l-108 98l-109 -98z" />
<glyph unicode="&#xcb;" horiz-adv-x="588" d="M120 0v728h330v-54h-276v-262h220v-54h-220v-304h314v-54h-368zM138 836q0 20 14 34t34 14t34 -14t14 -34t-14 -34t-34 -14t-34 14t-14 34zM335 836q0 20 14 34t34 14t34 -14t14 -34t-14 -34t-34 -14q-19 0 -33.5 14t-14.5 34z" />
<glyph unicode="&#xcc;" horiz-adv-x="294" d="M-16 935l44 45l150 -160l-31 -32zM120 0v728h54v-728h-54z" />
<glyph unicode="&#xcd;" horiz-adv-x="294" d="M116 820l150 160l44 -45l-163 -147zM120 0v728h54v-728h-54z" />
<glyph unicode="&#xce;" horiz-adv-x="294" d="M5 826l142 127l142 -127l-33 -38l-109 98l-109 -98zM120 0v728h54v-728h-54z" />
<glyph unicode="&#xcf;" horiz-adv-x="294" d="M0 836q0 20 14 34t34 14t34 -14t14 -34t-14 -34t-34 -14t-34 14t-14 34zM120 0v728h54v-728h-54zM198 836q0 20 14 34t34 14t34 -14t14 -34t-14 -34t-34 -14t-34 14t-14 34z" />
<glyph unicode="&#xd1;" horiz-adv-x="821" d="M120 0v752l527 -628v604h54v-752l-527 628v-604h-54zM272 836q33 60 84 60q31 0 66 -27.5t47 -27.5q20 0 40 35l44 -24q-14 -21 -21 -29.5t-25.5 -19.5t-42.5 -11q-27 0 -60.5 27t-46.5 27q-22 0 -41 -34z" />
<glyph unicode="&#xd2;" horiz-adv-x="876" d="M55 362q0 111 53.5 200.5t140 137.5t186.5 48q111 0 200.5 -53.5t137.5 -140t48 -186.5q0 -111 -53.5 -200.5t-140 -137.5t-186.5 -48q-111 0 -200.5 53.5t-137.5 140t-48 186.5zM109 363q0 -131 93.5 -229t237.5 -98q131 0 229 93t98 236q0 137 -95 233t-237 96 q-130 0 -228 -93.5t-98 -237.5zM272 935l44 45l150 -160l-31 -32z" />
<glyph unicode="&#xd3;" horiz-adv-x="876" d="M55 362q0 111 53.5 200.5t140 137.5t186.5 48q111 0 200.5 -53.5t137.5 -140t48 -186.5q0 -111 -53.5 -200.5t-140 -137.5t-186.5 -48q-111 0 -200.5 53.5t-137.5 140t-48 186.5zM109 363q0 -131 93.5 -229t237.5 -98q131 0 229 93t98 236q0 137 -95 233t-237 96 q-130 0 -228 -93.5t-98 -237.5zM404 820l150 160l44 -45l-163 -147z" />
<glyph unicode="&#xd4;" horiz-adv-x="876" d="M55 362q0 111 53.5 200.5t140 137.5t186.5 48q111 0 200.5 -53.5t137.5 -140t48 -186.5q0 -111 -53.5 -200.5t-140 -137.5t-186.5 -48q-111 0 -200.5 53.5t-137.5 140t-48 186.5zM109 363q0 -131 93.5 -229t237.5 -98q131 0 229 93t98 236q0 137 -95 233t-237 96 q-130 0 -228 -93.5t-98 -237.5zM293 826l142 127l142 -127l-34 -38l-108 98l-109 -98z" />
<glyph unicode="&#xd5;" horiz-adv-x="876" d="M55 362q0 111 53.5 200.5t140 137.5t186.5 48q111 0 200.5 -53.5t137.5 -140t48 -186.5q0 -111 -53.5 -200.5t-140 -137.5t-186.5 -48q-111 0 -200.5 53.5t-137.5 140t-48 186.5zM109 363q0 -131 93.5 -229t237.5 -98q131 0 229 93t98 236q0 137 -95 233t-237 96 q-130 0 -228 -93.5t-98 -237.5zM295 832q33 60 83 60q31 0 66 -27t47 -27q20 0 40 34l44 -24q-14 -21 -21 -29.5t-25.5 -19.5t-42.5 -11q-27 0 -60.5 27.5t-46.5 27.5q-22 0 -40 -34z" />
<glyph unicode="&#xd6;" horiz-adv-x="876" d="M55 362q0 111 53.5 200.5t140 137.5t186.5 48q111 0 200.5 -53.5t137.5 -140t48 -186.5q0 -111 -53.5 -200.5t-140 -137.5t-186.5 -48q-111 0 -200.5 53.5t-137.5 140t-48 186.5zM109 363q0 -131 93.5 -229t237.5 -98q131 0 229 93t98 236q0 137 -95 233t-237 96 q-130 0 -228 -93.5t-98 -237.5zM288 836q0 20 14 34t34 14t34 -14t14 -34t-14 -34t-34 -14t-34 14t-14 34zM485 836q0 20 14 34t34 14t34 -14t14 -34t-14 -34t-34 -14q-19 0 -33.5 14t-14.5 34z" />
<glyph unicode="&#xd9;" horiz-adv-x="790" d="M120 256v472h54v-470q0 -87 62 -153t162 -66q86 0 152 62.5t66 161.5v465h54v-465q0 -123 -82.5 -200.5t-189.5 -77.5q-123 0 -200.5 82t-77.5 189zM232 935l44 45l150 -160l-31 -32z" />
<glyph unicode="&#xda;" horiz-adv-x="790" d="M120 256v472h54v-470q0 -87 62 -153t162 -66q86 0 152 62.5t66 161.5v465h54v-465q0 -123 -82.5 -200.5t-189.5 -77.5q-123 0 -200.5 82t-77.5 189zM364 820l150 160l44 -45l-163 -147z" />
<glyph unicode="&#xdb;" horiz-adv-x="790" d="M120 256v472h54v-470q0 -87 62 -153t162 -66q86 0 152 62.5t66 161.5v465h54v-465q0 -123 -82.5 -200.5t-189.5 -77.5q-123 0 -200.5 82t-77.5 189zM253 826l142 127l142 -127l-33 -38l-109 98l-109 -98z" />
<glyph unicode="&#xdc;" horiz-adv-x="790" d="M120 256v472h54v-470q0 -87 62 -153t162 -66q86 0 152 62.5t66 161.5v465h54v-465q0 -123 -82.5 -200.5t-189.5 -77.5q-123 0 -200.5 82t-77.5 189zM248 836q0 20 14 34t34 14t34 -14t14 -34t-14 -34t-34 -14t-34 14t-14 34zM445 836q0 20 14 34t34 14t34 -14t14 -34 t-14 -34t-34 -14q-19 0 -33.5 14t-14.5 34z" />
<glyph unicode="&#xdd;" horiz-adv-x="595" d="M40 715l49 23l208 -448l209 448l49 -23l-231 -495v-220h-54v221zM267 820l150 160l45 -45l-164 -147z" />
<glyph unicode="&#xe0;" d="M70 261q0 122 82 201t192 79q120 0 180 -87v70h50v-524h-50v76q-60 -89 -174 -89q-122 0 -201 81.5t-79 192.5zM120 262q0 -91 64.5 -158t164.5 -67q108 0 175 84v286q-67 84 -179 84q-91 0 -158 -64.5t-67 -164.5zM181 728l44 45l150 -160l-31 -32z" />
<glyph unicode="&#xe1;" d="M70 261q0 122 82 201t192 79q120 0 180 -87v70h50v-524h-50v76q-60 -89 -174 -89q-122 0 -201 81.5t-79 192.5zM120 262q0 -91 64.5 -158t164.5 -67q108 0 175 84v286q-67 84 -179 84q-91 0 -158 -64.5t-67 -164.5zM313 613l150 160l44 -45l-163 -147z" />
<glyph unicode="&#xe2;" d="M70 261q0 122 82 201t192 79q120 0 180 -87v70h50v-524h-50v76q-60 -89 -174 -89q-122 0 -201 81.5t-79 192.5zM120 262q0 -91 64.5 -158t164.5 -67q108 0 175 84v286q-67 84 -179 84q-91 0 -158 -64.5t-67 -164.5zM202 618l142 128l142 -128l-33 -37l-109 97l-108 -97z " />
<glyph unicode="&#xe3;" d="M70 261q0 122 82 201t192 79q120 0 180 -87v70h50v-524h-50v76q-60 -89 -174 -89q-122 0 -201 81.5t-79 192.5zM120 262q0 -91 64.5 -158t164.5 -67q108 0 175 84v286q-67 84 -179 84q-91 0 -158 -64.5t-67 -164.5zM204 625q33 60 84 60q30 0 65 -27.5t48 -27.5 q20 0 39 35l44 -24q-13 -20 -20 -29.5t-26 -20t-43 -10.5q-27 0 -60 27t-46 27q-22 0 -41 -34z" />
<glyph unicode="&#xe4;" d="M70 261q0 122 82 201t192 79q120 0 180 -87v70h50v-524h-50v76q-60 -89 -174 -89q-122 0 -201 81.5t-79 192.5zM120 262q0 -91 64.5 -158t164.5 -67q108 0 175 84v286q-67 84 -179 84q-91 0 -158 -64.5t-67 -164.5zM198 629q0 20 14 34t34 14t34 -14.5t14 -33.5 t-14 -33.5t-34 -14.5t-34 14t-14 34zM395 629q0 20 14 34t34 14q19 0 33.5 -14.5t14.5 -33.5t-14.5 -33.5t-33.5 -14.5q-20 0 -34 14t-14 34z" />
<glyph unicode="&#xe5;" d="M70 261q0 122 82 201t192 79q120 0 180 -87v70h50v-524h-50v76q-60 -89 -174 -89q-122 0 -201 81.5t-79 192.5zM120 262q0 -91 64.5 -158t164.5 -67q108 0 175 84v286q-67 84 -179 84q-91 0 -158 -64.5t-67 -164.5zM248 674q0 41 26 70t67 29t70 -26t29 -67 q0 -40 -26 -69.5t-67 -29.5q-40 0 -69.5 26t-29.5 67zM298 675q0 -17 12.5 -30.5t35.5 -13.5q17 0 30.5 12.5t13.5 35.5q0 17 -12.5 30.5t-35.5 13.5q-16 0 -30 -12.5t-14 -35.5z" />
<glyph unicode="&#xe7;" horiz-adv-x="608" d="M70 261q0 81 39 146t101.5 99.5t133.5 34.5q122 0 204 -85l-36 -36q-66 71 -167 71q-91 0 -158 -64.5t-67 -164.5q0 -59 28 -110t81.5 -83t119.5 -32q96 0 163 70l36 -35q-71 -76 -176 -84q-6 -9 -16.5 -27t-11.5 -20q7 5 21 5q29 0 48 -22.5t19 -52.5q0 -35 -22.5 -60 t-58.5 -25t-60.5 23t-24.5 60h43q0 -17 10.5 -28.5t30.5 -11.5q15 0 27 10.5t12 30.5q0 14 -11 26t-31 12q-23 0 -33 -19l-38 21q4 7 20.5 35t25.5 43q-111 10 -181.5 90t-70.5 183z" />
<glyph unicode="&#xe8;" horiz-adv-x="657" d="M70 261q0 122 82 201t193 79q98 0 169.5 -54t97.5 -139l-492 -86q0 -91 65 -158t165 -67q61 0 114 31l25 -43q-64 -38 -139 -38q-122 0 -201 81.5t-79 192.5zM126 313l414 73q-30 48 -81 76.5t-114 28.5q-78 0 -140 -49t-79 -129zM181 728l44 45l151 -160l-31 -32z" />
<glyph unicode="&#xe9;" horiz-adv-x="657" d="M70 261q0 122 82 201t193 79q98 0 169.5 -54t97.5 -139l-492 -86q0 -91 65 -158t165 -67q61 0 114 31l25 -43q-64 -38 -139 -38q-122 0 -201 81.5t-79 192.5zM126 313l414 73q-30 48 -81 76.5t-114 28.5q-78 0 -140 -49t-79 -129zM314 613l150 160l44 -45l-163 -147z" />
<glyph unicode="&#xea;" horiz-adv-x="657" d="M70 261q0 122 82 201t193 79q98 0 169.5 -54t97.5 -139l-492 -86q0 -91 65 -158t165 -67q61 0 114 31l25 -43q-64 -38 -139 -38q-122 0 -201 81.5t-79 192.5zM126 313l414 73q-30 48 -81 76.5t-114 28.5q-78 0 -140 -49t-79 -129zM203 618l142 128l142 -128l-34 -37 l-108 97l-109 -97z" />
<glyph unicode="&#xeb;" horiz-adv-x="657" d="M70 261q0 122 82 201t193 79q98 0 169.5 -54t97.5 -139l-492 -86q0 -91 65 -158t165 -67q61 0 114 31l25 -43q-64 -38 -139 -38q-122 0 -201 81.5t-79 192.5zM126 313l414 73q-30 48 -81 76.5t-114 28.5q-78 0 -140 -49t-79 -129zM198 629q0 19 14 33.5t34 14.5t34 -14 t14 -34t-14 -34t-34 -14t-34 14.5t-14 33.5zM395 629q0 19 14.5 33.5t33.5 14.5q20 0 34 -14t14 -34t-14 -34t-34 -14q-19 0 -33.5 14.5t-14.5 33.5z" />
<glyph unicode="&#xec;" horiz-adv-x="336" d="M6 728l44 45l150 -160l-31 -32zM144 0v524h50v-524h-50z" />
<glyph unicode="&#xed;" horiz-adv-x="336" d="M138 613l150 160l44 -45l-163 -147zM144 0v524h50v-524h-50z" />
<glyph unicode="&#xee;" horiz-adv-x="336" d="M27 618l142 128l142 -128l-33 -37l-109 97l-109 -97zM144 0v524h50v-524h-50z" />
<glyph unicode="&#xef;" horiz-adv-x="336" d="M22 629q0 19 14 33.5t34 14.5t34 -14t14 -34t-14 -34t-34 -14t-34 14.5t-14 33.5zM144 0v524h50v-524h-50zM220 629q0 20 14 34t34 14t34 -14.5t14 -33.5t-14 -33.5t-34 -14.5t-34 14t-14 34z" />
<glyph unicode="&#xf1;" horiz-adv-x="707" d="M120 0v524h50v-133q11 50 84.5 100t146.5 50q84 0 135 -55t51 -127v-359h-50v358q0 53 -37.5 93t-99.5 40q-100 0 -165 -67t-65 -158v-266h-50zM213 625q33 60 84 60q31 0 66 -27.5t47 -27.5q20 0 40 35l44 -24q-14 -21 -21 -29.5t-25.5 -19.5t-42.5 -11q-27 0 -60.5 27 t-46.5 27q-22 0 -41 -34z" />
<glyph unicode="&#xf2;" d="M70 261q0 122 82 201t192 79q122 0 201 -81.5t79 -192.5q0 -122 -82 -201t-192 -79q-122 0 -201 81.5t-79 192.5zM120 262q0 -91 64.5 -158t164.5 -67q91 0 158 64.5t67 164.5q0 91 -64.5 158t-164.5 67q-91 0 -158 -64.5t-67 -164.5zM181 728l44 45l150 -160l-31 -32z " />
<glyph unicode="&#xf3;" d="M70 261q0 122 82 201t192 79q122 0 201 -81.5t79 -192.5q0 -122 -82 -201t-192 -79q-122 0 -201 81.5t-79 192.5zM120 262q0 -91 64.5 -158t164.5 -67q91 0 158 64.5t67 164.5q0 91 -64.5 158t-164.5 67q-91 0 -158 -64.5t-67 -164.5zM313 613l150 160l44 -45l-163 -147z " />
<glyph unicode="&#xf4;" d="M70 261q0 122 82 201t192 79q122 0 201 -81.5t79 -192.5q0 -122 -82 -201t-192 -79q-122 0 -201 81.5t-79 192.5zM120 262q0 -91 64.5 -158t164.5 -67q91 0 158 64.5t67 164.5q0 91 -64.5 158t-164.5 67q-91 0 -158 -64.5t-67 -164.5zM202 618l142 128l142 -128l-33 -37 l-109 97l-108 -97z" />
<glyph unicode="&#xf5;" d="M70 261q0 122 82 201t192 79q122 0 201 -81.5t79 -192.5q0 -122 -82 -201t-192 -79q-122 0 -201 81.5t-79 192.5zM120 262q0 -91 64.5 -158t164.5 -67q91 0 158 64.5t67 164.5q0 91 -64.5 158t-164.5 67q-91 0 -158 -64.5t-67 -164.5zM204 625q33 60 84 60q30 0 65 -27.5 t48 -27.5q20 0 39 35l44 -24q-13 -20 -20 -29.5t-26 -20t-43 -10.5q-27 0 -60 27t-46 27q-22 0 -41 -34z" />
<glyph unicode="&#xf6;" d="M70 261q0 122 82 201t192 79q122 0 201 -81.5t79 -192.5q0 -122 -82 -201t-192 -79q-122 0 -201 81.5t-79 192.5zM120 262q0 -91 64.5 -158t164.5 -67q91 0 158 64.5t67 164.5q0 91 -64.5 158t-164.5 67q-91 0 -158 -64.5t-67 -164.5zM198 629q0 20 14 34t34 14t34 -14.5 t14 -33.5t-14 -33.5t-34 -14.5t-34 14t-14 34zM395 629q0 20 14 34t34 14q19 0 33.5 -14.5t14.5 -33.5t-14.5 -33.5t-33.5 -14.5q-20 0 -34 14t-14 34z" />
<glyph unicode="&#xf9;" horiz-adv-x="707" d="M120 169v355h50v-354q0 -53 37.5 -93t99.5 -40q100 0 165 67t65 158v262h50v-524h-50v137q-11 -50 -84.5 -100t-146.5 -50q-84 0 -135 55t-51 127zM190 728l44 45l150 -160l-31 -32z" />
<glyph unicode="&#xfa;" horiz-adv-x="707" d="M120 169v355h50v-354q0 -53 37.5 -93t99.5 -40q100 0 165 67t65 158v262h50v-524h-50v137q-11 -50 -84.5 -100t-146.5 -50q-84 0 -135 55t-51 127zM322 613l150 160l45 -45l-164 -147z" />
<glyph unicode="&#xfb;" horiz-adv-x="707" d="M120 169v355h50v-354q0 -53 37.5 -93t99.5 -40q100 0 165 67t65 158v262h50v-524h-50v137q-11 -50 -84.5 -100t-146.5 -50q-84 0 -135 55t-51 127zM211 618l142 128l142 -128l-33 -37l-109 97l-108 -97z" />
<glyph unicode="&#xfc;" horiz-adv-x="707" d="M120 169v355h50v-354q0 -53 37.5 -93t99.5 -40q100 0 165 67t65 158v262h50v-524h-50v137q-11 -50 -84.5 -100t-146.5 -50q-84 0 -135 55t-51 127zM207 629q0 20 14 34t34 14q19 0 33.5 -14.5t14.5 -33.5t-14.5 -33.5t-33.5 -14.5q-20 0 -34 14t-14 34zM404 629 q0 20 14 34t34 14t34 -14.5t14 -33.5t-14 -33.5t-34 -14.5t-34 14t-14 34z" />
<glyph unicode="&#xfd;" horiz-adv-x="596" d="M45 520l45 21l208 -445l208 445l45 -21l-343 -735l-45 22l107 230zM263 613l150 160l45 -45l-164 -147z" />
<glyph unicode="&#xff;" horiz-adv-x="596" d="M45 520l45 21l208 -445l208 445l45 -21l-343 -735l-45 22l107 230zM156 629q0 20 14 34t34 14t34 -14t14 -34q0 -19 -14 -33.5t-34 -14.5t-34 14t-14 34zM353 629q0 20 14 34t34 14t34 -14t14 -34q0 -19 -14.5 -33.5t-33.5 -14.5q-20 0 -34 14t-14 34z" />
<glyph unicode="&#x178;" horiz-adv-x="595" d="M40 715l49 23l208 -448l209 448l49 -23l-231 -495v-220h-54v221zM152 836q0 20 14 34t34 14t34 -14t14 -34t-14 -34t-34 -14t-34 14t-14 34zM349 836q0 20 14 34t34 14t34 -14t14 -34t-14.5 -34t-33.5 -14q-20 0 -34 14t-14 34z" />
<glyph unicode="&#x2c6;" horiz-adv-x="384" d="M50 619l142 127l142 -127l-33 -38l-109 98l-108 -98z" />
<glyph unicode="&#x2dc;" horiz-adv-x="380" d="M50 626q38 60 84 60q30 0 65.5 -27.5t47.5 -27.5q20 0 39 34l44 -24q-13 -20 -20 -29.5t-26 -20t-43 -10.5q-27 0 -60 27.5t-46 27.5q-21 0 -41 -34z" />
<glyph unicode="&#x2000;" horiz-adv-x="491" />
<glyph unicode="&#x2001;" horiz-adv-x="983" />
<glyph unicode="&#x2002;" horiz-adv-x="491" />
<glyph unicode="&#x2003;" horiz-adv-x="983" />
<glyph unicode="&#x2004;" horiz-adv-x="327" />
<glyph unicode="&#x2005;" horiz-adv-x="245" />
<glyph unicode="&#x2006;" horiz-adv-x="163" />
<glyph unicode="&#x2007;" horiz-adv-x="163" />
<glyph unicode="&#x2008;" horiz-adv-x="122" />
<glyph unicode="&#x2009;" horiz-adv-x="196" />
<glyph unicode="&#x200a;" horiz-adv-x="54" />
<glyph unicode="&#x2010;" horiz-adv-x="355" d="M30 281l287 51l8 -49l-286 -51z" />
<glyph unicode="&#x2011;" horiz-adv-x="355" d="M30 281l287 51l8 -49l-286 -51z" />
<glyph unicode="&#x2012;" horiz-adv-x="355" d="M30 281l287 51l8 -49l-286 -51z" />
<glyph unicode="&#x2013;" horiz-adv-x="500" d="M0 238v50h500v-50h-500z" />
<glyph unicode="&#x2014;" horiz-adv-x="1000" d="M0 238v50h1000v-50h-1000z" />
<glyph unicode="&#x2018;" horiz-adv-x="224" d="M40 789l60 21l64 -210l-42 -14z" />
<glyph unicode="&#x2019;" horiz-adv-x="223" d="M60 600l64 210l60 -21l-82 -203z" />
<glyph unicode="&#x201a;" horiz-adv-x="244" d="M60 -110l64 210l60 -21l-82 -203z" />
<glyph unicode="&#x201c;" horiz-adv-x="367" d="M40 789l59 21l64 -210l-42 -14zM183 789l60 21l64 -210l-42 -14z" />
<glyph unicode="&#x201d;" horiz-adv-x="367" d="M60 600l64 210l60 -21l-82 -203zM204 600l64 210l59 -21l-81 -203z" />
<glyph unicode="&#x201e;" horiz-adv-x="387" d="M60 -110l64 210l60 -21l-82 -203zM204 -110l64 210l59 -21l-81 -203z" />
<glyph unicode="&#x2026;" horiz-adv-x="1000" d="M120 44q0 20 14 34t34 14t34 -14t14 -34t-14 -34t-34 -14t-34 14t-14 34zM452 44q0 20 14 34t34 14t34 -14t14 -34t-14 -34t-34 -14t-34 14t-14 34zM786 44q0 20 14 34t34 14t34 -14t14 -34t-14 -34t-34 -14t-34 14t-14 34z" />
<glyph unicode="&#x202f;" horiz-adv-x="196" />
<glyph unicode="&#x2039;" horiz-adv-x="318" d="M80 263l105 187l44 -24l-92 -163l92 -162l-44 -25z" />
<glyph unicode="&#x203a;" horiz-adv-x="319" d="M90 101l92 162l-92 163l44 24l105 -187l-105 -187z" />
<glyph unicode="&#x205f;" horiz-adv-x="245" />
<glyph unicode="&#x20ac;" horiz-adv-x="639" d="M30 285l19 47h70q21 74 71.5 123.5t98.5 66.5t92 17q118 0 204 -82q-18 -46 -20 -46q-1 0 -8.5 8t-21.5 20t-33 24t-48.5 20.5t-63.5 9.5h-5q-76 0 -135 -46t-82 -115h364l-19 -47h-355q0 -1 -0.5 -8.5t-0.5 -13.5q0 -7 0.5 -14.5t0.5 -8.5h336l-20 -47h-306 q18 -55 57.5 -93t80 -53t79.5 -15q33 0 64 8.5t51 20.5t35.5 24t22.5 21l7 8v-64l-10 -8q-76 -56 -167 -56q-24 0 -50.5 5t-62.5 18.5t-70.5 44.5t-59.5 76q-15 27 -26 63h-86l19 47h60q-1 4 -1 22q0 19 1 23h-82z" />
<glyph unicode="&#xe000;" horiz-adv-x="545" d="M0 0v545h545v-545h-545z" />
</font>
</defs>
</svg>
